Subcategories

Alamaailman Vasarat - Käärmelautakunta (2003)

Posted By: gribovar
Alamaailman Vasarat - Käärmelautakunta (2003)

Alamaailman Vasarat - Kaarmelautakunta (2003)
EAC Rip | FLAC (tracks+.cue+log) - 311 MB | MP3 CBR 320 kbps (LAME 3.93) - 114 MB | Covers (8 MB) included
Genre: Avant-Prog | RAR 3% Rec. | Label: Silence Records (SLC 014)

On "Käärmelautakunta" they weren't afraid anymore at going in the most extreme directions, expanding the ways of their previous release. Alamaailman Vasarat at their wildest, really ; now the guitar parts almost dominate the whole sound of the band and doesn't interfere in disparate tracks like they used to before. The album gains on energy but young blood and amplified distorted guitar do not necessarily means strong music. On "Käärmelautakunta" however it is the case ; an album full of twists and turns, and a sonic palette that includes cello, trumpet, trombone, pump organ and so on. If you liked the craziness of Emir Kusturica's movies, you will find entering in Alamaailman Vasarat's world is quite easy. A sense of drama, a sense of fair, a sense of music that likes to tickle the boundaries of contemporary music. Thus, a sense of prog.

Tracklist:
01. Kivitetty Saatana
02. Vasaraasialainen
03. Pelko Antaa Siivet
04. Hamarapuolella
05. Vanha Lapsuudenystävä
06. Olisimme Uineet Vielakin Pidemmalle
07. Lentava Mato
08. Jaa, Hyva Mieli

Total time: 43:01

Exact Audio Copy V0.99 prebeta 4 from 23. January 2008

EAC extraction logfile from 2. August 2008, 15:59

Alamaailman Vasarat / Kaarmelautakunta

Used drive : SONY DVD-ROM DDU1612 Adapter: 0 ID: 1

Read mode : Secure
Utilize accurate stream : Yes
Defeat audio cache : Yes
Make use of C2 pointers : No

Read offset correction : 12
Overread into Lead-In and Lead-Out : No
Fill up missing offset samples with silence : Yes
Delete leading and trailing silent blocks : No
Null samples used in CRC calculations : Yes
Used interface : Installed external ASPI interface
Gap handling : Appended to previous track

Used output format : User Defined Encoder
Selected bitrate : 320 kBit/s
Quality : High
Add ID3 tag : No
Command line compressor : C:\Program Files\FLAC\flac.exe
Additional command line options : -8 -V -T "ARTIST=%a" -T "TITLE=%t" -T "ALBUM=%g" -T "DATE=%y" -T "TRACKNUMBER=%n" -T "GENRE=%m" -T "COMMENT=EAC FLAC -8" %s


TOC of the extracted CD

Track | Start | Length | Start sector | End sector
––––––––––––––––––––––––––––-
1 | 0:00.00 | 4:48.44 | 0 | 21643
2 | 4:48.44 | 5:50.08 | 21644 | 47901
3 | 10:38.52 | 3:59.42 | 47902 | 65868
4 | 14:38.19 | 5:15.63 | 65869 | 89556
5 | 19:54.07 | 3:10.45 | 89557 | 103851
6 | 23:04.52 | 6:14.34 | 103852 | 131935
7 | 29:19.11 | 5:44.46 | 131936 | 157781
8 | 35:03.57 | 3:41.27 | 157782 | 174383
9 | 38:45.09 | 6:00.53 | 174384 | 201436


Track 1

Filename D:\My Music\Alamaailman Vasarat\Kaarmelautakunta - 2003\01 - Kivitetty Saatana.wav

Pre-gap length 0:00:02.00

Peak level 98.8 %
Track quality 100.0 %
Test CRC BFBA4873
Copy CRC BFBA4873
Accurately ripped (confidence 6) [0DBAF614]
Copy OK

Track 2

Filename D:\My Music\Alamaailman Vasarat\Kaarmelautakunta - 2003\02 - Vasaraasialainen.wav

Pre-gap length 0:00:03.01

Peak level 88.1 %
Track quality 100.0 %
Test CRC 529EB8C6
Copy CRC 529EB8C6
Accurately ripped (confidence 6) [72A41C3C]
Copy OK

Track 3

Filename D:\My Music\Alamaailman Vasarat\Kaarmelautakunta - 2003\03 - Pelko Antaa Siivet.wav

Pre-gap length 0:00:04.01

Peak level 78.5 %
Track quality 100.0 %
Test CRC CB009624
Copy CRC CB009624
Accurately ripped (confidence 6) [1091EC11]
Copy OK

Track 4

Filename D:\My Music\Alamaailman Vasarat\Kaarmelautakunta - 2003\04 - Hamarapuolella.wav

Pre-gap length 0:00:01.01

Peak level 78.5 %
Track quality 100.0 %
Test CRC 8BAD9CAF
Copy CRC 8BAD9CAF
Accurately ripped (confidence 6) [7C17D58E]
Copy OK

Track 5

Filename D:\My Music\Alamaailman Vasarat\Kaarmelautakunta - 2003\05 - Astiatehdas.wav

Pre-gap length 0:00:02.01

Peak level 98.8 %
Track quality 99.9 %
Test CRC 2DDE172E
Copy CRC 2DDE172E
Accurately ripped (confidence 6) [84E5A356]
Copy OK

Track 6

Filename D:\My Music\Alamaailman Vasarat\Kaarmelautakunta - 2003\06 - Vanha Lapsuudenystava.wav

Pre-gap length 0:00:04.01

Peak level 78.5 %
Track quality 100.0 %
Test CRC 21326585
Copy CRC 21326585
Accurately ripped (confidence 6) [763E344A]
Copy OK

Track 7

Filename D:\My Music\Alamaailman Vasarat\Kaarmelautakunta - 2003\07 - Olisimme Uineet Vielakin Pidemmalle.wav

Pre-gap length 0:00:00.01

Peak level 78.5 %
Track quality 100.0 %
Test CRC EB596284
Copy CRC EB596284
Accurately ripped (confidence 7) [01BD801D]
Copy OK

Track 8

Filename D:\My Music\Alamaailman Vasarat\Kaarmelautakunta - 2003\08 - Lentava Mato.wav

Pre-gap length 0:00:00.01

Peak level 88.1 %
Track quality 100.0 %
Test CRC E57DE962
Copy CRC E57DE962
Accurately ripped (confidence 6) [AD6466B8]
Copy OK

Track 9

Filename D:\My Music\Alamaailman Vasarat\Kaarmelautakunta - 2003\09 - Jaa, Hyva Mieli.wav

Pre-gap length 0:00:02.01

Peak level 98.8 %
Track quality 100.0 %
Test CRC F8EF5568
Copy CRC F8EF5568
Accurately ripped (confidence 6) [BFBD9729]
Copy OK


All tracks accurately ripped

No errors occurred

End of status report

[CUETools log; Date: 09.08.2018 23:49:42; Version: 2.1.4]
[CTDB TOCID: ml6wnJIreKhzRXeCVomNe8j.Xlg-] found.
Track | CTDB Status
1 | (26/26) Accurately ripped
2 | (25/26) Accurately ripped
3 | (26/26) Accurately ripped
4 | (26/26) Accurately ripped
5 | (25/26) Accurately ripped
6 | (25/26) Accurately ripped
7 | (26/26) Accurately ripped
8 | (26/26) Accurately ripped
9 | (26/26) Accurately ripped
[AccurateRip ID: 000f2c3b-006f407a-6f0a7d09] found.
Track [ CRC | V2 ] Status
01 [0dbaf614|7accd818] (16+05/29) Accurately ripped
02 [72a41c3c|5449ddef] (16+05/29) Accurately ripped
03 [1091ec11|f37d4bbd] (16+05/29) Accurately ripped
04 [7c17d58e|54471d54] (16+05/29) Accurately ripped
05 [84e5a356|fa0f156c] (16+05/29) Accurately ripped
06 [763e344a|f60c859c] (16+05/29) Accurately ripped
07 [01bd801d|ce14968d] (16+05/29) Accurately ripped
08 [ad6466b8|a2b18526] (16+05/29) Accurately ripped
09 [bfbd9729|51847281] (15+05/28) Accurately ripped
Offsetted by -664:
01 [467fd3f5] (02/29) Accurately ripped
02 [e3f1202c] (02/29) Accurately ripped
03 [c7d6d599] (02/29) Accurately ripped
04 [295d86be] (02/29) Accurately ripped
05 [a48c02fe] (02/29) Accurately ripped
06 [1e0bc396] (02/29) Accurately ripped
07 [70fc6fb5] (02/29) Accurately ripped
08 [ff5d1f54] (02/29) Accurately ripped
09 [c1f2dd2a] (02/28) Accurately ripped
Offsetted by -1334:
01 [67d7a99e] (00/29) No match (V2 was not tested)
02 [a8c5c6d8] (00/29) No match (V2 was not tested)
03 [36bd86a3] (00/29) No match (V2 was not tested)
04 [5d99d2fa] (00/29) No match (V2 was not tested)
05 [491bfc30] (00/29) No match (V2 was not tested)
06 [24504a36] (00/29) No match (V2 was not tested)
07 [ede1a23f] (00/29) No match (V2 was not tested)
08 [acf729d6] (00/29) No match (V2 was not tested)
09 [3394fe3f] (00/28) No match (V2 was not tested)
Offsetted by -670:
01 [434dbce3] (00/29) No match (V2 was not tested)
02 [3778c2e8] (00/29) No match (V2 was not tested)
03 [7f789d1b] (00/29) No match (V2 was not tested)
04 [b05421ca] (00/29) No match (V2 was not tested)
05 [29759c88] (00/29) No match (V2 was not tested)
06 [8822a37e] (00/29) No match (V2 was not tested)
07 [b585dbe0] (00/29) No match (V2 was not tested)
08 [5bd8dcad] (00/29) No match (V2 was not tested)
09 [aaf038d4] (00/28) No match (V2 was not tested)

Track Peak [ CRC32 ] [W/O NULL] [ LOG ]
– 98,8 [27D63FEC] [519AB1FF]
01 98,8 [BFBA4873] [F8226D7B] CRC32
02 88,1 [529EB8C6] [296F2D43] CRC32
03 78,5 [CB009624] [B19DB625] CRC32
04 78,5 [8BAD9CAF] [B298EC30] CRC32
05 98,8 [2DDE172E] [E93B699E] CRC32
06 78,5 [21326585] [D5482262] CRC32
07 78,5 [EB596284] [FB96BD18] CRC32
08 88,1 [E57DE962] [460AA2F3] CRC32
09 98,8 [F8EF5568] [0BDAE65B] CRC32

Thanks to gothicelk

See also:
Alamaailman Vasarat - Maahan (2007)
Alamaailman Vasarat - Huuro Kolkko (2009)