Subcategories

Alan Price Set - The Price to Play (1996)

Posted By: v3122
Alan Price Set - The Price to Play (1996)

Alan Price Set - The Price to Play (1996)
EAC | Flac(Image) + Cue + Log & MP3 CBR 320Kbps
Repertoire Records, REP 4611 WY | ~ 266 or 192 Mb | Scans Included
Rock / Rock & Roll / British Invasion

Price's first album (released in the U.K. only, although some tracks would come out in the U.S.) is a rather routine set of club R&B/soul. Fronting a six-piece that includes three horns, Price sticks mostly to covers of familiar American tunes like "Mercy Mercy," "Ain't That Peculiar," "I Can't Turn You Loose," and "Barefootin'" on this amiable, but hardly remarkable, set. Price's voice is appealing, but lacks power, and in all it sounds like a clump of covers ground out hurriedly to get an album on the market. Georgie Fame did this kind of thing better, though Price's approach isn't as jazz-oriented. The CD reissue on Repertoire doubles the length of the original LP by adding 12 bonus tracks from 1965-1967 singles, including the brilliant British hit "I Put a Spell on You." The other singles cuts, alas, aren't in the same league, though in general they're better than the ones that constituted The Price to Play. His cover of "Any Day Now" is decent, and the interpretation of Randy Newman's "Simon Smith and the Dancing Bear" (presented in two versions) would both give him a British hit and foretell a move into a much poppier direction.

by Richie Unterbergerm, AMG
Alan Price Set - The Price to Play (1996)


Alan Price Set - The Price to Play (1996):

Alan Price Set - The Price to Play (1996)

Tracklist:

01. Barefootin' 04:36
02. Just Once In My Life 03:26
03. Going Down Slow 04:47
04. Gettin' Mighty Crowded 02:16
05. Honky Tonk 04:42
06. Move On Drifter 02:31
07. Mercy Mercy 03:09
08. Loving You Is Sweeter Than Ever 02:45
09. Ain't That Peculiar03:22
10. I Can't Turn You Loose 02:23
11. Critic's Choice 02:01
12. Hi-Lili Hi-Lo (Stereo) 02:49

Additional Tracks:

13. Any Day Now 02:59
14. Never Be Sick On Sunday 03:58
15. I Put A Spell On You 03:19
16. Iechyd-Da 03:35
17. Take Me Home 02:48
18. Willow Weep For Me 02:46
19. Yours Until Tomorrow 02:50
20. Simon Smith And The Amazing Dancing Bear (Stereo) 01:50
21. Who Cares 02:54
22. Shame 02:48
23. Simon Smith And The Amazing Dancing Bear 02:02
24. Tickle Me 02:46

Exact Audio Copy V1.0 beta 6 from 9. April 2015

EAC extraction logfile from 27. June 2015, 13:38

Alan Price Set / The Price To Pay (1965 - 1967)

Used drive : Optiarc DVD RW AD-5280S Adapter: 1 ID: 1

Read mode : Secure
Utilize accurate stream : Yes
Defeat audio cache : Yes
Make use of C2 pointers : No

Read offset correction : 48
Overread into Lead-In and Lead-Out : No
Fill up missing offset samples with silence : Yes
Delete leading and trailing silent blocks : No
Null samples used in CRC calculations : Yes
Used interface : Native Win32 interface for Win NT & 2000

Used output format : User Defined Encoder
Selected bitrate : 1024 kBit/s
Quality : High
Add ID3 tag : No
Command line compressor : C:\Program Files\Exact Audio Copy\flac-1.3.1-win\win32\flac.exe
Additional command line options : -8 -V -T "ARTIST=%artist%" -T "TITLE=%title%" -T "ALBUM=%albumtitle%" -T "DATE=%year%" -T "TRACKNUMBER=%tracknr%" -T "GENRE=%genre%" -T "COMMENT=%comment%" %source% -o %dest%


TOC of the extracted CD

Track | Start | Length | Start sector | End sector
––––––––––––––––––––––––––––-
1 | 0:00.00 | 4:36.05 | 0 | 20704
2 | 4:36.05 | 3:26.45 | 20705 | 36199
3 | 8:02.50 | 4:47.17 | 36200 | 57741
4 | 12:49.67 | 2:16.15 | 57742 | 67956
5 | 15:06.07 | 4:42.63 | 67957 | 89169
6 | 19:48.70 | 2:31.12 | 89170 | 100506
7 | 22:20.07 | 3:09.35 | 100507 | 114716
8 | 25:29.42 | 2:45.58 | 114717 | 127149
9 | 28:15.25 | 3:22.25 | 127150 | 142324
10 | 31:37.50 | 2:23.45 | 142325 | 153094
11 | 34:01.20 | 2:01.12 | 153095 | 162181
12 | 36:02.32 | 2:49.00 | 162182 | 174856
13 | 38:51.32 | 2:59.13 | 174857 | 188294
14 | 41:50.45 | 3:58.07 | 188295 | 206151
15 | 45:48.52 | 3:19.15 | 206152 | 221091
16 | 49:07.67 | 3:35.58 | 221092 | 237274
17 | 52:43.50 | 2:48.17 | 237275 | 249891
18 | 55:31.67 | 2:46.05 | 249892 | 262346
19 | 58:17.72 | 2:50.53 | 262347 | 275149
20 | 61:08.50 | 1:50.27 | 275150 | 283426
21 | 62:59.02 | 2:54.45 | 283427 | 296521
22 | 65:53.47 | 2:48.70 | 296522 | 309191
23 | 68:42.42 | 2:02.18 | 309192 | 318359
24 | 70:44.60 | 2:46.72 | 318360 | 330881


Range status and errors

Selected range

Filename C:\Sket4er\Alan Price Set - The Price To Play (1965-1967) 1996 flac\Alan Price Set - The Price To Pay (1965 - 1967).wav

Peak level 100.0 %
Extraction speed 4.3 X
Range quality 100.0 %
Test CRC 89DC18B9
Copy CRC 89DC18B9
Copy OK

No errors occurred


AccurateRip summary

Track 1 cannot be verified as accurate (confidence 1) [D8B5C48E], AccurateRip returned [CA5725D1] (AR v2)
Track 2 cannot be verified as accurate (confidence 1) [67918AEA], AccurateRip returned [A8C6FA1F] (AR v2)
Track 3 cannot be verified as accurate (confidence 1) [36A007A2], AccurateRip returned [7FB1A39E] (AR v2)
Track 4 cannot be verified as accurate (confidence 1) [2050E16C], AccurateRip returned [36AB8475] (AR v2)
Track 5 cannot be verified as accurate (confidence 1) [20326D2B], AccurateRip returned [AFB7A773] (AR v2)
Track 6 cannot be verified as accurate (confidence 1) [68DA1871], AccurateRip returned [E983320B] (AR v2)
Track 7 cannot be verified as accurate (confidence 1) [632A575D], AccurateRip returned [616256B6] (AR v2)
Track 8 cannot be verified as accurate (confidence 1) [29322245], AccurateRip returned [C38F7D9B] (AR v2)
Track 9 cannot be verified as accurate (confidence 1) [415BE90E], AccurateRip returned [A98B55E3] (AR v2)
Track 10 cannot be verified as accurate (confidence 1) [070482ED], AccurateRip returned [CA8689D7] (AR v2)
Track 11 cannot be verified as accurate (confidence 1) [0776DA9B], AccurateRip returned [41F4F068] (AR v2)
Track 12 cannot be verified as accurate (confidence 1) [C4210CA3], AccurateRip returned [473EC269] (AR v2)
Track 13 cannot be verified as accurate (confidence 1) [B2417992], AccurateRip returned [39AE2472] (AR v2)
Track 14 cannot be verified as accurate (confidence 1) [1B4E2550], AccurateRip returned [8289F924] (AR v2)
Track 15 cannot be verified as accurate (confidence 1) [84733701], AccurateRip returned [E7D7164E] (AR v2)
Track 16 cannot be verified as accurate (confidence 1) [4AC083EB], AccurateRip returned [FB39A6FA] (AR v2)
Track 17 cannot be verified as accurate (confidence 1) [813E06E6], AccurateRip returned [081DA42A] (AR v2)
Track 18 cannot be verified as accurate (confidence 1) [41A99C1F], AccurateRip returned [D82C44E2] (AR v2)
Track 19 cannot be verified as accurate (confidence 1) [CD6E1430], AccurateRip returned [4CC7FBD4] (AR v2)
Track 20 cannot be verified as accurate (confidence 1) [BB376791], AccurateRip returned [BCFA5099] (AR v2)
Track 21 cannot be verified as accurate (confidence 1) [F102A5E1], AccurateRip returned [CA4DE456] (AR v2)
Track 22 cannot be verified as accurate (confidence 1) [7C063B8B], AccurateRip returned [2C0F270D] (AR v2)
Track 23 cannot be verified as accurate (confidence 1) [8100B3EA], AccurateRip returned [1ED98525] (AR v2)
Track 24 cannot be verified as accurate (confidence 1) [9694EC36], AccurateRip returned [A84B46DC] (AR v2)

No tracks could be verified as accurate
You may have a different pressing from the one(s) in the database

End of status report

–– CUETools DB Plugin V2.1.6

[CTDB TOCID: YRmQ9LkhUYbWmrL9STFnhOhvpJo-] disk not present in database
Submit result: YRmQ9LkhUYbWmrL9STFnhOhvpJo- has been uploaded


==== Log checksum FE8EF278B13C8F013EF30B8AFB777587D0FAB7F98787E7EFB7FE0F840612BF7A ====

foobar2000 1.2.9 / Dynamic Range Meter 1.1.1
log date: 2015-06-30 19:12:15

––––––––––––––––––––––––––––––––––––––––
Analyzed: Alan Price Set / The Price To Pay (1965 - 1967)
––––––––––––––––––––––––––––––––––––––––

DR Peak RMS Duration Track
––––––––––––––––––––––––––––––––––––––––
DR11 -0.14 dB -13.16 dB 4:36 01-Barefootin'
DR11 -0.14 dB -13.91 dB 3:27 02-Just Once In My Life
DR11 -1.27 dB -17.10 dB 4:47 03-Going Down Slow
DR12 -0.14 dB -13.18 dB 2:16 04-Gettin' Mighty Crowded
DR10 -0.14 dB -11.07 dB 4:43 05-Honky Tonk
DR10 -0.71 dB -11.48 dB 2:31 06-Move On Drifter
DR10 -0.14 dB -12.10 dB 3:09 07-Mercy Mercy
DR11 -1.65 dB -13.38 dB 2:46 08-Loving You Is Sweeter Than Ever
DR11 -0.97 dB -13.09 dB 3:22 09-Ain't That Peculiar
DR10 -1.56 dB -12.98 dB 2:24 10-I Can't Turn You Loose
DR11 -1.22 dB -13.44 dB 2:01 11-Critic's Choice
DR11 -0.26 dB -14.10 dB 2:49 12-Hi-Lilli, Li-Lo (Stereo)
DR10 0.00 dB -13.30 dB 2:59 13-Any Day Now
DR11 -0.85 dB -13.91 dB 3:58 14-Never Be Sick On Sunday
DR11 -0.53 dB -13.69 dB 3:19 15-I Put A Spell On You
DR11 -0.81 dB -12.98 dB 3:36 16-Iechyd-Da
DR11 -0.12 dB -13.55 dB 2:48 17-Take Me Home
DR11 -0.14 dB -13.96 dB 2:46 18-Willow Weep For Me
DR10 -1.47 dB -13.03 dB 2:51 19-Yours Until Tomorrow
DR12 -0.90 dB -13.79 dB 1:50 20-Simon Smith And The Amazing Dancing Bear (Stereo)
DR11 -0.47 dB -14.17 dB 2:55 21-Who Cares
DR10 -1.57 dB -12.50 dB 2:49 22-Shame
DR9 -3.00 dB -13.59 dB 2:02 23-Simon Smith And The Amazing Dancing Bear
DR10 -2.49 dB -14.74 dB 2:47 24-Tickle Me
––––––––––––––––––––––––––––––––––––––––

Number of tracks: 24
Official DR value: DR11

Samplerate: 44100 Hz
Channels: 2
Bits per sample: 16
Bitrate: 456 kbps
Codec: FLAC

[CUETools log; Date: 27.06.2015 13:40:37; Version: 2.1.4]
[CTDB TOCID: YRmQ9LkhUYbWmrL9STFnhOhvpJo-] found.
Track | CTDB Status
1 | (1/1) Accurately ripped
2 | (1/1) Accurately ripped
3 | (1/1) Accurately ripped
4 | (1/1) Accurately ripped
5 | (1/1) Accurately ripped
6 | (1/1) Accurately ripped
7 | (1/1) Accurately ripped
8 | (1/1) Accurately ripped
9 | (1/1) Accurately ripped
10 | (1/1) Accurately ripped
11 | (1/1) Accurately ripped
12 | (1/1) Accurately ripped
13 | (1/1) Accurately ripped
14 | (1/1) Accurately ripped
15 | (1/1) Accurately ripped
16 | (1/1) Accurately ripped
17 | (1/1) Accurately ripped
18 | (1/1) Accurately ripped
19 | (1/1) Accurately ripped
20 | (1/1) Accurately ripped
21 | (1/1) Accurately ripped
22 | (1/1) Accurately ripped
23 | (1/1) Accurately ripped
24 | (1/1) Accurately ripped
[AccurateRip ID: 004385e9-047a6f82-6e113b18] found.
Track [ CRC | V2 ] Status
01 [93e835c1|d8b5c48e] (0+0/3) No match
02 [4fefa3cd|67918aea] (0+0/3) No match
03 [efb13306|36a007a2] (0+0/3) No match
04 [e94a54ff|2050e16c] (0+0/3) No match
05 [69f4ef2b|20326d2b] (0+0/3) No match
06 [45573b29|68da1871] (0+0/3) No match
07 [3312f19c|632a575d] (0+0/3) No match
08 [ebb7437b|29322245] (0+0/3) No match
09 [5bfa9f3f|415be90e] (0+0/3) No match
10 [f1235f89|070482ed] (0+0/3) No match
11 [dccfe1b3|0776da9b] (0+0/3) No match
12 [5367865d|c4210ca3] (0+0/3) No match
13 [c4cca804|b2417992] (0+0/3) No match
14 [466c2f07|1b4e2550] (0+0/3) No match
15 [b76ea01a|84733701] (0+0/3) No match
16 [e76dc96e|4ac083eb] (0+0/3) No match
17 [2f3aee1c|813e06e6] (0+0/3) No match
18 [404a29ea|41a99c1f] (0+0/3) No match
19 [e4620d90|cd6e1430] (0+0/3) No match
20 [8eb8f42a|bb376791] (0+0/3) No match
21 [e946c4d3|f102a5e1] (0+0/3) No match
22 [0f1d4687|7c063b8b] (0+0/3) No match
23 [6877adc7|8100b3ea] (0+0/3) No match
24 [8c3c9500|9694ec36] (0+0/3) No match
Offsetted by -6:
01 [ca5725d1] (1/3) Accurately ripped
02 [a8c6fa1f] (1/3) Accurately ripped
03 [7fb1a39e] (1/3) Accurately ripped
04 [36ab8475] (1/3) Accurately ripped
05 [afb7a773] (1/3) Accurately ripped
06 [e983320b] (1/3) Accurately ripped
07 [616256b6] (1/3) Accurately ripped
08 [c38f7d9b] (1/3) Accurately ripped
09 [a98b55e3] (1/3) Accurately ripped
10 [ca8689d7] (1/3) Accurately ripped
11 [41f4f068] (1/3) Accurately ripped
12 [473ec269] (1/3) Accurately ripped
13 [39ae2472] (1/3) Accurately ripped
14 [8289f924] (1/3) Accurately ripped
15 [e7d7164e] (1/3) Accurately ripped
16 [fb39a6fa] (1/3) Accurately ripped
17 [081da42a] (1/3) Accurately ripped
18 [d82c44e2] (1/3) Accurately ripped
19 [4cc7fbd4] (1/3) Accurately ripped
20 [bcfa5099] (1/3) Accurately ripped
21 [ca4de456] (1/3) Accurately ripped
22 [2c0f270d] (1/3) Accurately ripped
23 [1ed98525] (1/3) Accurately ripped
24 [a84b46dc] (1/3) Accurately ripped
Offsetted by -1311:
01 [89981b69] (1/3) Accurately ripped
02 [a3bad0ca] (1/3) Accurately ripped
03 [58114cc2] (1/3) Accurately ripped
04 [74bd5736] (1/3) Accurately ripped
05 [f4a7389f] (1/3) Accurately ripped
06 [64dd730e] (1/3) Accurately ripped
07 [39d6bc4d] (1/3) Accurately ripped
08 [a5c4dfcb] (1/3) Accurately ripped
09 [0ffe8239] (1/3) Accurately ripped
10 [fc46fb1c] (1/3) Accurately ripped
11 [b0fdfcb3] (1/3) Accurately ripped
12 [729c469b] (1/3) Accurately ripped
13 [07415be7] (1/3) Accurately ripped
14 [95cc2344] (1/3) Accurately ripped
15 [8897837c] (1/3) Accurately ripped
16 [4cee616c] (1/3) Accurately ripped
17 [5a58ec16] (1/3) Accurately ripped
18 [d528938f] (1/3) Accurately ripped
19 [7f61ea9a] (1/3) Accurately ripped
20 [898f666b] (1/3) Accurately ripped
21 [f9ce1c9f] (1/3) Accurately ripped
22 [c38f68e6] (1/3) Accurately ripped
23 [12f9ff82] (0/3) No match
24 [000d344f] (0/3) No match

Track Peak [ CRC32 ] [W/O NULL] [ LOG ]
– 99,9 [89DC18B9] [F9E16EA5] CRC32
01 98,4 [63CAACBF] [8ACDB53A]
02 98,4 [AFE2ACCE] [D5570412]
03 86,4 [4B564BC1] [568F688E]
04 98,4 [E3B75DD6] [6A0157D4]
05 98,4 [E23E1186] [6143DEB7]
06 92,1 [39675822] [3CA1674E]
07 98,4 [AA4A7FC3] [685A2611]
08 82,7 [22C5521E] [D78A5EC0]
09 89,4 [3A399313] [0E5DC437]
10 83,6 [50508E21] [8F19B19C]
11 86,9 [691420C7] [19FC00FD]
12 97,0 [D03AB466] [7CB4EEF2]
13 99,9 [EB412B76] [74069D48]
14 90,6 [3F0BBED4] [138ED729]
15 94,1 [B0E90285] [30DED316]
16 91,0 [EA89E01C] [2B97C0DF]
17 98,6 [65F97E97] [54832E17]
18 98,4 [42532BAC] [19AAE425]
19 84,4 [996B0A3F] [76993D46]
20 90,1 [761CD950] [C6D3F750]
21 94,7 [B9AE8C9A] [8B0BC612]
22 83,5 [F46C3C6F] [385BB8FC]
23 70,7 [77DA009D] [DDFAF3F5]
24 75,0 [C2A58059] [7516ABF8]

Alan Price Set - The Price to Play (1996)

All thanks go to Sket4er

Download Alan Price Set - The Price to Play (1996):