Subcategories

Alan Price - Performing Price (1975) [2000 Demon]

Posted By: JET 1
Alan Price - Performing Price (1975) [2000 Demon]

Alan Price - Performing Price (1975) [2000 Demon]
EAC Rip | FLAC (Tracks) +CUE, LOG | 468 MB | Covers Included
Genre: Rock / Pop | Label: Edsel / Demon | Catalog Number: EDCD-673

This is a very good live album from Alan Price which features a good mix of his old and new original material and a nice set of covers, such as Simon Smith and I Put a Spell on You. While the songs from O Lucky Man would be the best known, there are other gems here, such as Between Today and Yesterday (the LP which followed O Lucky Man) and the set as a whole is great listening. The musicians are top-notch and the production sounds really good; the drum sound is well captured, for example. Alan is in fine voice and sounds as if he's really enjoying the show(s). Highly recommended for fans of Alan Price, R&B or Randy Newman type songwriters.

EAC extraction logfile from 15. January 2008, 22:58 for CD
Alan Price / Performing Price

Used drive : TSSTcorpCD/DVDW SH-S182M Adapter: 0 ID: 0
Read mode : Secure with NO C2, accurate stream, disable cache
Read offset correction : 6
Overread into Lead-In and Lead-Out : No

Used output format : C:\Program Files\FLAC\flac.exe (User Defined Encoder)
128 kBit/s
Additional command line options : -V -8 -T "artist=%a" -T "title=%t" -T "album=%g" -T "date=%y" -T "tracknumber=%n" -T "genre=%m" %s

Other options :
Fill up missing offset samples with silence : Yes
Delete leading and trailing silent blocks : No
Installed external ASPI interface


Track 1
Filename C:\Program Files\Exact Audio Copy\01 - Arrival.wav

Pre-gap length 0:00:02.00

Peak level 99.8 %
Track quality 100.0 %
Test CRC 2915D5DB
Copy CRC 2915D5DB
Copy OK

Track 2
Filename C:\Program Files\Exact Audio Copy\02 - O Lucky Man.wav

Peak level 99.8 %
Track quality 100.0 %
Test CRC 972220EF
Copy CRC 972220EF
Copy OK

Track 3
Filename C:\Program Files\Exact Audio Copy\03 - Left Over People.wav

Peak level 99.8 %
Track quality 100.0 %
Test CRC 92EC765C
Copy CRC 92EC765C
Copy OK

Track 4
Filename C:\Program Files\Exact Audio Copy\04 - Away Away.wav

Peak level 99.8 %
Track quality 100.0 %
Test CRC 34FCE528
Copy CRC 34FCE528
Copy OK

Track 5
Filename C:\Program Files\Exact Audio Copy\05 - Under The Sun.wav

Peak level 86.7 %
Track quality 99.9 %
Test CRC BBA4C123
Copy CRC BBA4C123
Copy OK

Track 6
Filename C:\Program Files\Exact Audio Copy\06 - In Times Like These.wav

Peak level 99.8 %
Track quality 100.0 %
Test CRC D1CE96AD
Copy CRC D1CE96AD
Copy OK

Track 7
Filename C:\Program Files\Exact Audio Copy\07 - Simon Smith And The Amazing Dancing Bear.wav

Peak level 92.8 %
Track quality 100.0 %
Test CRC 11E57578
Copy CRC 11E57578
Copy OK

Track 8
Filename C:\Program Files\Exact Audio Copy\08 - Poor People.wav

Peak level 70.9 %
Track quality 100.0 %
Test CRC FEA0B265
Copy CRC FEA0B265
Copy OK

Track 9
Filename C:\Program Files\Exact Audio Copy\09 - Sell Sell Sell.wav

Peak level 99.8 %
Track quality 100.0 %
Test CRC 8C192CAA
Copy CRC 8C192CAA
Copy OK

Track 10
Filename C:\Program Files\Exact Audio Copy\10 - Justice.wav

Peak level 80.9 %
Track quality 100.0 %
Test CRC 439BDA4C
Copy CRC 439BDA4C
Copy OK

Track 11
Filename C:\Program Files\Exact Audio Copy\11 - Look Over Your Shoulder.wav

Peak level 99.8 %
Track quality 100.0 %
Test CRC 19CAA98D
Copy CRC 19CAA98D
Copy OK

Track 12
Filename C:\Program Files\Exact Audio Copy\12 - Too Many People.wav

Peak level 99.8 %
Track quality 100.0 %
Test CRC 80F98000
Copy CRC 80F98000
Copy OK

Track 13
Filename C:\Program Files\Exact Audio Copy\13 - Nobody Can.wav

Peak level 99.8 %
Track quality 100.0 %
Test CRC 73B35575
Copy CRC 73B35575
Copy OK

Track 14
Filename C:\Program Files\Exact Audio Copy\14 - Keep On Rollin'.wav

Peak level 99.8 %
Track quality 99.9 %
Test CRC 1E714A9D
Copy CRC 1E714A9D
Copy OK

Track 15
Filename C:\Program Files\Exact Audio Copy\15 - City Lights.wav

Peak level 99.8 %
Track quality 100.0 %
Test CRC F6F3D47E
Copy CRC F6F3D47E
Copy OK

Track 16
Filename C:\Program Files\Exact Audio Copy\16 - You're Telling Me , Is There Anybody Out There.wav

Peak level 99.8 %
Track quality 100.0 %
Test CRC E329AEC0
Copy CRC E329AEC0
Copy OK

Track 17
Filename C:\Program Files\Exact Audio Copy\17 - Hi-Lili, Hi Lo.wav

Peak level 99.8 %
Track quality 100.0 %
Test CRC 8DDB1C49
Copy CRC 8DDB1C49
Copy OK

Track 18
Filename C:\Program Files\Exact Audio Copy\18 - Sweet 'P'.wav

Peak level 99.8 %
Track quality 100.0 %
Test CRC 0C1782F6
Copy CRC 0C1782F6
Copy OK

Track 19
Filename C:\Program Files\Exact Audio Copy\19 - I Put A Spell On You.wav

Peak level 99.8 %
Track quality 100.0 %
Test CRC 8E099BD7
Copy CRC 8E099BD7
Copy OK

Track 20
Filename C:\Program Files\Exact Audio Copy\20 - It Takes Me Back.wav

Peak level 99.8 %
Track quality 100.0 %
Test CRC 2ECB3726
Copy CRC 2ECB3726
Copy OK

Track 21
Filename C:\Program Files\Exact Audio Copy\21 - Between Today And Yesterday.wav

Peak level 99.8 %
Track quality 100.0 %
Test CRC 7BFFD155
Copy CRC 7BFFD155
Copy OK

Track 22
Filename C:\Program Files\Exact Audio Copy\22 - Changes.wav

Peak level 99.8 %
Track quality 100.0 %
Test CRC 70A81B3F
Copy CRC 70A81B3F
Copy OK

Track 23
Filename C:\Program Files\Exact Audio Copy\23 - O Lucky Man (reprise).wav

Peak level 99.8 %
Track quality 100.0 %
Test CRC F5A0EC4B
Copy CRC F5A0EC4B
Copy OK

No errors occured


End of status report


Tracklist:
01. Arrival (2:41)
02. O Lucky Man (2:16)
03. Left Over People (3:29)
04. Away Away (3:02)
05. Under The Sun (5:19)
06. In Times Like These (2:45)
07. Simon Smith And The Amazing Dancing Bear (2:03)
08. Poor People (2:13)
09. Sell Sell Sell (3:53)
10. Justice (2:50)
11. Look Over Your Shoulder (2:05)
12. Too Many People (3:38)
13. Nobody Can (2:58)
14. Keep On Rollin' (2:17)
15. City Lights (4:47)
16. You're Telling Me / Is There Anybody Out There (8:41)
17. Hi-Lili, Hi Lo (2:53)
18. Sweet 'P' (3:39)
19. I Put A Spell On You (3:28)
20. It Takes Me Back (4:38)
21. Between Today And Yesterday (4:55)
22. Changes (3:13)
23. O Lucky Man (reprise) (0:51)