Subcategories

Alcatrazz - Disturbing The Peace (1985) (Expanded Edition)

Posted By: uff
Alcatrazz - Disturbing The Peace (1985) (Expanded Edition)

Alcatrazz - Disturbing The Peace (1985) (Expanded Edition)
Metal | 2cd | EAC Rip | Flac + Cue + Log | covers
Store for Music/MZR CD 630, russian pressing | rel: 2011 | 895Mb

With the departure of Yngwie Malnsteen, Steve Vai moves in to handle the axe duties for Alcatrazz on their follow up to a pretty sucessful No Parole From Rock and Roll. Vai wastes no time in making his mark. Gone are Malmsteen's classical runs and Blackmore riffs and in is Vai's weirdo note bending and blazing runs that are really the opposite of the Malmsteen style. But it works. It works because Vai works within the song structure and the songs are good enough to stand on their own. Vai just makes them a bit more interesting. High spots are 'Mercy", 'Sons and Lovers", 'will you be home tonight' and 'stripper' . Low spots are "Desert Diamond' and "Skyfire'. Steve Vai has always seemed to be a guitarist without any soul to his playing, no matter how technical it can be. Here he comes close to playing with soul, but again its all in the songs. The songs are good enough. ~Amazon
This 2011 expanded edition of the album contains a second disc, featuring an unabridged live concert performed at the Shinjuku Koseinenkin-Kaikan hall, in Tokyo, Japan.

Track listing
cd1:
01. God Blessed Video (3:30)
02. Mercy (4:22)
03. Will You Be Home Tonight (4:54)
04. Wire And Wood (3:29)
05. Desert Diamond (4:22)
06. Stripper (3:54)
07. Painted Lover (3:24)
08. Lighter Shade Of Green (Instrumental) (0:49)
09. Sons And Lovers (3:40)
10. Skyfyre (3:57)
11. Breaking The Heart Of The City (4:56)
~ (41:17)

cd2:
01. Opening (2:05)
02. Breaking The Heart Of The City (6:10)
03. Jet To Jet (4:39)
04. Skyfire (3:54)
05. Sons And Lovers (3:03)
06. Hiroshima Mon Amour (3:52)
07. God Blessed Video (4:50)
08. Will You Be Home Tonight (5:07)
09. Kree Nakoorie (9:09)
10. Since You've Been Gone (3:20)
11. Painted Lover (3:40)
12. Suffer Me (6:08)
13. Stripper (3:56)
14. Too Young To Die, Too Drunk To Live (4:46)
15. Kojo No Tuki (The Moon Over Lake) (2:02)
16. Night Games (3:05)
17. All Night Long (8:54)
~ (78:40)

Personnel
- Graham Bonnet - vocals
- Steve Vai - guitar, backing vocals
- Gary Shea - bass
- Jan Uvena - drums, backing vocals
- Jimmy Waldo - keyboards, backing vocals


Exact Audio Copy V1.0 beta 3 from 29. August 2011

EAC extraction logfile from 3. July 2014, 22:45

Alcatrazz / Disturbing The Peace CD1 [MZR CD 630, Reissued 2013]

Used drive : TSSTcorpCDDVDW SH-222BB Adapter: 1 ID: 0

Read mode : Secure
Utilize accurate stream : Yes
Defeat audio cache : Yes
Make use of C2 pointers : No

Read offset correction : 6
Overread into Lead-In and Lead-Out : No
Fill up missing offset samples with silence : Yes
Delete leading and trailing silent blocks : No
Null samples used in CRC calculations : Yes
Used interface : Native Win32 interface for Win NT & 2000

Used output format : User Defined Encoder
Selected bitrate : 1024 kBit/s
Quality : High
Add ID3 tag : No
Command line compressor : C:\Program Files\Exact Audio Copy\FLAC\FLAC.EXE
Additional command line options : -V -8 -T "Date=%year%" -T "Genre=%genre%" %source%


TOC of the extracted CD

Track | Start | Length | Start sector | End sector
––––––––––––––––––––––––––––-
1 | 0:00.00 | 3:30.27 | 0 | 15776
2 | 3:30.27 | 4:22.34 | 15777 | 35460
3 | 7:52.61 | 4:53.46 | 35461 | 57481
4 | 12:46.32 | 3:29.17 | 57482 | 73173
5 | 16:15.49 | 4:22.13 | 73174 | 92836
6 | 20:37.62 | 3:54.28 | 92837 | 110414
7 | 24:32.15 | 3:24.14 | 110415 | 125728
8 | 27:56.29 | 0:48.65 | 125729 | 129393
9 | 28:45.19 | 3:39.50 | 129394 | 145868
10 | 32:24.69 | 3:56.48 | 145869 | 163616
11 | 36:21.42 | 4:55.64 | 163617 | 185805


Range status and errors

Selected range

Filename C:\Users\inotuh\Desktop\Alcatrazz - Disturbing The Peace CD1 [MZR CD 630, Reissued 2013].wav

Peak level 84.7 %
Extraction speed 6.9 X
Range quality 100.0 %
Test CRC A7652C7E
Copy CRC A7652C7E
Copy OK

No errors occurred


AccurateRip summary

Track 1 not present in database
Track 2 not present in database
Track 3 not present in database
Track 4 not present in database
Track 5 not present in database
Track 6 not present in database
Track 7 not present in database
Track 8 not present in database
Track 9 not present in database
Track 10 not present in database
Track 11 not present in database

None of the tracks are present in the AccurateRip database

End of status report

–– CUETools DB Plugin V2.1.5

[CTDB TOCID: 7y18qPY7btTyYbLcXpvqm8koVp0-] found
Submit result: already submitted
Track | CTDB Status
1 | (1/1) Accurately ripped
2 | (1/1) Accurately ripped
3 | (1/1) Accurately ripped
4 | (1/1) Accurately ripped
5 | (1/1) Accurately ripped
6 | (1/1) Accurately ripped
7 | (1/1) Accurately ripped
8 | (1/1) Accurately ripped
9 | (1/1) Accurately ripped
10 | (1/1) Accurately ripped
11 | (1/1) Accurately ripped


==== Log checksum 897C685145776026778DF41416F70F1179F45124C5EA3D1E2DBC24AFA4186DB9 ====
–––––-
Exact Audio Copy V1.0 beta 3 from 29. August 2011

EAC extraction logfile from 3. July 2014, 23:40

Alcatrazz / Disturbing The Peace CD2 (Live In Japan'84) [MZR CD 630, Reissued 2013]

Used drive : TSSTcorpCDDVDW SH-222BB Adapter: 1 ID: 0

Read mode : Secure
Utilize accurate stream : Yes
Defeat audio cache : Yes
Make use of C2 pointers : No

Read offset correction : 6
Overread into Lead-In and Lead-Out : No
Fill up missing offset samples with silence : Yes
Delete leading and trailing silent blocks : No
Null samples used in CRC calculations : Yes
Used interface : Native Win32 interface for Win NT & 2000

Used output format : User Defined Encoder
Selected bitrate : 1024 kBit/s
Quality : High
Add ID3 tag : No
Command line compressor : C:\Program Files\Exact Audio Copy\FLAC\FLAC.EXE
Additional command line options : -V -8 -T "Date=%year%" -T "Genre=%genre%" %source%


TOC of the extracted CD

Track | Start | Length | Start sector | End sector
––––––––––––––––––––––––––––-
1 | 0:00.00 | 2:05.14 | 0 | 9388
2 | 2:05.14 | 6:10.09 | 9389 | 37147
3 | 8:15.23 | 4:39.00 | 37148 | 58072
4 | 12:54.23 | 3:54.27 | 58073 | 75649
5 | 16:48.50 | 3:02.60 | 75650 | 89359
6 | 19:51.35 | 3:51.65 | 89360 | 106749
7 | 23:43.25 | 4:50.29 | 106750 | 128528
8 | 28:33.54 | 5:06.41 | 128529 | 151519
9 | 33:40.20 | 9:09.02 | 151520 | 192696
10 | 42:49.22 | 3:20.32 | 192697 | 207728
11 | 46:09.54 | 3:39.61 | 207729 | 224214
12 | 49:49.40 | 6:08.02 | 224215 | 251816
13 | 55:57.42 | 3:55.40 | 251817 | 269481
14 | 59:53.07 | 4:45.71 | 269482 | 290927
15 | 64:39.03 | 2:01.43 | 290928 | 300045
16 | 66:40.46 | 3:04.49 | 300046 | 313894
17 | 69:45.20 | 8:54.28 | 313895 | 353972


Range status and errors

Selected range

Filename C:\Users\inotuh\Desktop\Alcatrazz - Disturbing The Peace CD2 (Live In Japan'84) [MZR CD 630, Reissued 2013].wav

Peak level 94.3 %
Extraction speed 8.3 X
Range quality 100.0 %
Test CRC A2D4613C
Copy CRC A2D4613C
Copy OK

No errors occurred


AccurateRip summary

Track 1 not present in database
Track 2 not present in database
Track 3 not present in database
Track 4 not present in database
Track 5 not present in database
Track 6 not present in database
Track 7 not present in database
Track 8 not present in database
Track 9 not present in database
Track 10 not present in database
Track 11 not present in database
Track 12 not present in database
Track 13 not present in database
Track 14 not present in database
Track 15 not present in database
Track 16 not present in database
Track 17 not present in database

None of the tracks are present in the AccurateRip database

End of status report

–– CUETools DB Plugin V2.1.5

[CTDB TOCID: 5gRci43yIkrqMAIguC8SxZBTeRE-] found
Submit result: already submitted
Track | CTDB Status
1 | (1/1) Accurately ripped
2 | (1/1) Accurately ripped
3 | (1/1) Accurately ripped
4 | (1/1) Accurately ripped
5 | (1/1) Accurately ripped
6 | (1/1) Accurately ripped
7 | (1/1) Accurately ripped
8 | (1/1) Accurately ripped
9 | (1/1) Accurately ripped
10 | (1/1) Accurately ripped
11 | (1/1) Accurately ripped
12 | (1/1) Accurately ripped
13 | (1/1) Accurately ripped
14 | (1/1) Accurately ripped
15 | (1/1) Accurately ripped
16 | (1/1) Accurately ripped
17 | (1/1) Accurately ripped


==== Log checksum 97AC262732E9091D1A242846285125046662FB46BF5A92AA86512BE556D607F0 ====




[CUETools log; Date: 2014.10.31. 12:21:40; Version: 2.1.4]
[CTDB TOCID: 7y18qPY7btTyYbLcXpvqm8koVp0-] found.
Track | CTDB Status
1 | (1/1) Accurately ripped
2 | (1/1) Accurately ripped
3 | (1/1) Accurately ripped
4 | (1/1) Accurately ripped
5 | (1/1) Accurately ripped
6 | (1/1) Accurately ripped
7 | (1/1) Accurately ripped
8 | (1/1) Accurately ripped
9 | (1/1) Accurately ripped
10 | (1/1) Accurately ripped
11 | (1/1) Accurately ripped
[AccurateRip ID: 001153c9-0094594e-aa09ad0b] found.
Track [ CRC | V2 ] Status
01 [6e58a939|b5372c45] (0+1/2) Accurately ripped
02 [f336d1f8|86f2f727] (0+1/2) Accurately ripped
03 [2b097b19|a5179b90] (0+1/2) Accurately ripped
04 [03081404|1e655aa3] (0+1/2) Accurately ripped
05 [5f86a4cb|c6b71c68] (0+1/2) Accurately ripped
06 [4d98c32e|f036bff4] (0+1/2) Accurately ripped
07 [8576d7ae|5f59a982] (0+1/2) Accurately ripped
08 [88bb1327|7f40dad8] (0+1/2) Accurately ripped
09 [7b9d8295|acd5b839] (0+1/2) Accurately ripped
10 [480354a9|a23b6059] (0+1/2) Accurately ripped
11 [c7eb2750|190c7306] (0+1/2) Accurately ripped

Track Peak [ CRC32 ] [W/O NULL] [ LOG ]
– 84,7 [A7652C7E] [F3B1F0CE] CRC32
01 76,4 [9B59F248] [4B9E6D2D]
02 79,1 [D06BB067] [9DA78265]
03 70,9 [E43ACE79] [994C206D]
04 75,0 [D808C66F] [9F526C60]
05 69,8 [EFB99F3A] [A505BFA0]
06 76,5 [A0F90033] [7B0FEE23]
07 84,7 [595BE234] [B3B6761C]
08 37,2 [DB0C81F6] [AA365657]
09 82,5 [37E22D7E] [EF48E648]
10 78,9 [DA56D321] [E0CA2D03]
11 70,1 [8E73DA83] [CB2B172A]

–-
[CUETools log; Date: 2014.10.31. 12:22:09; Version: 2.1.4]
[CTDB TOCID: 5gRci43yIkrqMAIguC8SxZBTeRE-] found.
Track | CTDB Status
1 | (2/2) Accurately ripped
2 | (2/2) Accurately ripped
3 | (2/2) Accurately ripped
4 | (2/2) Accurately ripped
5 | (2/2) Accurately ripped
6 | (2/2) Accurately ripped
7 | (2/2) Accurately ripped
8 | (2/2) Accurately ripped
9 | (2/2) Accurately ripped
10 | (2/2) Accurately ripped
11 | (2/2) Accurately ripped
12 | (2/2) Accurately ripped
13 | (2/2) Accurately ripped
14 | (2/2) Accurately ripped
15 | (2/2) Accurately ripped
16 | (2/2) Accurately ripped
17 | (2/2) Accurately ripped
[AccurateRip ID: 002eb5d1-0256b722-f1126f11] found.
Track [ CRC | V2 ] Status
01 [93559cec|fdb2cbe3] (0+1/2) Accurately ripped
02 [2d086164|06a16105] (0+1/2) Accurately ripped
03 [b3543ad9|d55cb467] (0+1/2) Accurately ripped
04 [e28a56a2|4a774330] (0+1/2) Accurately ripped
05 [feb9fb9c|a156e498] (0+1/2) Accurately ripped
06 [5ae26628|31f1aa15] (0+1/2) Accurately ripped
07 [59ec21bd|e3c6f1bf] (0+1/2) Accurately ripped
08 [e8f32f51|a342781d] (0+1/2) Accurately ripped
09 [8ba67a36|913ff5d3] (0+1/2) Accurately ripped
10 [6baecb56|235b994f] (0+1/2) Accurately ripped
11 [cdcaa096|130b77aa] (0+1/2) Accurately ripped
12 [693cffeb|0f445862] (0+1/2) Accurately ripped
13 [fbe0a58e|ee87cb48] (0+1/2) Accurately ripped
14 [9504269a|f83b0dd2] (0+1/2) Accurately ripped
15 [d726d13c|b2cf4ddb] (0+1/2) Accurately ripped
16 [6fb7583d|fbf8b5d4] (0+1/2) Accurately ripped
17 [74fc0cfc|fb6cb1cb] (0+1/2) Accurately ripped

Track Peak [ CRC32 ] [W/O NULL] [ LOG ]
– 94,3 [A2D4613C] [D2BFCC79] CRC32
01 94,3 [8A1EB62D] [2844A1A9]
02 84,7 [7BC40F42] [7CC21540]
03 75,1 [AB0D7E8C] [5D547460]
04 82,3 [7D81DBC0] [5ECE1A2E]
05 85,4 [CD5774F5] [5D310C37]
06 87,9 [BF388633] [2830611B]
07 79,8 [10BC353B] [455BB913]
08 80,7 [0E8BF081] [040586CF]
09 91,1 [E39647FF] [C6D59B8A]
10 83,4 [7A64A072] [46495935]
11 91,1 [3EA62057] [C0F3E78B]
12 84,6 [46709420] [0AA30478]
13 80,2 [6615434B] [2D235A25]
14 82,1 [FB0267D7] [5EA812D1]
15 71,8 [658A949F] [71BDC8D0]
16 82,4 [E4D407DE] [7F247502]
17 87,9 [BC5AEEEB] [E846273F]


Thx to inotuh
Uploadable

Bitshare


password: asd