Subcategories

Alestorm - Black Sails At Midnight (2009) [Limited Ed.] CD+DVD

Posted By: Andi_Deris
Alestorm - Black Sails At Midnight (2009) [Limited Ed.] CD+DVD

Alestorm - Black Sails At Midnight (2009) [Limited Ed.] CD+DVD
EAC Rip | FLAC: Image+Cue+Log | 388 Mb | MP3 CBR 320 kbps | 129 Mb | Scans | 68 Mb | Time: 46:19
DVD5 | Video: NTSC 16:9 (720x480) | Audio: PCM, 2 ch | 2.9 Gb | Scans | Time: 45 mins
Napalm Records | NPR 290
Folk/Power Metal, Pirate Metal

Black Sails at Midnight is the second studio album by the Scottish power metal band Alestorm. As with their first album, all the drums tracks were recorded by session drummer Migo Wagner but touring drummer Ian Wilson added additional percussion. The album features string and brass arrangements and folk instruments as opposed to the more heavy metal instrumentation of Captain Morgan's Revenge. The special edition of the album included a live DVD of the band's performance at the 2008 Wacken Festival.

Alestorm - Black Sails At Midnight (2009) [Limited Ed.] CD+DVD




Alestorm - Black Sails At Midnight (2009) [Limited Ed.] CD+DVD


DISC I

01. The Quest (04:57)
02. Leviathan (05:56)
03. That Famous Ol' Spiced (04:46)
04. Keelhauled (03:42)
05. To The End Of Our Days (06:23)
06. Black Sails At Midnight (03:31)
07. No Quarter (03:03)
08. Pirate Song (04:03)
09. Chronicles Of Vengeance (06:25)
10. Wolves Of The Sea (03:34)

Alestorm - Black Sails At Midnight (2009) [Limited Ed.] CD+DVD


DISC II (Bonus DVD)

01. Intro
02. Over The Seas
03. The Huntmaster
04. Death Before The Mast
05. Nancy The Tavern Wench
06. Set Sail And Conquer
07. Wenches And Mead
08. Captain Morgan's Revenge

Alestorm - Black Sails At Midnight (2009) [Limited Ed.] CD+DVD

Alestorm - Black Sails At Midnight (2009) [Limited Ed.] CD+DVD
Alestorm - Black Sails At Midnight (2009) [Limited Ed.] CD+DVD
Alestorm - Black Sails At Midnight (2009) [Limited Ed.] CD+DVD
Alestorm - Black Sails At Midnight (2009) [Limited Ed.] CD+DVD
Alestorm - Black Sails At Midnight (2009) [Limited Ed.] CD+DVD


Produced by Lasse Lammert

The Band

• Christopher Bowes - vocals, keyboards, tin whistle
• Ian Wilson - percussion, vibraslap, backing vocals
• Dani Evans - bass, guitars, backing vocals

*****
• Justus Twele - bagpipes
• Bee Bloodpunch - backing vocals
• Heinrich Gimpel - bass trombone
• Carsten Petersen - trumpet, cornet
• Tobias Hain - trumpet
• Mirjam Beyer - violin
• Lasse Lammert - guitars, backing vocals
• Tim Shaw - backing vocals
• Brendan Casey - backing vocals
• Migo Wagner - drums

Exact Audio Copy V1.0 beta 3 from 29. August 2011

EAC extraction logfile from 14. May 2015, 20:09

Alestorm / Black Sails at Midnight

Used drive : ATAPI iHAS122 W Adapter: 2 ID: 0

Read mode : Secure
Utilize accurate stream : Yes
Defeat audio cache : Yes
Make use of C2 pointers : No

Read offset correction : 48
Overread into Lead-In and Lead-Out : No
Fill up missing offset samples with silence : Yes
Delete leading and trailing silent blocks : No
Null samples used in CRC calculations : Yes
Used interface : Installed external ASPI interface

Used output format : User Defined Encoder
Selected bitrate : 1024 kBit/s
Quality : High
Add ID3 tag : No
Command line compressor : C:\Program Files\FLAC\flac.exe
Additional command line options : -V -8 -T "Date=%year%" -T "Genre=%genre%" -T"COMMENT=Ripped by Ilijan" -8 -V %source%


TOC of the extracted CD

Track | Start | Length | Start sector | End sector
––––––––––––––––––––––––––––-
1 | 0:00.00 | 4:56.37 | 0 | 22236
2 | 4:56.37 | 5:55.74 | 22237 | 48935
3 | 10:52.36 | 4:45.65 | 48936 | 70375
4 | 15:38.26 | 3:42.19 | 70376 | 87044
5 | 19:20.45 | 6:22.58 | 87045 | 115752
6 | 25:43.28 | 3:30.74 | 115753 | 131576
7 | 29:14.27 | 3:02.33 | 131577 | 145259
8 | 32:16.60 | 4:02.58 | 145260 | 163467
9 | 36:19.43 | 6:24.47 | 163468 | 192314
10 | 42:44.15 | 3:33.53 | 192315 | 208342


Range status and errors

Selected range

Filename D:\ИЛИЯН\Alestorm - Black Sails at Midnight.wav

Peak level 100.0 %
Extraction speed 3.8 X
Range quality 100.0 %
Test CRC 759B2006
Copy CRC 759B2006
Copy OK

No errors occurred


AccurateRip summary

Track 1 accurately ripped (confidence 25) [A743B9D2] (AR v2)
Track 2 accurately ripped (confidence 25) [45A9D715] (AR v2)
Track 3 accurately ripped (confidence 25) [5EB848B5] (AR v2)
Track 4 accurately ripped (confidence 25) [FBC77F09] (AR v2)
Track 5 accurately ripped (confidence 25) [2939E24F] (AR v2)
Track 6 accurately ripped (confidence 25) [C247B673] (AR v2)
Track 7 accurately ripped (confidence 25) [3F6A8D2A] (AR v2)
Track 8 accurately ripped (confidence 25) [35C319E5] (AR v2)
Track 9 accurately ripped (confidence 25) [365A18B6] (AR v2)
Track 10 accurately ripped (confidence 25) [D81EA3E6] (AR v2)

All tracks accurately ripped

End of status report

–– CUETools DB Plugin V2.1.3

[CTDB TOCID: UYXTe1GiheWk2zbpGpIokXFAc34-] found, Submit result: UYXTe1GiheWk2zbpGpIokXFAc34- has been confirmed
[dea7170a] (70/70) Accurately ripped


==== Log checksum 7239E77F2385DF4945B1727600A6DC0598390B14D695F1ED55719773CD7F296F ====

Size: 2.87 Gb ( 3 005 450,00 KBytes ) - DVD-5
Enabled regions: 1, 2, 3, 4, 5, 6, 7, 8

VTS_01 :
Play Length: 00:45:21
Video: NTSC 16:9 (720x480) VBR, Auto Letterboxed
Audio:
English (LinearPCM, 2 ch)

VTS_02 :
Play Length: 00:00:38
Video: NTSC 16:9 (720x480) VBR, Auto Letterboxed
Audio:
Not specified (LinearPCM, 2 ch)


Many thanks to the original uploader: Ilijan