Subcategories

Alex Beyrodt's Voodoo Circle - Raised On Rock (2018) [Japanese Ed.]

Posted By: Andi_Deris
Alex Beyrodt's Voodoo Circle - Raised On Rock (2018) [Japanese Ed.]

Alex Beyrodt's Voodoo Circle - Raised On Rock (2018) [Japanese Ed.]
EAC Rip | FLAC: Image+Cue+Log | MP3 CBR 320 kbps | Scans
471 Mb | 150 Mb | 46 Mb | Time: 01:04:35
Marquee Inc./Avalon | MICP-11413
Melodic Heavy Metal/Hard Rock

Raised on Rock is the fifth full release from German band Voodoo Circle, following Voodoo Circle (2008), Broken Heart Syndrome (2011), More Than One Way Home (2013) and Whisky Fingers (2015). Guitarist and chief songwriter Alexander Beyrodt was clearly influenced by ’70s and early ’80s stalwarts Whitesnake, Rainbow and even Deep Purple to create this album.

Alex Beyrodt's Voodoo Circle - Raised On Rock (2018) [Japanese Ed.]




Track Listing

01. Running Away From Love (03:58)
02. Higher Love (04:10)
03. Walk On The Line (04:51)
04. You Promised Me Heaven (04:46)
05. Just Take My Heart (03:22)
06. Where Is The World We Love (05:10)
07. Ultimate Sin (04:03)
08. Chase Me Away (05:22)
09. Unknown Stranger (03:25)
10. Dreamchaser (06:38)
11. Love Is An Ocean (04:50)
12. Time For The Innocent (Bonus Track) (05:52)
13. There's More To See (Bonus Track) (04:14)
14. Heart Of Stone (2017 Version) (Bonus Track for Japan) (03:54)

Produced by Alex Beyrodt

The Band

Alex Beyrodt - Electric & Acoustic Guitars
Herbie Langhans - Lead & Backing Vocals
Mat Sinner - Bass
Francesco "Cesco" Jovino - Drums

*****
Corvin Bahn - Organ & Keyboards

Exact Audio Copy V1.3 from 2. September 2016

EAC extraction logfile from 29. March 2018, 12:59

Voodoo Circle / Raised On Rock (Japan)

Used drive : ATAPI iHAS122 W Adapter: 2 ID: 0

Read mode : Secure
Utilize accurate stream : Yes
Defeat audio cache : Yes
Make use of C2 pointers : No

Read offset correction : 48
Overread into Lead-In and Lead-Out : No
Fill up missing offset samples with silence : Yes
Delete leading and trailing silent blocks : No
Null samples used in CRC calculations : Yes
Used interface : Installed external ASPI interface

Used output format : User Defined Encoder
Selected bitrate : 1024 kBit/s
Quality : High
Add ID3 tag : No
Command line compressor : C:\Program Files\FLAC\flac.exe
Additional command line options : -V -8 -T "Date=%year%" -T "Genre=%genre%" -T"COMMENT=Ripped by Ilijan" -8 -V %source%


TOC of the extracted CD

Track | Start | Length | Start sector | End sector
––––––––––––––––––––––––––––-
1 | 0:00.00 | 3:58.11 | 0 | 17860
2 | 3:58.11 | 4:10.23 | 17861 | 36633
3 | 8:08.34 | 4:50.38 | 36634 | 58421
4 | 12:58.72 | 4:45.55 | 58422 | 79851
5 | 17:44.52 | 3:21.40 | 79852 | 94966
6 | 21:06.17 | 5:10.19 | 94967 | 118235
7 | 26:16.36 | 4:02.66 | 118236 | 136451
8 | 30:19.27 | 5:22.06 | 136452 | 160607
9 | 35:41.33 | 3:24.38 | 160608 | 175945
10 | 39:05.71 | 6:37.66 | 175946 | 205786
11 | 45:43.62 | 4:50.28 | 205787 | 227564
12 | 50:34.15 | 5:52.03 | 227565 | 253967
13 | 56:26.18 | 4:13.60 | 253968 | 273002
14 | 60:40.03 | 3:54.00 | 273003 | 290552


Range status and errors

Selected range

Filename D:\Voodoo Circle - Raised On Rock (Japan).wav

Peak level 98.8 %
Extraction speed 4.4 X
Range quality 100.0 %
Test CRC C8613AB5
Copy CRC C8613AB5
Copy OK

No errors occurred


AccurateRip summary

Track 1 not present in database
Track 2 not present in database
Track 3 not present in database
Track 4 not present in database
Track 5 not present in database
Track 6 not present in database
Track 7 not present in database
Track 8 not present in database
Track 9 not present in database
Track 10 not present in database
Track 11 not present in database
Track 12 not present in database
Track 13 not present in database
Track 14 not present in database

None of the tracks are present in the AccurateRip database

End of status report

–– CUETools DB Plugin V2.1.6

[CTDB TOCID: BCgja0EbSCEV6JQHPhjAzHFXAD8-] disk not present in database
Submit result: BCgja0EbSCEV6JQHPhjAzHFXAD8- has been uploaded


==== Log checksum 563864B7E0C925141B0515291AF80A6C2260B1E744595D6EFD3F12CF465085DF ====


Many thanks to the original uploader: Ilijan

SEE also:
Alex Beyrodt's Voodoo Circle 2015 Whisky Fingers [Limited Ed.]



Password: pass