Alex Lahey - I Love You Like a Brother (2017)

Posted By: SERTiL
Alex Lahey - I Love You Like a Brother (2017)

Alex Lahey - I Love You Like a Brother
EAC Rip | FLAC (tracks)+cue, log, m3u, front cover | 35:50 min | 253 MB
Label: Dead Oceans – DOC136 | Tracks: 10 | Rls.date: 2017
Indie Rock, Alternative, Female Vocal

I Love You Like A Brother is the highly anticipated album from Melbourne's Alex Lahey. After finishing school, Lahey initially went to university to study jazz saxophone, but unimpressed with "learning music in such a regimented way" she switched to an arts degree. While studying, Alex cut her teeth as a member of cult party collective Animaux, which allowed her restlessly rebellious streak to flourish. Alex began to form the blueprint for her own solo material by writing songs inspired by the two people she considers the greatest songwriters of all time, Dolly Parton and Bruce Springsteen, whilst retaining the punk spirit of her first musical outing. These songs found themselves on her first solo EP, the acclaimed B-Grade University. The EP included the single. 'You Don't Think You Like People Like Me'; a mainstay on Australian radio, landing on triple j's prestigious Hottest 100 of 2016. The song's universal tale of rejection took Lahey global - its message, she says, is the flipside of the usual break-up scenario: "Yeah, you're right. It's not me. It IS you". This no-shit-taken attitude forms the backbone of I Love You Like A Brother as evidenced by the uproarious opening track 'Every Day's The Weekend'. Throughout the records' ten songs, Alex's lyrics deftly move between wry, often hilarious witticism to heartbreaking poignancy. For every uplifting anthem, such as 'I Love You Like A Brother' and the unruly 'Perth Traumatic Stress Disorder', there's painfully relatable tracks like 'Backpack' and 'Awkward Exchange'. Despite the instant pop chops of I Love You Like A Brother, there's introspection, self-doubt and sense of working out the complexities of growing up in this limbo period between youth and adulthood.

TRACKLIST
01 - Every Day's the Weekend
02 - I Love You Like A Brother
03 - Perth Traumatic Stress Disorder
04 - I Haven't Been Taking Care of Myself
05 - Backpack
06 - Awkward Exchange
07 - I Want U
08 - Lotto In Reverse
09 - Let's Call it a Day
10 - There's No Money

Exact Audio Copy V1.3 from 2. September 2016

EAC extraction logfile from 26. September 2017, 9:36

Alex Lahey / I Love You Like A Brother

Used drive : TSSTcorpCDDVDW SU-208GB Adapter: 1 ID: 0

Read mode : Secure
Utilize accurate stream : Yes
Defeat audio cache : Yes
Make use of C2 pointers : No

Read offset correction : 6
Overread into Lead-In and Lead-Out : No
Fill up missing offset samples with silence : Yes
Delete leading and trailing silent blocks : No
Null samples used in CRC calculations : Yes
Used interface : Native Win32 interface for Win NT & 2000
Gap handling : Appended to previous track

Used output format : User Defined Encoder
Selected bitrate : 1024 kBit/s
Quality : High
Add ID3 tag : No
Command line compressor : C:\Program Files\flac-1.3.2-win\win64\flac.exe
Additional command line options : -8 -e -p -V -T "ARTIST=%artist%" -T "TITLE=%title%" -T "ALBUM=%albumtitle%" -T "DATE=%year%" -T "TRACKNUMBER=%tracknr%" -T "GENRE=%genre%" -T "PERFORMER=%albuminterpret%" -T "COMPOSER=%composer%" %haslyrics%–tag-from-file=LYRICS="%lyricsfile%"%haslyrics% -T "ALBUMARTIST=%albumartist%" -T "DISCNUMBER=%cdnumber%" -T "TOTALDISCS=%totalcds%" -T "TOTALTRACKS=%numtracks%" -T "COMMENT=%comment%" %source% -o %dest%


TOC of the extracted CD

Track | Start | Length | Start sector | End sector
––––––––––––––––––––––––––––-
1 | 0:00.00 | 3:10.51 | 0 | 14300
2 | 3:10.51 | 2:50.53 | 14301 | 27103
3 | 6:01.29 | 2:15.48 | 27104 | 37276
4 | 8:17.02 | 3:46.49 | 37277 | 54275
5 | 12:03.51 | 3:59.29 | 54276 | 72229
6 | 16:03.05 | 3:51.48 | 72230 | 89602
7 | 19:54.53 | 3:48.57 | 89603 | 106759
8 | 23:43.35 | 4:00.03 | 106760 | 124762
9 | 27:43.38 | 4:19.69 | 124763 | 144256
10 | 32:03.32 | 3:54.62 | 144257 | 161868


Track 1

Filename C:\EAC\Alex Lahey - I Love You Like A Brother (2017) [FLAC]\01 - Every Day's the Weekend.wav

Pre-gap length 0:00:02.00

Peak level 100.0 %
Extraction speed 2.1 X
Track quality 100.0 %
Test CRC 9DD96AB6
Copy CRC 9DD96AB6
Track not present in AccurateRip database
Copy OK

Track 2

Filename C:\EAC\Alex Lahey - I Love You Like A Brother (2017) [FLAC]\02 - I Love You Like A Brother.wav

Pre-gap length 0:00:00.85

Peak level 100.0 %
Extraction speed 2.2 X
Track quality 100.0 %
Test CRC EA136456
Copy CRC EA136456
Track not present in AccurateRip database
Copy OK

Track 3

Filename C:\EAC\Alex Lahey - I Love You Like A Brother (2017) [FLAC]\03 - Perth Traumatic Stress Disorder.wav

Pre-gap length 0:00:01.00

Peak level 100.0 %
Extraction speed 2.3 X
Track quality 100.0 %
Test CRC D54548EC
Copy CRC D54548EC
Track not present in AccurateRip database
Copy OK

Track 4

Filename C:\EAC\Alex Lahey - I Love You Like A Brother (2017) [FLAC]\04 - I Haven't Been Taking Care of Myself.wav

Pre-gap length 0:00:01.02

Peak level 100.0 %
Extraction speed 2.7 X
Track quality 100.0 %
Test CRC 4A91F7D7
Copy CRC 4A91F7D7
Track not present in AccurateRip database
Copy OK

Track 5

Filename C:\EAC\Alex Lahey - I Love You Like A Brother (2017) [FLAC]\05 - Backpack.wav

Pre-gap length 0:00:01.21

Peak level 100.0 %
Extraction speed 2.2 X
Track quality 99.9 %
Test CRC D10CC77B
Copy CRC D10CC77B
Track not present in AccurateRip database
Copy OK

Track 6

Filename C:\EAC\Alex Lahey - I Love You Like A Brother (2017) [FLAC]\06 - Awkward Exchange.wav

Pre-gap length 0:00:01.30

Peak level 100.0 %
Extraction speed 3.1 X
Track quality 100.0 %
Test CRC E8CD99D0
Copy CRC E8CD99D0
Track not present in AccurateRip database
Copy OK

Track 7

Filename C:\EAC\Alex Lahey - I Love You Like A Brother (2017) [FLAC]\07 - I Want U.wav

Peak level 100.0 %
Extraction speed 2.5 X
Track quality 99.9 %
Test CRC 7A963025
Copy CRC 7A963025
Track not present in AccurateRip database
Copy OK

Track 8

Filename C:\EAC\Alex Lahey - I Love You Like A Brother (2017) [FLAC]\08 - Lotto In Reverse.wav

Peak level 100.0 %
Extraction speed 2.7 X
Track quality 99.9 %
Test CRC 1BF3D1A0
Copy CRC 1BF3D1A0
Track not present in AccurateRip database
Copy OK

Track 9

Filename C:\EAC\Alex Lahey - I Love You Like A Brother (2017) [FLAC]\09 - Let's Call it a Day.wav

Peak level 100.0 %
Extraction speed 2.8 X
Track quality 99.9 %
Test CRC 699FDA30
Copy CRC 699FDA30
Track not present in AccurateRip database
Copy OK

Track 10

Filename C:\EAC\Alex Lahey - I Love You Like A Brother (2017) [FLAC]\10 - There's No Money.wav

Pre-gap length 0:00:02.90

Peak level 100.0 %
Extraction speed 2.9 X
Track quality 100.0 %
Test CRC A98CD8D9
Copy CRC A98CD8D9
Track not present in AccurateRip database
Copy OK


None of the tracks are present in the AccurateRip database

No errors occurred

End of status report

–– CUETools DB Plugin V2.1.6

[CTDB TOCID: XWxquhndf472yWkQ4Pv8dL2WQUk-] disk not present in database
Submit result: XWxquhndf472yWkQ4Pv8dL2WQUk- has been uploaded


==== Log checksum 8E846696699B8813D9E86F35BE8995772B2F17ADE31D1B03CCF4BA5CF8377B2B ====


Thanks to the Original customer.