Subcategories

Alexandre Tharaud - Rameau, J.S.Bach, Francois Couperin: Piano Works (2010)

Posted By: tirexiss
Alexandre Tharaud - Rameau, J.S.Bach, Francois Couperin: Piano Works (2010)

Alexandre Tharaud - Rameau, J.S.Bach, Francois Couperin: Piano Works (2010)
EAC | FLAC (image+.cue, log) | Covers Included | 03:03:17 | 660 MB
Genre: Classical | Label: Harmonia Mundi | Catalog: HMX 2958379.81

A midprice reissue collecting this young French pianist s three baroque recordings. I fell in love with Tharaud s Rameau disc several years ago and never once missed the rattling sound of the harpsichord. Tharaud points out that Rameau s frequent ornamentation would have served to prolong notes on a harpsichord. This isn t necessary on a modern piano, and there s an incredible delicacy to the pianism here, with the trills and turns played with a barely credible lightness of touch. It s infectious stuff, with the witty character pieces from the Suite in G vivid and alive. The Bach disc includes an effervescent account of the Italian Concerto. Bach s music has often been transcribed and arranged by his successors, so Tharaud imaginatively gives us several of Bach s own creative reinventions of concertos by Vivaldi and Marcello. Rarely heard on piano, they sound fantastic on a Steinway, the exquisite slow movement of the Marcello oboe concerto a highlight. Tharaud s Couperin selection is even better, and the exuberance and high spirits of these tiny pieces is totally invigorating. It s fun to hear Tharaud overdubbing himself in the Muséte de Taverni and the Bruit de Guerre, complete with a steadily beating tambour. Each of the three discs is recommendable, but Tharaud s Couperin has made me smile more than any baroque recording I ve heard. – Graham Rickson

Alexandre Tharaud - Rameau, J.S.Bach, Francois Couperin: Piano Works (2010)

Track List:

CD 1:
01. Rameau - Suite in A I. Allemande [0:06:01.54]
02. II. Courante [0:04:45.36]
03. III. Sarabande [0:03:10.33]
04. IV. Les Trois Mains [0:04:12.25]
05. V. La Fanfarinette [0:02:46.17]
06. VI. La Triomphante [0:01:34.70]
07. VII. Gavotte [0:01:12.29]
08. VIII. Premier double de la Gavotte [0:00:52.57]
09. IX. Deuxeme double [0:00:51.22]
10. X. Troisieme double [0:00:54.69]
11. XI. Quatrieme double [0:00:50.30]
12. XII. Cinquieme double [0:00:49.47]
13. XIII. Sixieme double [0:01:11.58]
14. Rameau - Suite in G I. Les Tricotets. Rondeau [0:01:41.60]
15. II. L' Indifferente [0:01:42.28]
16. III. Menuet Deuxieme menuet [0:02:56.55]
17. IV. La Poule [0:05:48.66]
18. V. Les Triolets [0:03:29.61]
19. VI. Les Sauvages [0:01:46.19]
20. VII. L' Enharmonique [0:06:33.28]
21. VIII. L' Egyptienne [0:03:01.26]
22. Debussy - Hommage a Rameau [0:06:39.28]

Exact Audio Copy V1.0 beta 3 from 29. August 2011

EAC extraction logfile from 9. December 2014, 19:23

Alexandre Tharaud / Rameau, J.S.Bach, Couperin - Piano Works - Alexandre Tharaud (Disc 1)

Used drive : TSSTcorpCDDVDW SH-222BB Adapter: 2 ID: 1

Read mode : Secure
Utilize accurate stream : Yes
Defeat audio cache : Yes
Make use of C2 pointers : No

Read offset correction : 6
Overread into Lead-In and Lead-Out : No
Fill up missing offset samples with silence : Yes
Delete leading and trailing silent blocks : No
Null samples used in CRC calculations : Yes
Used interface : Native Win32 interface for Win NT & 2000

Used output format : User Defined Encoder
Selected bitrate : 896 kBit/s
Quality : High
Add ID3 tag : No
Command line compressor : C:\Program Files\Exact Audio Copy\FLAC\FLAC.EXE
Additional command line options : -8 -V -T "TITLE=%title%" -T "ARTIST=%artist%" -T "ALBUMARTIST=%albumartist%" -T "ALBUM=%albumtitle%" -T "DATE=%year%" -T "TRACKNUMBER=%tracknr%" -T "TRACKTOTAL=%numtracks%" -T "GENRE=%genre%" -T "COMMENT=%comment%" -T "PERFORMER=%albuminterpret%" -T "COMPOSER=%composer%" %source% -o %dest%


TOC of the extracted CD

Track | Start | Length | Start sector | End sector
––––––––––––––––––––––––––––-
1 | 0:00.00 | 6:01.54 | 0 | 27128
2 | 6:01.54 | 4:45.36 | 27129 | 48539
3 | 10:47.15 | 3:10.33 | 48540 | 62822
4 | 13:57.48 | 4:12.25 | 62823 | 81747
5 | 18:09.73 | 2:46.17 | 81748 | 94214
6 | 20:56.15 | 1:34.70 | 94215 | 101334
7 | 22:31.10 | 1:12.29 | 101335 | 106763
8 | 23:43.39 | 0:52.57 | 106764 | 110720
9 | 24:36.21 | 0:51.22 | 110721 | 114567
10 | 25:27.43 | 0:54.69 | 114568 | 118686
11 | 26:22.37 | 0:50.30 | 118687 | 122466
12 | 27:12.67 | 0:49.47 | 122467 | 126188
13 | 28:02.39 | 1:11.58 | 126189 | 131571
14 | 29:14.22 | 1:41.60 | 131572 | 139206
15 | 30:56.07 | 1:42.28 | 139207 | 146884
16 | 32:38.35 | 2:56.55 | 146885 | 160139
17 | 35:35.15 | 5:48.66 | 160140 | 186305
18 | 41:24.06 | 3:29.61 | 186306 | 202041
19 | 44:53.67 | 1:46.19 | 202042 | 210010
20 | 46:40.11 | 6:33.28 | 210011 | 239513
21 | 53:13.39 | 3:01.26 | 239514 | 253114
22 | 56:14.65 | 6:39.28 | 253115 | 283067


Range status and errors

Selected range

Filename G:\Ripped general\[7614] Rameau, J.S.Bach, Couperin – Piano Works – Alexandre Tharaud\cd1\Rameau, J.S.Bach, Couperin - Piano Works - Alexandre Tharaud (Disc 1).wav

Peak level 91.2 %
Extraction speed 6.6 X
Range quality 100.0 %
Test CRC C2856179
Copy CRC C2856179
Copy OK

No errors occurred


AccurateRip summary

Track 1 accurately ripped (confidence 23) [BA68D059] (AR v2)
Track 2 accurately ripped (confidence 23) [31328464] (AR v2)
Track 3 accurately ripped (confidence 23) [6EF1B7CC] (AR v2)
Track 4 accurately ripped (confidence 23) [69001E39] (AR v2)
Track 5 accurately ripped (confidence 23) [27C02D65] (AR v2)
Track 6 accurately ripped (confidence 22) [E9357756] (AR v2)
Track 7 accurately ripped (confidence 23) [B69A2C4F] (AR v2)
Track 8 accurately ripped (confidence 22) [55AE59E8] (AR v2)
Track 9 accurately ripped (confidence 23) [36CA81B7] (AR v2)
Track 10 accurately ripped (confidence 23) [E67293B7] (AR v2)
Track 11 accurately ripped (confidence 23) [F7842721] (AR v2)
Track 12 accurately ripped (confidence 23) [F1CD58CB] (AR v2)
Track 13 accurately ripped (confidence 23) [EFE7387A] (AR v2)
Track 14 accurately ripped (confidence 23) [BC762AE3] (AR v2)
Track 15 accurately ripped (confidence 23) [24D43AD3] (AR v2)
Track 16 accurately ripped (confidence 23) [5BF284E9] (AR v2)
Track 17 accurately ripped (confidence 23) [7DD24F2C] (AR v2)
Track 18 accurately ripped (confidence 22) [840090CE] (AR v2)
Track 19 accurately ripped (confidence 23) [D5F3BB3E] (AR v2)
Track 20 accurately ripped (confidence 23) [7FDF9BA0] (AR v2)
Track 21 accurately ripped (confidence 23) [BAC7C752] (AR v2)
Track 22 accurately ripped (confidence 22) [C0E5071D] (AR v2)

All tracks accurately ripped

End of status report

==== Log checksum 5957F5ABBE882BF936862068D5BDE87AB3B441D5E907AF69D1FA707B3A4EFC84 ====

[CUETools log; Date: 04.04.2017 17:27:35; Version: 2.1.5]
[CTDB TOCID: Pofk95K.joJ3FmGYviT.Z7MZFXQ-] found.
Track | CTDB Status
1 | (88/89) Accurately ripped
2 | (88/89) Accurately ripped
3 | (88/89) Accurately ripped
4 | (88/89) Accurately ripped
5 | (87/89) Accurately ripped
6 | (89/89) Accurately ripped
7 | (89/89) Accurately ripped
8 | (88/89) Accurately ripped
9 | (89/89) Accurately ripped
10 | (89/89) Accurately ripped
11 | (88/89) Accurately ripped
12 | (89/89) Accurately ripped
13 | (88/89) Accurately ripped
14 | (88/89) Accurately ripped
15 | (88/89) Accurately ripped
16 | (88/89) Accurately ripped
17 | (88/89) Accurately ripped
18 | (88/89) Accurately ripped
19 | (89/89) Accurately ripped
20 | (87/89) Accurately ripped
21 | (87/89) Accurately ripped
22 | (87/89) Accurately ripped
[AccurateRip ID: 002ecca6-02cdef10-620ebe16] found.
Track [ CRC | V2 ] Status
01 [73f3f0bb|ba68d059] (002+032/117) Accurately ripped
02 [9dcd0109|31328464] (002+032/117) Accurately ripped
03 [7fb945d3|6ef1b7cc] (002+032/117) Accurately ripped
04 [b3ca9105|69001e39] (002+032/117) Accurately ripped
05 [9bde2ac2|27c02d65] (002+032/117) Accurately ripped
06 [336cea6a|e9357756] (002+031/116) Accurately ripped
07 [71144bf0|b69a2c4f] (002+032/117) Accurately ripped
08 [acddd7c8|55ae59e8] (002+031/116) Accurately ripped
09 [335eff6d|36ca81b7] (002+032/116) Accurately ripped
10 [272ffc17|e67293b7] (002+032/117) Accurately ripped
11 [ff555125|f7842721] (002+032/117) Accurately ripped
12 [92175eeb|f1cd58cb] (002+032/117) Accurately ripped
13 [887f4d75|efe7387a] (002+032/117) Accurately ripped
14 [33cd4711|bc762ae3] (002+032/117) Accurately ripped
15 [c8e792f8|24d43ad3] (002+032/117) Accurately ripped
16 [d5c1c6fb|5bf284e9] (003+032/118) Accurately ripped
17 [28d71c24|7dd24f2c] (002+032/117) Accurately ripped
18 [0fadb2cb|840090ce] (002+031/115) Accurately ripped
19 [898383e8|d5f3bb3e] (002+032/117) Accurately ripped
20 [2106abe7|7fdf9ba0] (002+032/116) Accurately ripped
21 [32351dff|bac7c752] (002+032/115) Accurately ripped
22 [aaf9bd76|c0e5071d] (003+031/114) Accurately ripped
Offsetted by 664:
01 [b3a723a9] (028/117) Accurately ripped
02 [2cecfada] (028/117) Accurately ripped
03 [7bff179e] (028/117) Accurately ripped
04 [111b935a] (028/117) Accurately ripped
05 [327ec900] (028/117) Accurately ripped
06 [19adfae6] (028/116) Accurately ripped
07 [f2039223] (028/117) Accurately ripped
08 [66e6ed6b] (028/116) Accurately ripped
09 [4aea4b6d] (027/116) Accurately ripped
10 [abe411fe] (028/117) Accurately ripped
11 [35644dbf] (028/117) Accurately ripped
12 [b94d924b] (028/117) Accurately ripped
13 [4ea4a4eb] (028/117) Accurately ripped
14 [c402bc40] (028/117) Accurately ripped
15 [fdbd78bd] (028/117) Accurately ripped
16 [c94db191] (028/118) Accurately ripped
17 [cd7e5945] (028/117) Accurately ripped
18 [4f1a23c0] (028/115) Accurately ripped
19 [ebde6553] (028/117) Accurately ripped
20 [8ce8c93d] (027/116) Accurately ripped
21 [cc06318b] (027/115) Accurately ripped
22 [a6d295c9] (025/114) Accurately ripped
Offsetted by 670:
01 [752bf12d] (000/117) No match (V2 was not tested)
02 [b62dd0c9] (000/117) No match (V2 was not tested)
03 [502e10f0] (000/117) No match (V2 was not tested)
04 [b1bb2d0b] (000/117) No match (V2 was not tested)
05 [d543ab3c] (000/117) No match (V2 was not tested)
06 [c8241ea7] (000/116) No match (V2 was not tested)
07 [c9402551] (000/117) No match (V2 was not tested)
08 [ea25f1b2] (000/116) No match (V2 was not tested)
09 [845a0f21] (000/116) No match (V2 was not tested)
10 [764967eb] (000/117) No match (V2 was not tested)
11 [e14c6d0c] (000/117) No match (V2 was not tested)
12 [ac387df1] (000/117) No match (V2 was not tested)
13 [f5c69893] (000/117) No match (V2 was not tested)
14 [9be7ddc7] (000/117) No match (V2 was not tested)
15 [5dc90a27] (000/117) No match (V2 was not tested)
16 [5b92fb6b] (000/118) No match (V2 was not tested)
17 [1755256c] (000/117) No match (V2 was not tested)
18 [a8227849] (000/115) No match (V2 was not tested)
19 [7ac4335c] (000/117) No match (V2 was not tested)
20 [b80a27e3] (000/116) No match (V2 was not tested)
21 [bccd6e6a] (000/115) No match (V2 was not tested)
22 [c598b742] (000/114) No match (V2 was not tested)

Track Peak [ CRC32 ] [W/O NULL] [ LOG ]
– 91,2 [C2856179] [52D9CF0A] CRC32
01 41,5 [512C042F] [F42CAF78]
02 46,8 [51FEBDC3] [C9D2B0E4]
03 47,4 [33011179] [865B9A07]
04 76,1 [71D62442] [358A3106]
05 61,2 [2E6BCAAA] [B38B6B24]
06 53,4 [1DEF32DF] [E99DE958]
07 35,6 [29FFB651] [D4BC1BA6]
08 38,9 [DF595699] [4061AD42]
09 52,8 [54C2A121] [F8BB6346]
10 42,4 [7A5ED9D0] [F75342E7]
11 80,7 [797E4F51] [AF25B947]
12 65,2 [FDF5CEE1] [E2C389F3]
13 91,2 [298B5C0C] [7D1DE0AD]
14 29,9 [2A40606E] [FD40EE66]
15 32,9 [81D1A476] [775812D4]
16 49,5 [BCEB536F] [952BA0A7]
17 86,9 [CE5B3BF4] [241B3F34]
18 36,8 [E79C5884] [E495AB14]
19 52,6 [46802A13] [63A9BD21]
20 37,5 [CCB6485E] [2FA678CC]
21 74,6 [9F3F504A] [9DC173D9]
22 84,5 [32C85FF1] [468BDDEA]

CD 2:
01. J.S.Bach - Sicilienne du Concerto en ré mineur BWV 596 [0:02:30.34]
02. Concerto en sol mineur BWV 975. Allegro [0:02:47.34]
03. Largo [0:04:01.28]
04. Presto [0:02:14.23]
05. Aria de la Pastorale in ut mineur BWV 590 [0:02:36.12]
06. Concerto italien en Fa mineur BWV 971. I. [0:03:35.25]
07. Andante [0:05:09.21]
08. Pretso [0:03:38.29]
09. J.S.Bach - Concerto en ré mineur BWV 974. Allegro [0:02:32.30]
10. Adagio [0:04:13.31]
11. Presto [0:03:24.50]
12. Concerto en ut mineur BWV 981. Allegro [0:01:48.74]
13. Vivace [0:01:37.11]
14. Grave [0:02:54.26]
15. Prestissimo [0:03:57.69]
16. Concerto en Sol majeur BWV 973. Allegro [0:02:20.12]
17. Largo [0:02:32.31]
18. Allegro [0:02:08.13]
19. J.S.Bach - Andante du Concerto en si mineur BWV 979 [0:03:25.20]

Exact Audio Copy V1.0 beta 3 from 29. August 2011

EAC extraction logfile from 9. December 2014, 19:46

Alexandre Tharaud / Rameau, J.S.Bach, Couperin - Piano Works - Alexandre Tharaud (Disc 2)

Used drive : TSSTcorpCDDVDW SH-222BB Adapter: 2 ID: 1

Read mode : Secure
Utilize accurate stream : Yes
Defeat audio cache : Yes
Make use of C2 pointers : No

Read offset correction : 6
Overread into Lead-In and Lead-Out : No
Fill up missing offset samples with silence : Yes
Delete leading and trailing silent blocks : No
Null samples used in CRC calculations : Yes
Used interface : Native Win32 interface for Win NT & 2000

Used output format : User Defined Encoder
Selected bitrate : 896 kBit/s
Quality : High
Add ID3 tag : No
Command line compressor : C:\Program Files\Exact Audio Copy\FLAC\FLAC.EXE
Additional command line options : -8 -V -T "TITLE=%title%" -T "ARTIST=%artist%" -T "ALBUMARTIST=%albumartist%" -T "ALBUM=%albumtitle%" -T "DATE=%year%" -T "TRACKNUMBER=%tracknr%" -T "TRACKTOTAL=%numtracks%" -T "GENRE=%genre%" -T "COMMENT=%comment%" -T "PERFORMER=%albuminterpret%" -T "COMPOSER=%composer%" %source% -o %dest%


TOC of the extracted CD

Track | Start | Length | Start sector | End sector
––––––––––––––––––––––––––––-
1 | 0:00.00 | 2:30.34 | 0 | 11283
2 | 2:30.34 | 2:47.34 | 11284 | 23842
3 | 5:17.68 | 4:01.28 | 23843 | 41945
4 | 9:19.21 | 2:14.23 | 41946 | 52018
5 | 11:33.44 | 2:36.12 | 52019 | 63730
6 | 14:09.56 | 3:35.25 | 63731 | 79880
7 | 17:45.06 | 5:09.21 | 79881 | 103076
8 | 22:54.27 | 3:38.29 | 103077 | 119455
9 | 26:32.56 | 2:32.30 | 119456 | 130885
10 | 29:05.11 | 4:13.31 | 130886 | 149891
11 | 33:18.42 | 3:24.50 | 149892 | 165241
12 | 36:43.17 | 1:48.74 | 165242 | 173415
13 | 38:32.16 | 1:37.11 | 173416 | 180701
14 | 40:09.27 | 2:54.26 | 180702 | 193777
15 | 43:03.53 | 3:57.69 | 193778 | 211621
16 | 47:01.47 | 2:20.12 | 211622 | 222133
17 | 49:21.59 | 2:32.31 | 222134 | 233564
18 | 51:54.15 | 2:08.13 | 233565 | 243177
19 | 54:02.28 | 3:25.20 | 243178 | 258572


Range status and errors

Selected range

Filename G:\Ripped general\[7614] Rameau, J.S.Bach, Couperin – Piano Works – Alexandre Tharaud\cd2\Rameau, J.S.Bach, Couperin - Piano Works - Alexandre Tharaud (Disc 2).wav

Peak level 98.8 %
Extraction speed 6.5 X
Range quality 100.0 %
Test CRC 2F40A940
Copy CRC 2F40A940
Copy OK

No errors occurred


AccurateRip summary

Track 1 accurately ripped (confidence 22) [24DCDA58] (AR v2)
Track 2 accurately ripped (confidence 22) [B486AD92] (AR v2)
Track 3 accurately ripped (confidence 21) [E2072D00] (AR v2)
Track 4 accurately ripped (confidence 22) [B3DC86CF] (AR v2)
Track 5 accurately ripped (confidence 22) [622373C8] (AR v2)
Track 6 accurately ripped (confidence 22) [63EC806A] (AR v2)
Track 7 accurately ripped (confidence 22) [E058F932] (AR v2)
Track 8 accurately ripped (confidence 22) [14D4B4F5] (AR v2)
Track 9 accurately ripped (confidence 22) [7429ACC3] (AR v2)
Track 10 accurately ripped (confidence 22) [4758A3BD] (AR v2)
Track 11 accurately ripped (confidence 22) [B500EDC8] (AR v2)
Track 12 accurately ripped (confidence 22) [A5392436] (AR v2)
Track 13 accurately ripped (confidence 22) [15FC0C98] (AR v2)
Track 14 accurately ripped (confidence 22) [0952B9BA] (AR v2)
Track 15 accurately ripped (confidence 22) [14DEB90C] (AR v2)
Track 16 accurately ripped (confidence 22) [317C7711] (AR v2)
Track 17 accurately ripped (confidence 22) [D82536D3] (AR v2)
Track 18 accurately ripped (confidence 22) [531B26D3] (AR v2)
Track 19 accurately ripped (confidence 22) [81F1B07D] (AR v2)

All tracks accurately ripped

End of status report

==== Log checksum 8547BAEDAE1B28E9569EC3551A154794E587E4D0C9DCA518309BDF598148135C ====

[CUETools log; Date: 04.04.2017 17:27:57; Version: 2.1.5]
[CTDB TOCID: AWurshZfZBbnHOsZ52UyU3OsR5U-] found.
Track | CTDB Status
1 | (110/111) Accurately ripped
2 | (110/111) Accurately ripped
3 | (110/111) Accurately ripped
4 | (110/111) Accurately ripped
5 | (110/111) Accurately ripped
6 | (110/111) Accurately ripped
7 | (110/111) Accurately ripped
8 | (110/111) Accurately ripped
9 | (110/111) Accurately ripped
10 | (110/111) Accurately ripped
11 | (110/111) Accurately ripped
12 | (110/111) Accurately ripped
13 | (110/111) Accurately ripped
14 | (110/111) Accurately ripped
15 | (109/111) Accurately ripped
16 | (110/111) Accurately ripped
17 | (109/111) Accurately ripped
18 | (110/111) Accurately ripped
19 | (110/111) Accurately ripped
[AccurateRip ID: 00288fb1-0236e8ce-f60d7713] found.
Track [ CRC | V2 ] Status
01 [2f512ba8|24dcda58] (002+032/148) Accurately ripped
02 [bde64e07|b486ad92] (002+032/147) Accurately ripped
03 [8bfa4dbf|e2072d00] (002+031/146) Accurately ripped
04 [b64752d7|b3dc86cf] (002+032/147) Accurately ripped
05 [6bfbb55b|622373c8] (002+032/148) Accurately ripped
06 [29d550de|63ec806a] (002+032/147) Accurately ripped
07 [62c712b1|e058f932] (000+032/144) Accurately ripped
08 [368debc6|14d4b4f5] (002+032/147) Accurately ripped
09 [84fc9e33|7429acc3] (002+032/147) Accurately ripped
10 [651743b8|4758a3bd] (002+032/148) Accurately ripped
11 [3e7e6a88|b500edc8] (002+032/147) Accurately ripped
12 [73eb22a6|a5392436] (002+032/146) Accurately ripped
13 [178d3049|15fc0c98] (002+032/147) Accurately ripped
14 [85cb21e6|0952b9ba] (002+032/146) Accurately ripped
15 [8992f1c1|14deb90c] (002+032/145) Accurately ripped
16 [a41db0e3|317c7711] (002+032/147) Accurately ripped
17 [2114f469|d82536d3] (002+032/145) Accurately ripped
18 [a35b1cce|531b26d3] (002+032/143) Accurately ripped
19 [3d4d8cf1|81f1b07d] (002+032/145) Accurately ripped
Offsetted by -33:
01 [936ec09e] (002/148) Accurately ripped
02 [d4cd4ccb] (002/147) Accurately ripped
03 [85c64376] (002/146) Accurately ripped
04 [6d68aeda] (002/147) Accurately ripped
05 [dadb25e2] (002/148) Accurately ripped
06 [697e4a94] (002/147) Accurately ripped
07 [239badbf] (002/144) Accurately ripped
08 [34678a34] (002/147) Accurately ripped
09 [bf56cc76] (002/147) Accurately ripped
10 [d0a554ec] (002/148) Accurately ripped
11 [0c2ec2ba] (002/147) Accurately ripped
12 [054a5615] (002/146) Accurately ripped
13 [f95762d9] (002/147) Accurately ripped
14 [c47adc2a] (002/146) Accurately ripped
15 [ce242a76] (002/145) Accurately ripped
16 [9171ef0d] (002/147) Accurately ripped
17 [3003cfc9] (002/145) Accurately ripped
18 [c9f1edbc] (002/143) Accurately ripped
19 [3db202e7] (002/145) Accurately ripped
Offsetted by 664:
01 [01558763] (042/148) Accurately ripped
02 [01cbf839] (042/147) Accurately ripped
03 [f2bf0b87] (042/146) Accurately ripped
04 [b350a31d] (042/147) Accurately ripped
05 [703fd90b] (042/148) Accurately ripped
06 [62bb77db] (042/147) Accurately ripped
07 [a029e1c5] (041/144) Accurately ripped
08 [f2adc8dd] (042/147) Accurately ripped
09 [e013ec70] (042/147) Accurately ripped
10 [6f9642f6] (042/148) Accurately ripped
11 [a8300c0d] (042/147) Accurately ripped
12 [c781f93c] (041/146) Accurately ripped
13 [6f169a9b] (042/147) Accurately ripped
14 [2e695716] (041/146) Accurately ripped
15 [82e3eea9] (040/145) Accurately ripped
16 [44d4c9c4] (042/147) Accurately ripped
17 [ca9becba] (041/145) Accurately ripped
18 [d09db030] (040/143) Accurately ripped
19 [6d59c518] (041/145) Accurately ripped
Offsetted by 756:
01 [456e4eab] (000/148) No match (V2 was not tested)
02 [de10c271] (000/147) No match (V2 was not tested)
03 [1445860b] (000/146) No match (V2 was not tested)
04 [3372f1f5] (000/147) No match (V2 was not tested)
05 [244beb37] (000/148) No match (V2 was not tested)
06 [30de25cf] (000/147) No match (V2 was not tested)
07 [20da6a4e] (000/144) No match (V2 was not tested)
08 [79233418] (000/147) No match (V2 was not tested)
09 [7fb41ceb] (000/147) No match (V2 was not tested)
10 [026d420d] (000/148) No match (V2 was not tested)
11 [fbe4a9a7] (000/147) No match (V2 was not tested)
12 [7b18b4d5] (000/146) No match (V2 was not tested)
13 [5486e540] (000/147) No match (V2 was not tested)
14 [1801fc69] (000/146) No match (V2 was not tested)
15 [d24ef550] (000/145) No match (V2 was not tested)
16 [57697ab6] (000/147) No match (V2 was not tested)
17 [1c61ab03] (000/145) No match (V2 was not tested)
18 [c9bcc085] (000/143) No match (V2 was not tested)
19 [324ec7b8] (000/145) No match (V2 was not tested)

Track Peak [ CRC32 ] [W/O NULL] [ LOG ]
– 98,8 [2F40A940] [1688F949] CRC32
01 77,0 [A8997A0A] [6FDD86A5]
02 98,8 [3ED2266A] [DD00BCB4]
03 49,0 [BDC71F97] [E2BD0070]
04 98,8 [9BC33729] [BF597DB6]
05 52,6 [A1014E45] [B2731E2B]
06 98,8 [18A47A46] [E011CB6D]
07 58,0 [B668BC56] [2DB07F41]
08 98,8 [9186FE59] [BB421F3E]
09 98,8 [D5CF131C] [1F728108]
10 75,3 [2375A7F2] [075703BC]
11 98,8 [42E708A0] [D4BC680B]
12 98,8 [F366A39D] [85FD4985]
13 98,8 [74FFB785] [98F11309]
14 80,6 [0D05CECC] [B3EFB8D3]
15 98,8 [BFA9664F] [6E9BACD5]
16 98,8 [260566D3] [5D158C0F]
17 42,8 [BC12AE7C] [85B8800C]
18 98,8 [2CEE0B98] [D527F954]
19 98,8 [BE070A58] [CBF88D3C]

CD 3:
01. Couperin - Les Baricades Mistérieuses [6e ordre]. Vivement [0:01:40.26]
02. Le Tic Toc Choc ou Les Maillotins [18e ordre]. Légèrement et marqué [0:02:27.71]
03. La Couperin [21e ordre]. D'une vivacité modérée [0:03:54.04]
04. Les Calotines [19e ordre] [0:02:16.00]
05. Les Ombres Errantes[25e ordre ]. Languissamment [0:04:10.46]
06. Les Tricoteuses[23e ordre]. Très légèrement [0:02:13.29]
07. Le Carillon de Cythère [14e ordre]. Agréablement, sans lenteur [0:03:46.69]
08. La Muséte de Taverni [15e ordre]. Légèrement [0:02:24.60]
09. Les Rozeaux [13e ordre]. Tendrement, sans lenteur [0:02:48.66]
10. L'Atalante [12e ordre]. Très légèrement [0:01:44.48]
11. Passacaille [8e ordre] [0:05:43.31]
12. La Muse Plantine [19e ordre].Rondeau. Languissament [0:02:19.66]
13. Les Tours de passe-passe [22e ordre] [0:02:25.05]
14. Bruit de guerre (extrait de La Triomphante) [10e ordre]. Vivement [0:02:34.22]
15. Le Dodo ou L'Amour au berceau [15e ordre]. Sur le movement des Berceuses [0:03:25.42]
16. La Visionnaire [25e ordre]. Gravement et marqué [0:03:37.08]
17. La Logiviére [5e ordre] [0:04:15.64]
18. Les Juméles [12e ordre] [0:05:01.01]
19. Les Chérubins ou l'aimable Lazure [20e ordre]. Légèrement [0:03:05.57]
Jacques Duphly
20. La Pothouïn (Quatrième Livre de pièces pour clavecin) [0:05:19.72]

Exact Audio Copy V1.0 beta 3 from 29. August 2011

EAC extraction logfile from 9. December 2014, 20:24

Alexandre Tharaud / Rameau, J.S.Bach, Couperin - Piano Works - Alexandre Tharaud (Disc 3)

Used drive : TSSTcorpCDDVDW SH-222BB Adapter: 2 ID: 1

Read mode : Secure
Utilize accurate stream : Yes
Defeat audio cache : Yes
Make use of C2 pointers : No

Read offset correction : 6
Overread into Lead-In and Lead-Out : No
Fill up missing offset samples with silence : Yes
Delete leading and trailing silent blocks : No
Null samples used in CRC calculations : Yes
Used interface : Native Win32 interface for Win NT & 2000

Used output format : User Defined Encoder
Selected bitrate : 896 kBit/s
Quality : High
Add ID3 tag : No
Command line compressor : C:\Program Files\Exact Audio Copy\FLAC\FLAC.EXE
Additional command line options : -8 -V -T "TITLE=%title%" -T "ARTIST=%artist%" -T "ALBUMARTIST=%albumartist%" -T "ALBUM=%albumtitle%" -T "DATE=%year%" -T "TRACKNUMBER=%tracknr%" -T "TRACKTOTAL=%numtracks%" -T "GENRE=%genre%" -T "COMMENT=%comment%" -T "PERFORMER=%albuminterpret%" -T "COMPOSER=%composer%" %source% -o %dest%


TOC of the extracted CD

Track | Start | Length | Start sector | End sector
––––––––––––––––––––––––––––-
1 | 0:00.00 | 1:40.26 | 0 | 7525
2 | 1:40.26 | 2:27.71 | 7526 | 18621
3 | 4:08.22 | 3:54.04 | 18622 | 36175
4 | 8:02.26 | 2:16.00 | 36176 | 46375
5 | 10:18.26 | 4:10.46 | 46376 | 65171
6 | 14:28.72 | 2:13.29 | 65172 | 75175
7 | 16:42.26 | 3:46.69 | 75176 | 92194
8 | 20:29.20 | 2:24.60 | 92195 | 103054
9 | 22:54.05 | 2:48.66 | 103055 | 115720
10 | 25:42.71 | 1:44.48 | 115721 | 123568
11 | 27:27.44 | 5:43.31 | 123569 | 149324
12 | 33:11.00 | 2:19.66 | 149325 | 159815
13 | 35:30.66 | 2:25.05 | 159816 | 170695
14 | 37:55.71 | 2:34.22 | 170696 | 182267
15 | 40:30.18 | 3:25.42 | 182268 | 197684
16 | 43:55.60 | 3:37.08 | 197685 | 213967
17 | 47:32.68 | 4:15.64 | 213968 | 233156
18 | 51:48.57 | 5:01.01 | 233157 | 255732
19 | 56:49.58 | 3:05.57 | 255733 | 269664
20 | 59:55.40 | 5:19.72 | 269665 | 293661


Range status and errors

Selected range

Filename G:\Ripped general\[7614] Rameau, J.S.Bach, Couperin – Piano Works – Alexandre Tharaud\cd3\Rameau, J.S.Bach, Couperin - Piano Works - Alexandre Tharaud (Disc 3).wav

Peak level 98.8 %
Extraction speed 6.6 X
Range quality 100.0 %
Test CRC 37D70F86
Copy CRC 37D70F86
Copy OK

No errors occurred


AccurateRip summary

Track 1 accurately ripped (confidence 20) [F465EC00] (AR v2)
Track 2 accurately ripped (confidence 20) [8B690E02] (AR v2)
Track 3 accurately ripped (confidence 20) [42C187C7] (AR v2)
Track 4 accurately ripped (confidence 20) [D38147A7] (AR v2)
Track 5 accurately ripped (confidence 20) [6BFEA304] (AR v2)
Track 6 accurately ripped (confidence 20) [0E9D428E] (AR v2)
Track 7 accurately ripped (confidence 20) [C66C7E31] (AR v2)
Track 8 accurately ripped (confidence 20) [0A55CDC0] (AR v2)
Track 9 accurately ripped (confidence 20) [F1B461FF] (AR v2)
Track 10 accurately ripped (confidence 20) [30E173F9] (AR v2)
Track 11 accurately ripped (confidence 20) [4D9F7DD8] (AR v2)
Track 12 accurately ripped (confidence 20) [EB71C5C6] (AR v2)
Track 13 accurately ripped (confidence 20) [87F91D99] (AR v2)
Track 14 accurately ripped (confidence 20) [71765877] (AR v2)
Track 15 accurately ripped (confidence 20) [7525DBB7] (AR v2)
Track 16 accurately ripped (confidence 20) [B39EBECF] (AR v2)
Track 17 accurately ripped (confidence 19) [BC064018] (AR v2)
Track 18 accurately ripped (confidence 19) [2A625615] (AR v2)
Track 19 accurately ripped (confidence 20) [F44CC16A] (AR v2)
Track 20 accurately ripped (confidence 18) [E79CA300] (AR v2)

All tracks accurately ripped

End of status report

==== Log checksum 884C2A17C3627103CF8069476838952661BAEBA4B8DD5915E6ED22B505F5DDFB ====

[CUETools log; Date: 04.04.2017 17:28:23; Version: 2.1.5]
[CTDB TOCID: KtRn1FDzR0Z8vYj6LRfwlj_agIA-] found.
Track | CTDB Status
1 | (106/106) Accurately ripped
2 | (105/106) Accurately ripped
3 | (105/106) Accurately ripped
4 | (105/106) Accurately ripped
5 | (105/106) Accurately ripped
6 | (105/106) Accurately ripped
7 | (105/106) Accurately ripped
8 | (105/106) Accurately ripped
9 | (105/106) Accurately ripped
10 | (104/106) Accurately ripped
11 | (105/106) Accurately ripped
12 | (105/106) Accurately ripped
13 | (105/106) Accurately ripped
14 | (105/106) Accurately ripped
15 | (105/106) Accurately ripped
16 | (104/106) Accurately ripped
17 | (104/106) Accurately ripped
18 | (105/106) Accurately ripped
19 | (104/106) Accurately ripped
20 | (104/106) Accurately ripped
[AccurateRip ID: 002adedb-0280325e-f80f4b14] found.
Track [ CRC | V2 ] Status
01 [f850f597|f465ec00] (002+029/154) Accurately ripped
02 [dd9db6e5|8b690e02] (002+029/154) Accurately ripped
03 [89ce86f1|42c187c7] (002+029/153) Accurately ripped
04 [96f72621|d38147a7] (002+029/152) Accurately ripped
05 [ae71ef31|6bfea304] (002+029/152) Accurately ripped
06 [c9283049|0e9d428e] (002+029/152) Accurately ripped
07 [cbde62a0|c66c7e31] (002+029/151) Accurately ripped
08 [45d44429|0a55cdc0] (002+029/152) Accurately ripped
09 [ee50cab7|f1b461ff] (002+029/153) Accurately ripped
10 [61d829bd|30e173f9] (002+029/153) Accurately ripped
11 [29814b67|4d9f7dd8] (002+029/153) Accurately ripped
12 [9ac4a3b9|eb71c5c6] (002+029/153) Accurately ripped
13 [7fe618bd|87f91d99] (002+029/153) Accurately ripped
14 [9525352d|71765877] (002+029/153) Accurately ripped
15 [a8a9ee46|7525dbb7] (002+029/151) Accurately ripped
16 [2b8b57cd|b39ebecf] (002+029/152) Accurately ripped
17 [bc0189d3|bc064018] (002+028/150) Accurately ripped
18 [c345f049|2a625615] (002+028/150) Accurately ripped
19 [5ca96596|f44cc16a] (002+029/152) Accurately ripped
20 [8bf39987|e79ca300] (002+027/146) Accurately ripped
Offsetted by 86:
01 [2fc6f364] (049/154) Accurately ripped
02 [d6e3b0f5] (049/154) Accurately ripped
03 [ac52f8b6] (049/153) Accurately ripped
04 [8b8771f1] (049/152) Accurately ripped
05 [374fbbac] (049/152) Accurately ripped
06 [d1502e61] (049/152) Accurately ripped
07 [fb72ec09] (047/151) Accurately ripped
08 [64120380] (049/152) Accurately ripped
09 [d4c69092] (049/153) Accurately ripped
10 [26779769] (049/153) Accurately ripped
11 [8202b590] (049/153) Accurately ripped
12 [09e92fc4] (049/153) Accurately ripped
13 [c5a0b39f] (049/153) Accurately ripped
14 [17090a27] (049/153) Accurately ripped
15 [f255c114] (047/151) Accurately ripped
16 [1a6a86fb] (048/152) Accurately ripped
17 [bf1cd98a] (048/150) Accurately ripped
18 [380dc35c] (048/150) Accurately ripped
19 [b9d68294] (048/152) Accurately ripped
20 [529147ef] (044/146) Accurately ripped
Offsetted by 116:
01 [a3f16d6c] (000/154) No match (V2 was not tested)
02 [8b5f0c38] (000/154) No match (V2 was not tested)
03 [c221edd3] (000/153) No match (V2 was not tested)
04 [3044814d] (000/152) No match (V2 was not tested)
05 [fe9fa985] (000/152) No match (V2 was not tested)
06 [f192f045] (000/152) No match (V2 was not tested)
07 [7ec4744a] (000/151) No match (V2 was not tested)
08 [c953489a] (000/152) No match (V2 was not tested)
09 [61aa2ba2] (000/153) No match (V2 was not tested)
10 [20bef85b] (000/153) No match (V2 was not tested)
11 [bc645240] (000/153) No match (V2 was not tested)
12 [6c81656e] (000/153) No match (V2 was not tested)
13 [597b599c] (000/153) No match (V2 was not tested)
14 [82f95a0d] (000/153) No match (V2 was not tested)
15 [55bca458] (000/151) No match (V2 was not tested)
16 [c689fb13] (000/152) No match (V2 was not tested)
17 [8bccd176] (000/150) No match (V2 was not tested)
18 [d83ee47b] (000/150) No match (V2 was not tested)
19 [6df81fdb] (000/152) No match (V2 was not tested)
20 [b9d3c6bc] (000/146) No match (V2 was not tested)

Track Peak [ CRC32 ] [W/O NULL] [ LOG ]
– 98,8 [37D70F86] [2E31F615] CRC32
01 67,7 [0295D83B] [A4859896]
02 84,9 [009DB232] [BD30C54E]
03 50,2 [D1592067] [726D80E8]
04 76,4 [C7EB13A0] [37D03962]
05 37,6 [5C5D95F8] [10D2C394]
06 79,4 [21E5EB31] [F686D310]
07 48,0 [EB854CCA] [4214D3B6]
08 98,8 [13FEFC28] [FC42D4F4]
09 48,1 [AFD05285] [7BF3C022]
10 98,8 [E708D4A7] [59B65FDB]
11 98,8 [D7E0FCCF] [C167F0DC]
12 59,0 [8C2E3FFE] [FBC6C93B]
13 60,7 [01171029] [23B357AD]
14 98,8 [6FBEF925] [BC9FCAA7]
15 48,9 [15A5D028] [8B434A6E]
16 82,0 [46C71904] [111CBAD5]
17 67,4 [D4A4B2D9] [E972C9F5]
18 54,3 [B101398B] [FAC47C3B]
19 98,8 [A392178B] [BC65D41B]
20 85,8 [7D6A45AD] [5A41A942]

Performers:
Alexandre Tharaud - piano

Thanks to the Original ripper (unknown)!

Download: