Subcategories

Alexandre Desplat - The Imitation Game: Original Motion Picture Soundtrack (2014)

Posted By: Designol
Alexandre Desplat - The Imitation Game: Original Motion Picture Soundtrack (2014)

Alexandre Desplat - The Imitation Game: Original Motion Picture Soundtrack (2014)
EAC | FLAC | Tracks (Cue&Log) ~ 252 Mb (incl 5%) | Mp3 (CBR320) ~ 124 Mb (incl 5%) | Scans ~ 126 Mb
Genre: Soundtrack, Score | Label: Sony Classical | # 88875012122 | Time: 00:51:29

Composer Alexandre Desplat is one of the most highly sought after composers in Hollywood. He s been nominated for five Academy Awards, six Golden Globes, winning for his score for The Painted Veil, and has two Grammy nominations. He is best known for his contemplative style that does not attempt to respond on a point-by-point basis to the action onscreen, but rather sets its own complimentary mood. Desplat has composed the scores for many recent blockbusters including "The King's Speech," "The Queen," "The Curious Case of Benjamin Button," "The Monuments Men," "Syriana," "Zero Dark Thirty," "Argo," "Harry Potter and the Deathly Hallows" Parts 1 & 2, "The Girl with the Pearl Earring" and "Fantastic Mr. Fox."

"The Imitation Game" is based on the real life story of legendary English cryptanalyst and mathematician Alan Turing. The film portrays the nail-biting race against time by Turing and his brilliant team of code-breakers at Britain's top-secret Government Code and Cypher School at Bletchley Park, during the darkest days of World War II. Starring Golden Globe® nominee and Emmy winner Benedict Cumberbatch and Oscar and Golden Globe nominee Keira Knightley along with Matthew Goode ("The Good Wife," "Stoker") and Emmy nominee Charles Dance ("Game of Thrones").

Alexandre Desplat is one of my favorite composers currently working, and this is one of his finest scores to date. I would not be surprised at all if his score for "The Imitation Game" lands Desplat yet another Oscar nomination in what has turned out to be a very prolific and diverse career. It's been a great year for movie soundtracks – along with "The Theory of Everything" and "Interstellar", this is one of the year's best.

My favorite tracks are the more emotional ones - although I have yet to see the film, the soundtrack indicates that it should be a very moving story. "The Imitation Game" and "Alan Turing's Legacy" are perfect bookends to the album. Also very impressive are the tracks that accompany what I would assume to be the enigma/code breaking sequences. I am referring to tracks like "Enigma" and "Decrypting". Desplat is quite masterful here when it comes to building the sense of mystery and suspense.

Review by JMM, Amazon.com
Alexandre Desplat - The Imitation Game: Original Motion Picture Soundtrack (2014)

Alexandre Desplat Biography
Alexandre Desplat Website
Alexandre Desplat at Wiki

Film at IMDB
Film at Wiki

Tracklist:

01. The Imitation Game (02:38)
02. Enigma (02:52)
03. Alan (02:57)
04. U-Boats (02:13)
05. Carrots and Peas (02:20)
06. Mission (01:37)
07. Crosswords (02:53)
08. Night Research (01:40)
09. Joan (01:47)
10. Alone with Numbers (03:00)
11. The Machine Christopher (01:57)
12. Running (03:01)
13. The Headmaster (02:29)
14. Decrypting (02:02)
15. A Different Equation (02:57)
16. Becoming a Spy (04:11)
17. The Apple (02:21)
18. Farewell to Christopher (02:42)
19. End of War (02:09)
20. Because of You (01:36)
21. Alan Turing's Legacy (01:56)


Exact Audio Copy V1.0 beta 3 from 29. August 2011

EAC extraction logfile from 2. March 2015, 1:42

Alexandre Desplat / The Imitation Game

Used drive : PLEXTOR CD-R PX-230A Adapter: 2 ID: 0

Read mode : Secure
Utilize accurate stream : Yes
Defeat audio cache : Yes
Make use of C2 pointers : No

Read offset correction : 738
Overread into Lead-In and Lead-Out : No
Fill up missing offset samples with silence : Yes
Delete leading and trailing silent blocks : No
Null samples used in CRC calculations : Yes
Used interface : Native Win32 interface for Win NT & 2000
Gap handling : Appended to previous track

Used output format : User Defined Encoder
Selected bitrate : 768 kBit/s
Quality : High
Add ID3 tag : No
Command line compressor : C:\Program Files (x86)\Exact Audio Copy\FLAC\FLAC.EXE
Additional command line options : -6 -V -T "ARTIST=%artist%" -T "TITLE=%title%" -T "ALBUM=%albumtitle%" -T "DATE=%year%" -T "TRACKNUMBER=%tracknr%" -T "GENRE=%genre%" -T "COMMENT=%comment%" -T "ALBUMARTIST=%albuminterpret%" -T "COMPOSER=%composer%" -T "DISCNUMBER=%cdnumber%" -T "TOTALDISCS=%totalcds%" -T "TOTALTRACKS=%numtracks%" %source% -o %dest%


TOC of the extracted CD

Track | Start | Length | Start sector | End sector
––––––––––––––––––––––––––––-
1 | 0:00.00 | 2:38.23 | 0 | 11872
2 | 2:38.23 | 2:52.08 | 11873 | 24780
3 | 5:30.31 | 2:57.61 | 24781 | 38116
4 | 8:28.17 | 2:13.62 | 38117 | 48153
5 | 10:42.04 | 2:20.06 | 48154 | 58659
6 | 13:02.10 | 1:37.53 | 58660 | 65987
7 | 14:39.63 | 2:53.29 | 65988 | 78991
8 | 17:33.17 | 1:40.44 | 78992 | 86535
9 | 19:13.61 | 1:47.26 | 86536 | 94586
10 | 21:01.12 | 3:00.21 | 94587 | 108107
11 | 24:01.33 | 1:57.74 | 108108 | 116956
12 | 25:59.32 | 3:01.62 | 116957 | 130593
13 | 29:01.19 | 2:29.60 | 130594 | 141828
14 | 31:31.04 | 2:02.05 | 141829 | 150983
15 | 33:33.09 | 2:57.46 | 150984 | 164304
16 | 36:30.55 | 4:11.43 | 164305 | 183172
17 | 40:42.23 | 2:21.63 | 183173 | 193810
18 | 43:04.11 | 2:42.09 | 193811 | 205969
19 | 45:46.20 | 2:09.09 | 205970 | 215653
20 | 47:55.29 | 1:36.68 | 215654 | 222921
21 | 49:32.22 | 1:56.39 | 222922 | 231660


Track 1

Filename C:\Music\01 - Alexandre Desplat - The Imitation Game.wav

Pre-gap length 0:00:02.00

Peak level 97.0 %
Extraction speed 4.8 X
Track quality 100.0 %
Test CRC EA08FD43
Copy CRC EA08FD43
Accurately ripped (confidence 5) [757554F7] (AR v2)
Copy OK

Track 2

Filename C:\Music\02 - Alexandre Desplat - Enigma.wav

Pre-gap length 0:00:01.21

Peak level 96.7 %
Extraction speed 5.1 X
Track quality 100.0 %
Test CRC 03015070
Copy CRC 03015070
Accurately ripped (confidence 5) [62DE5BD2] (AR v2)
Copy OK

Track 3

Filename C:\Music\03 - Alexandre Desplat - Alan.wav

Pre-gap length 0:00:01.25

Peak level 96.7 %
Extraction speed 5.2 X
Track quality 100.0 %
Test CRC 2E08EEC0
Copy CRC 2E08EEC0
Accurately ripped (confidence 5) [5543CC5D] (AR v2)
Copy OK

Track 4

Filename C:\Music\04 - Alexandre Desplat - U-Boats.wav

Pre-gap length 0:00:00.32

Peak level 97.4 %
Extraction speed 4.9 X
Track quality 100.0 %
Test CRC C9602D0E
Copy CRC C9602D0E
Accurately ripped (confidence 5) [DBAFEFF9] (AR v2)
Copy OK

Track 5

Filename C:\Music\05 - Alexandre Desplat - Carrots and Peas.wav

Pre-gap length 0:00:01.13

Peak level 96.7 %
Extraction speed 4.1 X
Track quality 99.9 %
Test CRC B13E9625
Copy CRC B13E9625
Accurately ripped (confidence 5) [2A7EB6EB] (AR v2)
Copy OK

Track 6

Filename C:\Music\06 - Alexandre Desplat - Mission.wav

Pre-gap length 0:00:00.54

Peak level 96.9 %
Extraction speed 4.5 X
Track quality 100.0 %
Test CRC 7312C34E
Copy CRC 7312C34E
Accurately ripped (confidence 5) [E3914E75] (AR v2)
Copy OK

Track 7

Filename C:\Music\07 - Alexandre Desplat - Crosswords.wav

Pre-gap length 0:00:00.60

Peak level 97.1 %
Extraction speed 5.1 X
Track quality 100.0 %
Test CRC 2F71A8DF
Copy CRC 2F71A8DF
Accurately ripped (confidence 5) [F6440D1C] (AR v2)
Copy OK

Track 8

Filename C:\Music\08 - Alexandre Desplat - Night Research.wav

Pre-gap length 0:00:00.48

Peak level 78.0 %
Extraction speed 3.7 X
Track quality 99.8 %
Test CRC 8A6C26BD
Copy CRC 8A6C26BD
Accurately ripped (confidence 5) [1803597B] (AR v2)
Copy OK

Track 9

Filename C:\Music\09 - Alexandre Desplat - Joan.wav

Pre-gap length 0:00:00.54

Peak level 96.7 %
Extraction speed 4.7 X
Track quality 100.0 %
Test CRC A014FE8E
Copy CRC A014FE8E
Accurately ripped (confidence 5) [F16E75FD] (AR v2)
Copy OK

Track 10

Filename C:\Music\10 - Alexandre Desplat - Alone with Numbers.wav

Pre-gap length 0:00:01.38

Peak level 88.2 %
Extraction speed 4.5 X
Track quality 99.9 %
Test CRC 9513AF2A
Copy CRC 9513AF2A
Accurately ripped (confidence 5) [7DBF09A8] (AR v2)
Copy OK

Track 11

Filename C:\Music\11 - Alexandre Desplat - The Machine Christopher.wav

Pre-gap length 0:00:02.01

Peak level 97.1 %
Extraction speed 4.7 X
Track quality 100.0 %
Test CRC 97033A90
Copy CRC 97033A90
Accurately ripped (confidence 5) [8A036246] (AR v2)
Copy OK

Track 12

Filename C:\Music\12 - Alexandre Desplat - Running.wav

Pre-gap length 0:00:00.48

Peak level 97.3 %
Extraction speed 5.2 X
Track quality 100.0 %
Test CRC CBDA21AE
Copy CRC CBDA21AE
Accurately ripped (confidence 5) [CE0F6C3D] (AR v2)
Copy OK

Track 13

Filename C:\Music\13 - Alexandre Desplat - The Headmaster.wav

Pre-gap length 0:00:00.34

Peak level 54.6 %
Extraction speed 5.0 X
Track quality 100.0 %
Test CRC B9AFF640
Copy CRC B9AFF640
Accurately ripped (confidence 5) [52153212] (AR v2)
Copy OK

Track 14

Filename C:\Music\14 - Alexandre Desplat - Decrypting.wav

Pre-gap length 0:00:02.10

Peak level 97.8 %
Extraction speed 4.8 X
Track quality 100.0 %
Test CRC 1224DFCD
Copy CRC 1224DFCD
Accurately ripped (confidence 5) [33E3A7CC] (AR v2)
Copy OK

Track 15

Filename C:\Music\15 - Alexandre Desplat - A Different Equation.wav

Pre-gap length 0:00:00.65

Peak level 73.3 %
Extraction speed 4.3 X
Track quality 99.9 %
Test CRC 4ACD956C
Copy CRC 4ACD956C
Accurately ripped (confidence 5) [13C51D1A] (AR v2)
Copy OK

Track 16

Filename C:\Music\16 - Alexandre Desplat - Becoming a Spy.wav

Pre-gap length 0:00:02.58

Peak level 88.8 %
Extraction speed 5.4 X
Track quality 100.0 %
Test CRC C8BCF981
Copy CRC C8BCF981
Accurately ripped (confidence 5) [140F28BC] (AR v2)
Copy OK

Track 17

Filename C:\Music\17 - Alexandre Desplat - The Apple.wav

Pre-gap length 0:00:02.60

Peak level 92.7 %
Extraction speed 4.9 X
Track quality 100.0 %
Test CRC 480E2F6B
Copy CRC 480E2F6B
Accurately ripped (confidence 5) [85C92F2A] (AR v2)
Copy OK

Track 18

Filename C:\Music\18 - Alexandre Desplat - Farewell to Christopher.wav

Pre-gap length 0:00:01.00

Peak level 97.0 %
Extraction speed 5.0 X
Track quality 100.0 %
Test CRC 6A199728
Copy CRC 6A199728
Accurately ripped (confidence 5) [7AEBA3C4] (AR v2)
Copy OK

Track 19

Filename C:\Music\19 - Alexandre Desplat - End of War.wav

Pre-gap length 0:00:01.09

Peak level 96.9 %
Extraction speed 3.9 X
Track quality 99.9 %
Test CRC A68F75E5
Copy CRC A68F75E5
Accurately ripped (confidence 5) [47930E60] (AR v2)
Copy OK

Track 20

Filename C:\Music\20 - Alexandre Desplat - Because of You.wav

Pre-gap length 0:00:01.27

Peak level 49.8 %
Extraction speed 3.5 X
Track quality 99.8 %
Test CRC 4BC726E7
Copy CRC 4BC726E7
Accurately ripped (confidence 5) [3FA11D4B] (AR v2)
Copy OK

Track 21

Filename C:\Music\21 - Alexandre Desplat - Alan Turing's Legacy.wav

Pre-gap length 0:00:00.56

Peak level 97.3 %
Extraction speed 3.6 X
Track quality 99.9 %
Test CRC 2403EB5B
Copy CRC 2403EB5B
Accurately ripped (confidence 5) [4F721522] (AR v2)
Copy OK


All tracks accurately ripped

No errors occurred

End of status report

==== Log checksum D2C3D5B133C9470AF00CFE3C1BF61EFCC02A91B14E845887B63010AE2DB498B1 ====

foobar2000 1.2 / Dynamic Range Meter 1.1.1
log date: 2015-03-10 21:13:56

––––––––––––––––––––––––––––––––––––––––
Analyzed: Alexandre Desplat / The Imitation Game
––––––––––––––––––––––––––––––––––––––––

DR Peak RMS Duration Track
––––––––––––––––––––––––––––––––––––––––
DR7 -0.26 dB -10.80 dB 2:38 01-The Imitation Game
DR14 -0.29 dB -18.66 dB 2:52 02-Enigma
DR9 -0.29 dB -13.73 dB 2:58 03-Alan
DR8 -0.23 dB -12.45 dB 2:14 04-U-Boats
DR12 -0.29 dB -17.35 dB 2:20 05-Carrots and Peas
DR8 -0.27 dB -12.14 dB 1:38 06-Mission
DR6 -0.25 dB -9.11 dB 2:53 07-Crosswords
DR13 -2.15 dB -21.42 dB 1:41 08-Night Research
DR13 -0.29 dB -16.64 dB 1:47 09-Joan
DR10 -1.09 dB -16.38 dB 3:00 10-Alone with Numbers
DR8 -0.26 dB -10.93 dB 1:58 11-The Machine Christopher
DR10 -0.24 dB -14.24 dB 3:02 12-Running
DR11 -5.25 dB -19.45 dB 2:30 13-The Headmaster
DR9 -0.19 dB -12.66 dB 2:02 14-Decrypting
DR12 -2.69 dB -19.95 dB 2:58 15-A Different Equation
DR12 -1.03 dB -18.86 dB 4:12 16-Becoming a Spy
DR10 -0.66 dB -16.11 dB 2:22 17-The Apple
DR10 -0.26 dB -15.10 dB 2:42 18-Farewell to Christopher
DR7 -0.27 dB -12.42 dB 2:09 19-End of War
DR9 -6.05 dB -21.09 dB 1:37 20-Because of You
DR7 -0.24 dB -11.27 dB 1:57 21-Alan Turing's Legacy
––––––––––––––––––––––––––––––––––––––––

Number of tracks: 21
Official DR value: DR10

Samplerate: 44100 Hz
Channels: 2
Bits per sample: 16
Bitrate: 756 kbps
Codec: FLAC
================================================================================

Alexandre Desplat - The Imitation Game: Original Motion Picture Soundtrack (2014)

Alexandre Desplat - The Imitation Game: Original Motion Picture Soundtrack (2014)

All thanks to original releaser - Filex777

More Alexandre Desplat soundtracks