Subcategories

Alice Cooper - Billion Dollar Babies (1973) {1990, Japan 1st Press}

Posted By: popsakov
Alice Cooper - Billion Dollar Babies (1973) {1990, Japan 1st Press}

Alice Cooper - Billion Dollar Babies (1973) {1990, Japan 1st Press}
EAC Rip | WavPack (Img) + Cue + Log ~ 252 Mb | MP3 CBR320 ~ 104 Mb
Covers Included (JPG, 300 dpi) | RAR 5% Recovery
Hard Rock, Glam Rock, Art Rock, Classic Rock | Warner-Pioneer Corporation #WPCP-3491

With Billion Dollar Babies, Alice Cooper refined the raw grit of their earlier work in favor of a slightly more polished sound (courtesy of super-producer Bob Ezrin), resulting in a mega-hit album that reached the top of the U.S. album charts. Song for song, Billion Dollar Babies is probably the original Alice Cooper group's finest and strongest. Such tracks as "Hello Hooray," the lethal stomp of the title track, the defiant "Elected" (a rewrite of an earlier song, "Reflected"), and the poison-laced pop candy of "No More Mr. Nice Guy" remain among Cooper's greatest achievements. Also included are a pair of perennial concert standards – the disturbing necrophilia ditty "I Love the Dead" and the chilling macabre of "Sick Things" – as well as such strong, lesser-known selections as "Raped and Freezin'," "Unfinished Sweet," and perhaps Cooper's most overlooked gem, "Generation Landslide." Nothing seemed like it could stop this great hard rock band from overtaking the universe, but tensions between the members behind the scenes would force the stellar original AC band to split up after just one more album. Not only is Billion Dollar Babies one of Cooper's very best; it remains one of rock's all-time, quintessential classics.
~ Greg Prato, All Music

***************

Alice Cooper - Billion Dollar Babies (1973) {1990, Japan 1st Press}

Alice Cooper - Billion Dollar Babies (1973) {1990, Japan 1st Press}

Track List:

01. Hello Hooray [0:04:16.00]
02. Raped And Freezin' [0:03:19.60]
03. Elected [0:04:05.52]
04. Billion Dollar Babies [0:03:42.73]
05. Unfinished Sweet [0:06:18.40]
06. No More Mr. Nice Guy [0:03:06.60]
07. Generation Landslide [0:04:31.22]
08. Sick Things [0:04:18.48]
09. Mary Ann [0:02:20.52]
10. I Love The Dead [0:05:09.20]

Personnel:
Alice Cooper - vocals, harmonica
Glen Buxton - guitar
Michael Bruce - rhythm guitar, keyboards, backing vocals
Dennis Dunaway - bass, backing vocals
Neal Smith - drums, backing vocals
Steve «Deacon» Hunter - guitar, pedal steel on «Hello Hurray»
Mick Mashbir - guitar
Dick Wagner - guitar
Bob Dolin - keyboards
David Libert - backing vocals
Bob Ezrin - keyboards
Donovan - vocals on the song «Billion Dollar Babies»

Exact Audio Copy V1.1 from 23. June 2015

EAC extraction logfile from 8. January 2016, 16:56

Alice Cooper / Billion Dollar Babies [WPCP-3491]

Used drive : _NEC DVD_RW ND-2500A Adapter: 4 ID: 0

Read mode : Secure
Utilize accurate stream : Yes
Defeat audio cache : Yes
Make use of C2 pointers : No

Read offset correction : 48
Overread into Lead-In and Lead-Out : No
Fill up missing offset samples with silence : Yes
Delete leading and trailing silent blocks : No
Null samples used in CRC calculations : Yes
Used interface : Installed external ASPI interface

Used output format : User Defined Encoder
Selected bitrate : 128 kBit/s
Quality : High
Add ID3 tag : No
Command line compressor : C:\Program Files (x86)\Exact Audio Copy\wavpack-4.60.1\wavpack.exe
Additional command line options : -hm -w "Year=%year%" -w "Genre=%genre%" %source% %dest%


TOC of the extracted CD

Track | Start | Length | Start sector | End sector
––––––––––––––––––––––––––––-
1 | 0:00.00 | 4:16.00 | 0 | 19199
2 | 4:16.00 | 3:19.60 | 19200 | 34184
3 | 7:35.60 | 4:05.52 | 34185 | 52611
4 | 11:41.37 | 3:42.73 | 52612 | 69334
5 | 15:24.35 | 6:18.40 | 69335 | 97724
6 | 21:43.00 | 3:06.60 | 97725 | 111734
7 | 24:49.60 | 4:31.22 | 111735 | 132081
8 | 29:21.07 | 4:18.48 | 132082 | 151479
9 | 33:39.55 | 2:20.52 | 151480 | 162031
10 | 36:00.32 | 5:09.20 | 162032 | 185226


Range status and errors

Selected range

Filename G:\Rips by Alder\Alice Cooper - Billion Dollar Babies [WPCP-3491].wav

Peak level 100.0 %
Extraction speed 1.8 X
Range quality 100.0 %
Test CRC 25E0065B
Copy CRC 25E0065B
Copy OK

No errors occurred


AccurateRip summary

Track 1 accurately ripped (confidence 4) [0E66E69E] (AR v2)
Track 2 accurately ripped (confidence 4) [05D134CE] (AR v2)
Track 3 accurately ripped (confidence 4) [7D12E83D] (AR v2)
Track 4 accurately ripped (confidence 4) [DAF6CFFA] (AR v2)
Track 5 accurately ripped (confidence 4) [9D16F939] (AR v2)
Track 6 accurately ripped (confidence 4) [FA102F80] (AR v2)
Track 7 accurately ripped (confidence 4) [83E487D9] (AR v2)
Track 8 accurately ripped (confidence 4) [AF616A65] (AR v2)
Track 9 accurately ripped (confidence 4) [E2942276] (AR v2)
Track 10 accurately ripped (confidence 4) [491676FC] (AR v2)

All tracks accurately ripped

End of status report

–– CUETools DB Plugin V2.1.6

[CTDB TOCID: R9VQNYZmoWSIZzoP3KJk08jqp8k-] found
Submit result: R9VQNYZmoWSIZzoP3KJk08jqp8k- has been confirmed
Track | CTDB Status
1 | (11/11) Accurately ripped
2 | (11/11) Accurately ripped
3 | (11/11) Accurately ripped
4 | (11/11) Accurately ripped
5 | (11/11) Accurately ripped
6 | (11/11) Accurately ripped
7 | (11/11) Accurately ripped
8 | (11/11) Accurately ripped
9 | (11/11) Accurately ripped
10 | (11/11) Accurately ripped


==== Log checksum 28AACDE6EDB043FEB5810CE35012F862ED0F7245AC202EBEC8DBFF0DF53098D4 ====

foobar2000 1.3.16 / Dynamic Range Meter 1.1.1
log date: 2018-04-06 17:16:58

––––––––––––––––––––––––––––––––––––––––
Analyzed: Alice Cooper / Billion Dollar Babies [WPCP-3491]
––––––––––––––––––––––––––––––––––––––––

DR Peak RMS Duration Track
––––––––––––––––––––––––––––––––––––––––
DR11 -2.16 dB -14.90 dB 4:16 01-Hello Hooray
DR11 -1.00 dB -13.69 dB 3:20 02-Raped And Freezin'
DR10 -1.74 dB -14.55 dB 4:06 03-Elected
DR11 -1.12 dB -13.78 dB 3:43 04-Billion Dollar Babies
DR11 -1.19 dB -14.85 dB 6:19 05-Unfinished Sweet
DR10 -1.46 dB -14.04 dB 3:07 06-No More Mr. Nice Guy
DR12 0.00 dB -14.75 dB 4:31 07-Generation Landslide
DR11 -1.76 dB -15.57 dB 4:19 08-Sick Things
DR11 -3.68 dB -18.40 dB 2:21 09-Mary Ann
DR11 0.00 dB -14.39 dB 5:09 10-I Love The Dead
––––––––––––––––––––––––––––––––––––––––

Number of tracks: 10
Official DR value: DR11

Samplerate: 44100 Hz
Channels: 2
Bits per sample: 16
Bitrate: 799 kbps
Codec: WavPack
================================================================================

[CUETools log; Date: 06.04.2018 17:17:06; Version: 2.1.6]
[CTDB TOCID: R9VQNYZmoWSIZzoP3KJk08jqp8k-] found.
Track | CTDB Status
1 | (15/15) Accurately ripped
2 | (15/15) Accurately ripped
3 | (15/15) Accurately ripped
4 | (15/15) Accurately ripped
5 | (15/15) Accurately ripped
6 | (15/15) Accurately ripped
7 | (15/15) Accurately ripped
8 | (15/15) Accurately ripped
9 | (15/15) Accurately ripped
10 | (15/15) Accurately ripped
[AccurateRip ID: 000f7f3d-007c45ef-7509a50a] found.
Track [ CRC | V2 ] Status
01 [a31ccf99|0e66e69e] (0+6/6) Accurately ripped
02 [0098fecb|05d134ce] (0+6/6) Accurately ripped
03 [b03f44f3|7d12e83d] (0+6/6) Accurately ripped
04 [b68e8dae|daf6cffa] (0+6/6) Accurately ripped
05 [f37c01aa|9d16f939] (0+6/6) Accurately ripped
06 [c7023a2c|fa102f80] (0+6/6) Accurately ripped
07 [3e7dc11d|83e487d9] (0+6/6) Accurately ripped
08 [800359ac|af616a65] (0+6/6) Accurately ripped
09 [fee746b8|e2942276] (0+6/6) Accurately ripped
10 [7badb565|491676fc] (0+6/6) Accurately ripped

Track Peak [ CRC32 ] [W/O NULL] [ LOG ]
– 100,0 [25E0065B] [5F64A5DC] CRC32
01 77,9 [A4B07846] [EAF9C7FA]
02 89,0 [3D93CEA2] [56111A18]
03 81,8 [2267CC78] [C38C5CE7]
04 87,9 [FCE33B7A] [CCBF25D9]
05 87,1 [C981EEB7] [E52A3B63]
06 84,5 [0B971342] [745B72B5]
07 100,0 [8F73E4FE] [0D01A171]
08 81,6 [7A3E6B00] [6755DF46]
09 65,4 [9C1AD793] [CDFB68B1]
10 100,0 [387B681B] [00B4F461]

Alice Cooper - Billion Dollar Babies (1973) {1990, Japan 1st Press}

All thanks go to Alder

>>> My Blog <<<

Download from icerbox.com: