Subcategories

Alice Cooper - Brutal Planet (2000) {Japan 1st Press}

Posted By: popsakov
Alice Cooper - Brutal Planet (2000) {Japan 1st Press}

Alice Cooper - Brutal Planet (2000) {Japan 1st Press}
EAC Rip | WavPack (Img) + Cue + Log ~ 404 Mb | MP3 CBR320 ~ 131 Mb
Covers Included (JPG, 300 dpi) | RAR 5% Recovery
Hard Rock / Alternative Rock / Industrial Metal / Heavy Metal / Glam
Eagle Records / Polydor K.K. #POCP-7492

For the Alice Cooper fans who feel his output was spotty before and after the 1989 classic Trash on Epic, Brutal Planet is a cause to rejoice. It is a solid hard rock offering. Cooper is in great voice, and he sounds mean and spirited. The title track would be a blessing on radio today. It has great bottom, sizzling guitars, and wonderful backing vocalists. The most impressive thing about this album is Cooper's lyrics. "Sanctuary" could be Lou Reed meets Deep Purple in their heyday. Back in 1987 Cooper performed with an unruly band all over the map. It was very uncomfortable and a far cry from his heyday of "I'm 18" and "Under My Wheels": guitars too loud, and an artist obviously struggling with his personal demons.

This disc rocks hard with hooks galore and is delivered with the intensity of a Mike Tyson punch, double entendre fully intended. "Wicked Young Men" continues the thump thump brigade of this fine album. Cooper is now being a bad boy with sophisticated lyrics. "I am a vicious young man" sounds like the soundtrack to A Clockwork Orange II: the aforementioned street lingo of Reed and Springsteen turned up a notch. "I've got every kind of chemical pumping through my head/I read Mein Kempf daily just to keep my hatred fed/I never ever sleep, I just lay in my bed/dreaming of the day when everyone is dead."

Cooper is ready to exterminate everyone and everything. And though listeners who love Alice Cooper know it's all tongue in cheek, the bigger picture is that a known artist has created a very studied, very calculated, and very electric compact disc. It works on so many levels, and how many listeners had written Cooper off? There may be no song here that will brand itself into the consciousness as "School's Out" or "Elected" did, but those were different times. This is more powerful than most rap. It is direct. It is hard hitting. It is Alice Cooper at his most absolute sinister. Burt Reynolds said that "nothing plays as good as an old Stradivarius" and Alice Cooper proves that saying true. He has created a splash of cold water that could rip radio wide open if given the chance. In "Blow Me a Kiss," Alice sings "blow me away… I'm in my room… I'm Dr. Doom… I'm not me, I'm someone else." Where has Cooper been hiding these lyrics all these years?
~ Joe Viglione, All Music

***************

Alice Cooper - Brutal Planet (2000) {Japan 1st Press}

Track List:

01. brutal planet [0:04:40.57]
02. wicked young man [0:03:50.03]
03. sanctuary [0:04:00.07]
04. blow me a kiss [0:03:18.53]
05. eat some more [0:04:36.60]
06. pick up the bones [0:05:14.47]
07. pessi-mystic [0:04:56.28]
08. gimme [0:04:46.45]
09. it's the little things [0:04:11.65]
10. take it like a woman [0:04:12.47]
11. cold machines [0:04:14.30]
12. can't sleep, clowns will eat me [0:04:09.28]

Personnel:
Alice Cooper – Vocals
Ryan Roxie – Guitar
Phil X – Guitar
Eric Singer – Drums
Bob Marlette – Bass, Keyboards

Exact Audio Copy V1.1 from 23. June 2015

EAC extraction logfile from 13. August 2016, 11:44

Alice Cooper / Brutal Planet [POCP-7492]

Used drive : HL-DT-STBD-RE BH10LS38 Adapter: 1 ID: 1

Read mode : Secure
Utilize accurate stream : Yes
Defeat audio cache : Yes
Make use of C2 pointers : No

Read offset correction : 667
Overread into Lead-In and Lead-Out : No
Fill up missing offset samples with silence : Yes
Delete leading and trailing silent blocks : No
Null samples used in CRC calculations : Yes
Used interface : Installed external ASPI interface

Used output format : User Defined Encoder
Selected bitrate : 128 kBit/s
Quality : High
Add ID3 tag : No
Command line compressor : C:\Program Files (x86)\Exact Audio Copy\wavpack-4.60.1\wavpack.exe
Additional command line options : -hm -w "Year=%year%" -w "Genre=%genre%" %source% %dest%


TOC of the extracted CD

Track | Start | Length | Start sector | End sector
––––––––––––––––––––––––––––-
1 | 0:00.00 | 4:40.57 | 0 | 21056
2 | 4:40.57 | 3:50.03 | 21057 | 38309
3 | 8:30.60 | 4:00.07 | 38310 | 56316
4 | 12:30.67 | 3:18.53 | 56317 | 71219
5 | 15:49.45 | 4:36.60 | 71220 | 91979
6 | 20:26.30 | 5:14.47 | 91980 | 115576
7 | 25:41.02 | 4:56.28 | 115577 | 137804
8 | 30:37.30 | 4:46.45 | 137805 | 159299
9 | 35:24.00 | 4:11.65 | 159300 | 178189
10 | 39:35.65 | 4:12.47 | 178190 | 197136
11 | 43:48.37 | 4:14.30 | 197137 | 216216
12 | 48:02.67 | 4:09.28 | 216217 | 234919


Range status and errors

Selected range

Filename G:\Rips by Alder\Alice Cooper - Brutal Planet [POCP-7492].wav

Peak level 99.8 %
Extraction speed 7.6 X
Range quality 100.0 %
Test CRC C0385259
Copy CRC C0385259
Copy OK

No errors occurred


AccurateRip summary

Track 1 cannot be verified as accurate (confidence 6) [4B6511AB], AccurateRip returned [B5E1D7D3] (AR v2)
Track 2 cannot be verified as accurate (confidence 6) [AD44DE63], AccurateRip returned [089592DF] (AR v2)
Track 3 cannot be verified as accurate (confidence 6) [EEBE90BB], AccurateRip returned [F5FB2D90] (AR v2)
Track 4 cannot be verified as accurate (confidence 6) [99C2540C], AccurateRip returned [E2336851] (AR v2)
Track 5 cannot be verified as accurate (confidence 6) [AE86CD3E], AccurateRip returned [19ED109B] (AR v2)
Track 6 cannot be verified as accurate (confidence 6) [E5A0061D], AccurateRip returned [710BE780] (AR v2)
Track 7 cannot be verified as accurate (confidence 6) [0DBA7035], AccurateRip returned [2A53B16B] (AR v2)
Track 8 cannot be verified as accurate (confidence 6) [BB588182], AccurateRip returned [58B7258E] (AR v2)
Track 9 cannot be verified as accurate (confidence 6) [284B2B9F], AccurateRip returned [16DE3B74] (AR v2)
Track 10 cannot be verified as accurate (confidence 6) [50A5D8B2], AccurateRip returned [455F649A] (AR v2)
Track 11 cannot be verified as accurate (confidence 6) [F9D7273A], AccurateRip returned [1BD15DA3] (AR v2)
Track 12 cannot be verified as accurate (confidence 6) [0FB1971E], AccurateRip returned [4C9D4F97] (AR v2)

No tracks could be verified as accurate
You may have a different pressing from the one(s) in the database

End of status report

–– CUETools DB Plugin V2.1.6

[CTDB TOCID: lemk_oAzKzhS_wp_ilnpMovrqNg-] found
Submit result: lemk_oAzKzhS_wp_ilnpMovrqNg- has been confirmed
Track | CTDB Status
1 | (15/15) Accurately ripped
2 | (15/15) Accurately ripped
3 | (15/15) Accurately ripped
4 | (15/15) Accurately ripped
5 | (15/15) Accurately ripped
6 | (15/15) Accurately ripped
7 | (15/15) Accurately ripped
8 | (15/15) Accurately ripped
9 | (15/15) Accurately ripped
10 | (15/15) Accurately ripped
11 | (15/15) Accurately ripped
12 | (15/15) Accurately ripped


==== Log checksum 10FA6761AE3EE0373B71BFA0D79EAADA5D7F481B795F0BA2CCF55B248CBEC527 ====

foobar2000 1.3.16 / Dynamic Range Meter 1.1.1
log date: 2018-04-07 13:29:17

––––––––––––––––––––––––––––––––––––––––
Analyzed: Alice Cooper / Brutal Planet [POCP-7492]
––––––––––––––––––––––––––––––––––––––––

DR Peak RMS Duration Track
––––––––––––––––––––––––––––––––––––––––
DR7 -0.01 dB -7.85 dB 4:41 01-brutal planet
DR7 -0.01 dB -8.16 dB 3:50 02-wicked young man
DR7 -0.01 dB -7.53 dB 4:00 03-sanctuary
DR7 -0.01 dB -8.13 dB 3:19 04-blow me a kiss
DR6 -0.01 dB -6.75 dB 4:37 05-eat some more
DR6 -0.01 dB -8.95 dB 5:15 06-pick up the bones
DR7 -0.01 dB -9.52 dB 4:56 07-pessi-mystic
DR7 -0.01 dB -7.82 dB 4:47 08-gimme
DR6 -0.01 dB -7.07 dB 4:12 09-it's the little things
DR7 -0.01 dB -9.06 dB 4:13 10-take it like a woman
DR7 -0.01 dB -7.41 dB 4:14 11-cold machines
DR6 -0.01 dB -7.21 dB 4:09 12-can't sleep, clowns will eat me
––––––––––––––––––––––––––––––––––––––––

Number of tracks: 12
Official DR value: DR7

Samplerate: 44100 Hz
Channels: 2
Bits per sample: 16
Bitrate: 1016 kbps
Codec: WavPack
================================================================================

[CUETools log; Date: 07.04.2018 13:29:35; Version: 2.1.6]
[CTDB TOCID: lemk_oAzKzhS_wp_ilnpMovrqNg-] found.
Track | CTDB Status
1 | (25/25) Accurately ripped
2 | (25/25) Accurately ripped
3 | (25/25) Accurately ripped
4 | (25/25) Accurately ripped
5 | (25/25) Accurately ripped
6 | (25/25) Accurately ripped
7 | (25/25) Accurately ripped
8 | (25/25) Accurately ripped
9 | (25/25) Accurately ripped
10 | (25/25) Accurately ripped
11 | (25/25) Accurately ripped
12 | (25/25) Accurately ripped
[AccurateRip ID: 001729ce-00d9334b-a10c3c0c] found.
Track [ CRC | V2 ] Status
01 [3db96f47|4b6511ab] (00+00/10) No match
02 [59986c0e|ad44de63] (00+00/10) No match
03 [dfd84dc7|eebe90bb] (00+00/10) No match
04 [fa0f7ee5|99c2540c] (00+00/10) No match
05 [dfb60e66|ae86cd3e] (00+00/10) No match
06 [6d3f4927|e5a0061d] (00+00/10) No match
07 [3b7f929a|0dba7035] (00+00/10) No match
08 [8e4755a9|bb588182] (00+00/10) No match
09 [4dab297f|284b2b9f] (00+00/10) No match
10 [926f1fa4|50a5d8b2] (00+00/10) No match
11 [16572cd3|f9d7273a] (00+00/10) No match
12 [249d2030|0fb1971e] (00+00/10) No match
Offsetted by -176:
01 [dfc811d4] (02/10) Accurately ripped
02 [b72a44e3] (02/10) Accurately ripped
03 [035ef38d] (02/10) Accurately ripped
04 [57630538] (02/10) Accurately ripped
05 [42680c6a] (02/10) Accurately ripped
06 [f924568a] (02/10) Accurately ripped
07 [5c1282b4] (02/10) Accurately ripped
08 [030f63fe] (02/10) Accurately ripped
09 [3e51f4dd] (02/10) Accurately ripped
10 [acd2fcb5] (02/10) Accurately ripped
11 [1d86b382] (02/10) Accurately ripped
12 [27deccb1] (02/10) Accurately ripped
Offsetted by 488:
01 [76e1c84e] (00/10) No match (V2 was not tested)
02 [636a5783] (00/10) No match (V2 was not tested)
03 [ac1e3702] (00/10) No match (V2 was not tested)
04 [2ae0a66a] (00/10) No match (V2 was not tested)
05 [bfa13535] (00/10) No match (V2 was not tested)
06 [9fb4557b] (00/10) No match (V2 was not tested)
07 [11be2aa9] (00/10) No match (V2 was not tested)
08 [405b6a66] (00/10) No match (V2 was not tested)
09 [2d8d91a6] (00/10) No match (V2 was not tested)
10 [030b85dd] (00/10) No match (V2 was not tested)
11 [8a8d2282] (00/10) No match (V2 was not tested)
12 [088b997a] (00/10) No match (V2 was not tested)
Offsetted by 1155:
01 [efb44f4f] (00/10) No match (V2 was not tested)
02 [717d601b] (00/10) No match (V2 was not tested)
03 [71d487db] (00/10) No match (V2 was not tested)
04 [04c6671e] (00/10) No match (V2 was not tested)
05 [b6356626] (00/10) No match (V2 was not tested)
06 [fabd9250] (00/10) No match (V2 was not tested)
07 [ceef849a] (00/10) No match (V2 was not tested)
08 [e3c1fff1] (00/10) No match (V2 was not tested)
09 [4ffe2a4e] (00/10) No match (V2 was not tested)
10 [53d799a2] (00/10) No match (V2 was not tested)
11 [5f92839c] (00/10) No match (V2 was not tested)
12 [941ee12f] (00/10) No match (V2 was not tested)

Track Peak [ CRC32 ] [W/O NULL] [ LOG ]
– 99,8 [C0385259] [F1278415] CRC32
01 99,8 [CD7B1BB3] [A6BB613F]
02 99,8 [97DD9228] [C3093451]
03 99,8 [FEF00205] [D68A3FCF]
04 99,8 [88C339E5] [81755C74]
05 99,8 [3142965D] [7FB99E7D]
06 99,8 [E468DF2C] [6EF1FC33]
07 99,8 [226896CC] [4BE3A90F]
08 99,8 [A5825BD5] [E68DAE54]
09 99,8 [290DB9C9] [25E2B8E0]
10 99,8 [B51CAED0] [B8A563DD]
11 99,8 [C40ECE80] [78105F3F]
12 99,8 [3EDEBC89] [D1921E28]

Alice Cooper - Brutal Planet (2000) {Japan 1st Press}

All thanks go to Alder

>>> Alice Cooper in my Blog <<<

Download from icerbox.com: