Alice Cooper - From The Inside (1978) {1990, Japan 1st press}

Posted By: popsakov
Alice Cooper - From The Inside (1978) {1990, Japan 1st press}

Alice Cooper - From The Inside (1978) {1990, Japan 1st press}
EAC Rip | FLAC (Img) + Cue + Log ~ 255 Mb | MP3 CBR320 ~ 102 Mb
Scans Included (JPG, 300 dpi) | RAR 5% Recovery
Hard Rock | Warner Bros. Records / Warner-Pioneer Corp. #WPCP-3496

From the Inside is the eleventh studio album by Alice Cooper, released in 1978. It is a concept album about Cooper’s stay in a New York sanitarium due to his alcoholism. Each of the characters in the songs were based on actual people Cooper met in the sanitarium. With this album, he saw the addition of three former members of the Elton John band: lyricist Bernie Taupin, guitarist Davey Johnstone and bassist Dee Murray.
~ Wiki


From the Inside was hardly Alice Cooper's best-selling or most accessible album. An intensely personal account of his recovery from substance abuse, it tends to be one of his most abstract efforts and lacks the immediacy of Billion Dollar Babies, Welcome to My Nightmare, or Alice Cooper Goes to Hell. There are no rock anthems here à la "School's Out" or "18" and no celebrations of shock value like "I Love the Dead" or "The Black Widow." Instead, the singer honestly documents the way he confronted his demons and emerged victorious. Sometimes, this introspective effort is too self-indulgent and intellectual for its own good, but at its best as on "How You Gonna See Me Now", From the Inside is as riveting as it in inspiring.
~ Alex Henderson, All Music

***************

Alice Cooper - From The Inside (1978) {1990, Japan 1st press}

Track List:

01. From The Inside [0:03:54.70]
02. Wish I Were Born In Beverly Hills [0:03:38.28]
03. The Quiet Room [0:03:53.22]
04. Nurse Rozetta [0:04:15.40]
05. Millie And Billie [0:04:15.10]
06. Serious [0:02:44.60]
07. How You Gonna See Me Now [0:03:57.60]
08. For Veronica's Sake [0:03:37.18]
09. Jackknife Johnny [0:03:45.45]
10. Inmates (We're All Crazy) [0:05:04.70]

Personnel:

Alice Cooper - vocals
Dick Wagner - guitar
Davey Johnstone - guitar
Steve Lukather - guitar
Jay Graydon - guitar, synthesizer programming
David Hungate - bass
Dee Murray - bass
Rick Shlosser - drums
Dennis Conway - drums
Michael Ricciardella - drums
Rick Neilsen - guitar

Exact Audio Copy V1.2 from 12. August 2016

EAC extraction logfile from 2. November 2016, 17:59

Alice Cooper / From The Inside [WPCP-3496]

Used drive : HL-DT-STBD-RE BH10LS38 Adapter: 1 ID: 1

Read mode : Secure
Utilize accurate stream : Yes
Defeat audio cache : Yes
Make use of C2 pointers : No

Read offset correction : 667
Overread into Lead-In and Lead-Out : No
Fill up missing offset samples with silence : Yes
Delete leading and trailing silent blocks : No
Null samples used in CRC calculations : Yes
Used interface : Installed external ASPI interface

Used output format : User Defined Encoder
Selected bitrate : 128 kBit/s
Quality : High
Add ID3 tag : No
Command line compressor : C:\Program Files (x86)\Exact Audio Copy\wavpack-4.60.1\wavpack.exe
Additional command line options : -hm -w "Year=%year%" -w "Genre=%genre%" %source% %dest%


TOC of the extracted CD

Track | Start | Length | Start sector | End sector
––––––––––––––––––––––––––––-
1 | 0:00.00 | 3:54.70 | 0 | 17619
2 | 3:54.70 | 3:38.28 | 17620 | 33997
3 | 7:33.23 | 3:53.22 | 33998 | 51494
4 | 11:26.45 | 4:15.40 | 51495 | 70659
5 | 15:42.10 | 4:15.10 | 70660 | 89794
6 | 19:57.20 | 2:44.60 | 89795 | 102154
7 | 22:42.05 | 3:57.60 | 102155 | 119989
8 | 26:39.65 | 3:37.18 | 119990 | 136282
9 | 30:17.08 | 3:45.45 | 136283 | 153202
10 | 34:02.53 | 5:04.70 | 153203 | 176072


Range status and errors

Selected range

Filename G:\Rips by Alder\Alice Cooper - From The Inside [WPCP-3496].wav

Peak level 100.0 %
Extraction speed 7.0 X
Range quality 100.0 %
Test CRC 91DAF2A1
Copy CRC 91DAF2A1
Copy OK

No errors occurred


AccurateRip summary

Track 1 accurately ripped (confidence 5) [F6CF1BD0] (AR v2)
Track 2 accurately ripped (confidence 5) [D17655FF] (AR v2)
Track 3 accurately ripped (confidence 5) [36470A5C] (AR v2)
Track 4 accurately ripped (confidence 5) [9155967D] (AR v2)
Track 5 accurately ripped (confidence 5) [0F251F07] (AR v2)
Track 6 accurately ripped (confidence 5) [6166942C] (AR v2)
Track 7 accurately ripped (confidence 5) [F04BA722] (AR v2)
Track 8 accurately ripped (confidence 5) [25081150] (AR v2)
Track 9 accurately ripped (confidence 4) [6816F951] (AR v2)
Track 10 accurately ripped (confidence 5) [D1EDBF68] (AR v2)

All tracks accurately ripped

End of status report

–– CUETools DB Plugin V2.1.6

[CTDB TOCID: LoCDkiiMHe_gigY0QurVCGdzhMg-] found
Submit result: LoCDkiiMHe_gigY0QurVCGdzhMg- has been confirmed
Track | CTDB Status
1 | (4/4) Accurately ripped
2 | (4/4) Accurately ripped
3 | (4/4) Accurately ripped
4 | (4/4) Accurately ripped
5 | (4/4) Accurately ripped
6 | (4/4) Accurately ripped
7 | (4/4) Accurately ripped
8 | (4/4) Accurately ripped
9 | (4/4) Accurately ripped
10 | (4/4) Accurately ripped


==== Log checksum 350E22760B848C0ED656AC8953DB7E9ED3F0FBD651E9EFDAECE1094D88A826B0 ====

foobar2000 1.2.6 / Dynamic Range Meter 1.1.1
log date: 2016-11-06 11:45:01

––––––––––––––––––––––––––––––––––––––––
Analyzed: Alice Cooper / From The Inside [WPCP-3496]
––––––––––––––––––––––––––––––––––––––––

DR Peak RMS Duration Track
––––––––––––––––––––––––––––––––––––––––
DR14 0.00 dB -15.94 dB 3:55 01-From The Inside
DR13 0.00 dB -15.83 dB 3:38 02-Wish I Were Born In Beverly Hills
DR14 -1.20 dB -18.43 dB 3:53 03-The Quiet Room
DR14 -1.30 dB -17.84 dB 4:16 04-Nurse Rozetta
DR14 -2.35 dB -21.09 dB 4:15 05-Millie And Billie
DR13 -1.02 dB -15.71 dB 2:45 06-Serious
DR14 -0.46 dB -17.58 dB 3:58 07-How You Gonna See Me Now
DR13 -0.82 dB -16.06 dB 3:37 08-For Veronica's Sake
DR13 -0.98 dB -18.05 dB 3:46 09-Jackknife Johnny
DR13 -0.55 dB -17.29 dB 5:05 10-Inmates (We're All Crazy)
––––––––––––––––––––––––––––––––––––––––

Number of tracks: 10
Official DR value: DR13

Samplerate: 44100 Hz
Channels: 2
Bits per sample: 16
Bitrate: 839 kbps
Codec: FLAC
================================================================================

[CUETools log; Date: 06.11.2016 11:44:22; Version: 2.1.5]
[CTDB TOCID: LoCDkiiMHe_gigY0QurVCGdzhMg-] found.
Track | CTDB Status
1 | (5/5) Accurately ripped
2 | (5/5) Accurately ripped
3 | (5/5) Accurately ripped
4 | (5/5) Accurately ripped
5 | (5/5) Accurately ripped
6 | (5/5) Accurately ripped
7 | (5/5) Accurately ripped
8 | (5/5) Accurately ripped
9 | (5/5) Accurately ripped
10 | (5/5) Accurately ripped
[AccurateRip ID: 000e83e8-00740da6-89092b0a] found.
Track [ CRC | V2 ] Status
01 [c59cb89b|f6cf1bd0] (2+5/7) Accurately ripped
02 [2635efb9|d17655ff] (2+5/7) Accurately ripped
03 [ba3fda69|36470a5c] (2+5/7) Accurately ripped
04 [c93ba21a|9155967d] (2+5/7) Accurately ripped
05 [00429b6a|0f251f07] (2+5/7) Accurately ripped
06 [f5d0b45e|6166942c] (2+5/7) Accurately ripped
07 [20d6a556|f04ba722] (2+5/7) Accurately ripped
08 [7d452dab|25081150] (2+5/7) Accurately ripped
09 [5bbaf45d|6816f951] (2+4/6) Accurately ripped
10 [b63facc1|d1edbf68] (2+5/7) Accurately ripped

Track Peak [ CRC32 ] [W/O NULL] [ LOG ]
– 100,0 [91DAF2A1] [827A4C9F] CRC32
01 100,0 [B49F8F22] [AB91A5ED]
02 99,9 [69633612] [2CF163A4]
03 87,1 [F4B776E7] [535B585F]
04 86,0 [29864BF1] [658215A5]
05 76,3 [0D00258D] [AC1414DA]
06 88,8 [83B31398] [318E653D]
07 94,8 [921B629C] [186B8388]
08 90,9 [39043F4D] [193B6084]
09 89,3 [B5F76F11] [30E34CF8]
10 93,8 [8AEE2D3E] [3494FF9D]

Alice Cooper - From The Inside (1978) {1990, Japan 1st press}

Alice Cooper - From The Inside (1978) {1990, Japan 1st press}

See also:
Alice Cooper - Muscle Of Love (1973) {1990, Japan 1st press}
Alice Cooper - Welcome To My Nightmare (1975) {1990, Japan 1st press}

All thanks go to Alder

> Visit my blog <

Download: