Subcategories

Alice Cooper - Trash (1989) {Japan 1st Press}

Posted By: popsakov
Alice Cooper - Trash (1989) {Japan 1st Press}

Alice Cooper - Trash (1989) {Japan 1st Press}
EAC Rip | WavPack (Img) + Cue + Log ~ 374 Mb | MP3 CBR320 ~ 127 Mb
Covers Included (JPG, 300 dpi) | RAR 5% Recovery
Hard Rock, Glam Metal | Epic/Sony Records #25·8P-5278

Trash is the eighteenth studio album released by Alice Cooper in 1989. The album features the single "Poison", Cooper's first top ten hit since his single "You And Me" in 1977 and marked a great success in Cooper's musical career, reaching the Top 20 of various album charts and selling more than two million copies of a studio album.

After Alice's return to the music industry with the successful "The Nightmare Returns" tour, Cooper had sought assistance from Desmond Child to create a comeback album. Trash became one of Cooper's biggest albums, accompanied by music videos for "Poison", "Bed of Nails", "House of Fire", and "Only My Heart Talkin'". A successful year-long worldwide concert tour in support of the album was documented in the home video release Alice Cooper Trashes The World.

The album features many guest performances including Jon Bon Jovi, Stiv Bators, Steven Tyler, as well as singer/guitarist Kane Roberts, who left Cooper's band in 1988. Songwriting contributions were also made by Joan Jett, Diane Warren, Jon Bon Jovi, Richie Sambora, and John McCurry.
~ Wiki

***************

Alice Cooper - Trash (1989) {Japan 1st Press}

Alice Cooper - Trash (1989) {Japan 1st Press}

Track List:

01. Poison [0:04:29.50]
02. Spark In The Dark [0:03:52.25]
03. House Of Fire [0:03:47.20]
04. Why Trust You [0:03:12.62]
05. Only My Heart Talkin' [0:04:46.60]
06. Bed Of Nails [0:04:20.08]
07. This Maniac's In Love With You [0:03:48.05]
08. Trash [0:04:02.65]
09. Hell Is Living Without You [0:04:11.30]
10. I'm Your Gun [0:03:49.62]
11. Cold Ethyl (Live) (Bonus Track) [0:03:11.63]
12. Ballad Of Dwight Fry (Live) (Bonus Track) [0:07:23.47]

Personnel:
Alice Cooper – vocals
John McCurry – guitar
Hugh McDonald – bass
Bobby Chouinard – drums
Alan St. John – keyboards

Additional personnel:
Steven Tyler – vocals (track 5)
Jon Bon Jovi – vocals (track 8)
Kip Winger – vocals (track 10)
Joe Perry – guitar (track 3)
Richie Sambora – guitar (track 9)
Steve Lukather – guitar (track 9)
Kane Roberts – guitar (track 6)
Guy Mann-Dude – guitar (tracks 2, 4, 7)
Tom Hamilton – bass (track 8)
Joey Kramer – drums (track 8)
Mark Frazier – guitar (track 8)
Jack Johnson – guitar (track 8)
Paul Chiten – keyboards
Steve Deutsch – synth programming
Gregg Mangiafico – keyboards & special effects

Exact Audio Copy V1.2 from 12. August 2016

EAC extraction logfile from 17. August 2016, 18:38

Alice Cooper / Trash [25-8P-5278]

Used drive : HL-DT-STBD-RE BH10LS38 Adapter: 1 ID: 1

Read mode : Secure
Utilize accurate stream : Yes
Defeat audio cache : Yes
Make use of C2 pointers : No

Read offset correction : 667
Overread into Lead-In and Lead-Out : No
Fill up missing offset samples with silence : Yes
Delete leading and trailing silent blocks : No
Null samples used in CRC calculations : Yes
Used interface : Installed external ASPI interface

Used output format : User Defined Encoder
Selected bitrate : 128 kBit/s
Quality : High
Add ID3 tag : No
Command line compressor : C:\Program Files (x86)\Exact Audio Copy\wavpack-4.60.1\wavpack.exe
Additional command line options : -hm -w "Year=%year%" -w "Genre=%genre%" %source% %dest%


TOC of the extracted CD

Track | Start | Length | Start sector | End sector
––––––––––––––––––––––––––––-
1 | 0:00.00 | 4:29.50 | 0 | 20224
2 | 4:29.50 | 3:52.25 | 20225 | 37649
3 | 8:22.00 | 3:47.20 | 37650 | 54694
4 | 12:09.20 | 3:12.62 | 54695 | 69156
5 | 15:22.07 | 4:46.60 | 69157 | 90666
6 | 20:08.67 | 4:20.08 | 90667 | 110174
7 | 24:29.00 | 3:48.05 | 110175 | 127279
8 | 28:17.05 | 4:02.65 | 127280 | 145494
9 | 32:19.70 | 4:11.30 | 145495 | 164349
10 | 36:31.25 | 3:49.62 | 164350 | 181586
11 | 40:21.12 | 3:11.63 | 181587 | 195974
12 | 43:33.00 | 7:23.47 | 195975 | 229246


Range status and errors

Selected range

Filename G:\Rips by Alder\Alice Cooper - Trash [25-8P-5278].wav

Peak level 100.0 %
Extraction speed 7.3 X
Range quality 100.0 %
Test CRC C63A8932
Copy CRC C63A8932
Copy OK

No errors occurred


AccurateRip summary

Track 1 accurately ripped (confidence 8) [F6DB3F3E] (AR v2)
Track 2 accurately ripped (confidence 8) [3D12E98B] (AR v2)
Track 3 accurately ripped (confidence 8) [118ED54C] (AR v2)
Track 4 accurately ripped (confidence 8) [D04A373A] (AR v2)
Track 5 accurately ripped (confidence 8) [ECB4083F] (AR v2)
Track 6 accurately ripped (confidence 8) [776FB8A3] (AR v2)
Track 7 accurately ripped (confidence 8) [1726FF0C] (AR v2)
Track 8 accurately ripped (confidence 8) [DFF7DEA4] (AR v2)
Track 9 accurately ripped (confidence 8) [BF52AA27] (AR v2)
Track 10 accurately ripped (confidence 8) [059CD660] (AR v2)
Track 11 accurately ripped (confidence 8) [D457590D] (AR v2)
Track 12 accurately ripped (confidence 8) [B4028EDE] (AR v2)

All tracks accurately ripped

End of status report

–– CUETools DB Plugin V2.1.6

[CTDB TOCID: z6klyyarmNGha6_BvL9mWFi8GaM-] found
Submit result: z6klyyarmNGha6_BvL9mWFi8GaM- has been confirmed
Track | CTDB Status
1 | (10/14) Accurately ripped
2 | (10/14) Accurately ripped
3 | (10/14) Accurately ripped
4 | ( 9/14) Accurately ripped
5 | (10/14) Accurately ripped
6 | (10/14) Accurately ripped
7 | (10/14) Accurately ripped
8 | (10/14) Accurately ripped
9 | (10/14) Accurately ripped
10 | (10/14) Accurately ripped
11 | (10/14) Accurately ripped
12 | (10/14) Accurately ripped


==== Log checksum 7D41991B054F5D7F6C630F96BEF807E1697344E864A18A7A86F9A1160F16153E ====

foobar2000 1.3.16 / Dynamic Range Meter 1.1.1
log date: 2018-04-06 23:15:18

––––––––––––––––––––––––––––––––––––––––
Analyzed: Alice Cooper / Trash [25-8P-5278]
––––––––––––––––––––––––––––––––––––––––

DR Peak RMS Duration Track
––––––––––––––––––––––––––––––––––––––––
DR11 0.00 dB -12.62 dB 4:30 01-Poison
DR11 0.00 dB -11.76 dB 3:52 02-Spark In The Dark
DR11 0.00 dB -12.13 dB 3:47 03-House Of Fire
DR11 0.00 dB -11.97 dB 3:13 04-Why Trust You
DR11 0.00 dB -13.24 dB 4:47 05-Only My Heart Talkin'
DR10 0.00 dB -11.71 dB 4:20 06-Bed Of Nails
DR10 0.00 dB -11.85 dB 3:48 07-This Maniac's In Love With You
DR10 0.00 dB -11.76 dB 4:03 08-Trash
DR10 0.00 dB -11.86 dB 4:11 09-Hell Is Living Without You
DR9 0.00 dB -10.61 dB 3:50 10-I'm Your Gun
DR11 0.00 dB -13.17 dB 3:12 11-Cold Ethyl (Live) (Bonus Track)
DR12 0.00 dB -14.33 dB 7:24 12-Ballad Of Dwight Fry (Live) (Bonus Track)
––––––––––––––––––––––––––––––––––––––––

Number of tracks: 12
Official DR value: DR11

Samplerate: 44100 Hz
Channels: 2
Bits per sample: 16
Bitrate: 965 kbps
Codec: WavPack
================================================================================

[CUETools log; Date: 06.04.2018 23:15:34; Version: 2.1.6]
[CTDB TOCID: z6klyyarmNGha6_BvL9mWFi8GaM-] found.
Track | CTDB Status
1 | (23/28) Accurately ripped
2 | (23/28) Accurately ripped
3 | (23/28) Accurately ripped
4 | (22/28) Accurately ripped
5 | (23/28) Accurately ripped
6 | (23/28) Accurately ripped
7 | (23/28) Accurately ripped
8 | (23/28) Accurately ripped
9 | (23/28) Accurately ripped
10 | (23/28) Accurately ripped
11 | (23/28) Accurately ripped
12 | (23/28) Accurately ripped
[AccurateRip ID: 0015c447-00cb74fc-900bf00c] found.
Track [ CRC | V2 ] Status
01 [faddd90c|f6db3f3e] (04+10/22) Accurately ripped
02 [a405a88a|3d12e98b] (04+10/22) Accurately ripped
03 [f0ac951d|118ed54c] (04+10/22) Accurately ripped
04 [f54b169b|d04a373a] (04+10/22) Accurately ripped
05 [48d3cc0f|ecb4083f] (04+10/22) Accurately ripped
06 [1dd61d56|776fb8a3] (04+10/22) Accurately ripped
07 [f5fb5d24|1726ff0c] (04+10/22) Accurately ripped
08 [86c72a45|dff7dea4] (04+10/22) Accurately ripped
09 [9fad9184|bf52aa27] (04+10/22) Accurately ripped
10 [76eca372|059cd660] (04+10/22) Accurately ripped
11 [31fee2b0|d457590d] (04+10/22) Accurately ripped
12 [73d53d18|b4028ede] (04+10/22) Accurately ripped
Offsetted by -676:
01 [df5bc0bb] (06/22) Accurately ripped
02 [f5109485] (06/22) Accurately ripped
03 [1d166750] (06/22) Accurately ripped
04 [27afef85] (06/22) Accurately ripped
05 [c4487635] (06/22) Accurately ripped
06 [0065fe31] (06/22) Accurately ripped
07 [039ade37] (06/22) Accurately ripped
08 [98207ea3] (06/22) Accurately ripped
09 [c0df95cb] (06/22) Accurately ripped
10 [aa41cf82] (06/22) Accurately ripped
11 [0446aa8a] (06/22) Accurately ripped
12 [6c9bb92e] (06/22) Accurately ripped
Offsetted by -30:
01 [9fc1a155] (00/22) No match (V2 was not tested)
02 [9dab8b97] (00/22) No match (V2 was not tested)
03 [5173c445] (00/22) No match (V2 was not tested)
04 [0eb2433c] (00/22) No match (V2 was not tested)
05 [45ef9d3f] (00/22) No match (V2 was not tested)
06 [91b2b5e5] (00/22) No match (V2 was not tested)
07 [abc6d8d9] (00/22) No match (V2 was not tested)
08 [aa7ce423] (00/22) No match (V2 was not tested)
09 [226d417c] (00/22) No match (V2 was not tested)
10 [b6b93071] (00/22) No match (V2 was not tested)
11 [88d389ac] (00/22) No match (V2 was not tested)
12 [908bc9ec] (00/22) No match (V2 was not tested)

Track Peak [ CRC32 ] [W/O NULL] [ LOG ]
– 100,0 [C63A8932] [4EFAE7E7] CRC32
01 99,9 [266E5176] [764CFD2F]
02 99,9 [0A0F2224] [18FAD43F]
03 99,9 [14DAC940] [A4B7DD68]
04 99,9 [C0437B6D] [4FD29759]
05 99,9 [BB16366E] [383BDA17]
06 99,9 [2FC85F2E] [E300A32D]
07 99,9 [66E1E694] [F5D232FA]
08 99,9 [2FA8ABF0] [485F8A11]
09 99,9 [A9F73C75] [BA8EB75B]
10 99,9 [C62E47AF] [4BEFCC46]
11 100,0 [0FA6C8A4] [60D81F33]
12 100,0 [091D05E6] [E41893AF]

Alice Cooper - Trash (1989) {Japan 1st Press}

All thanks go to Alder

>>> Alice Cooper in my Blog <<<

Download from icerbox.com: