Subcategories

Alicia Keys - Songs In A Minor (2001) Japanese Edition

Posted By: Designol
Alicia Keys - Songs In A Minor (2001) Japanese Edition

Alicia Keys - Songs In A Minor (2001) Japanese Edition
EAC | FLAC | Tracks (Cue&Log) ~ 520 Mb (incl 5%) | Mp3 (CBR320) ~ 183 Mb (incl 5%) | Scans ~ 64 Mb
Genre: Contemporary R&B, Neo-Soul | Label: J Records | # BVCP-21256 | Time: 01:16:03

Alicia Keys' debut album, Songs in A Minor, made a significant impact upon its release in the summer of 2001, catapulting the young singer/songwriter to the front of the neo-soul pack. Critics and audiences were captivated by a 19-year-old singer whose taste and influences ran back further than her years, encompassing everything from Prince to smooth '70s soul, even a little Billie Holiday. In retrospect, it was the idea of Alicia Keys that was as attractive as the record, since soul fans were hungering for a singer/songwriter who seemed part of the tradition without being as spacy as Macy Gray or as hippie mystic as Erykah Badu while being more reliable than Lauryn Hill. Keys was all that, and she had style to spare – elegant, sexy style accentuated by how she never oversang, giving the music a richer feel. It was rich enough to compensate for some thinness in the writing – though it was a big hit, "Fallin'" doesn't have much body to it – which is a testament to Keys' skills as a musician. And, the fact is, even though there are some slips in the writing, there aren't many, and the whole thing remains a startling assured, successful debut that deserved its immediate acclaim and is already aging nicely.

Review by Stephen Thomas Erlewine, Allmusic.com

Alicia Keys - Songs In A Minor (2001) Japanese Edition



Tracklist:

01. Piano & I (01:52)
02. Girlfriend (03:34)
03. How Come You Don't Call Me (03:57)
04. Fallin' (03:30)
05. Troubles (04:28)
06. Rock Wit U (05:36)
07. A Woman's Worth (05:03)
08. Jane Doe (03:48)
09. Goodbye (04:20)
10. The Life (05:25)
11. Mr. Man (Duet with Jimmy Cozier) (04:09)
12. Never Felt This Way (Interlude) (02:01)
13. Butterflyz (04:08)
14. Why Do I Feel So Sad (04:25)
15. Caged Bird (03:02)
16. Lovin U (03:49)

Bonus Tracks:
17. Rear View Mirror (04:06)
18. Fallin' (Extended Remix featuring Busta Rhymes & Rampage) (04:18)
19. A Woman's Worth (Remix Radio Edit) (04:24)


Exact Audio Copy V1.0 beta 3 from 29. August 2011

EAC extraction logfile from 15. July 2012, 14:35

Alicia Keys / Songs In A Minor

Used drive : PLEXTOR CD-R PREMIUM Adapter: 1 ID: 0

Read mode : Secure
Utilize accurate stream : Yes
Defeat audio cache : Yes
Make use of C2 pointers : No

Read offset correction : 30
Overread into Lead-In and Lead-Out : No
Fill up missing offset samples with silence : Yes
Delete leading and trailing silent blocks : No
Null samples used in CRC calculations : Yes
Used interface : Native Win32 interface for Win NT & 2000
Gap handling : Appended to previous track

Used output format : User Defined Encoder
Selected bitrate : 1024 kBit/s
Quality : High
Add ID3 tag : No
Command line compressor : D:\Program Files\Exact Audio Copy\Flac\flac.exe
Additional command line options : -8 -V -T "ARTIST=%artist%" -T "TITLE=%title%" -T "ALBUM=%albumtitle%" -T "DATE=%year%" -T "TRACKNUMBER=%tracknr%" -T "GENRE=%genre%" -T "PERFORMER=%albuminterpret%" -T "COMPOSER=%composer%" %haslyrics%–tag-from-file=LYRICS="%lyricsfile%"%haslyrics% -T "ALBUMARTIST=%albumartist%" -T "DISCNUMBER=%cdnumber%" -T "TOTALDISCS=%totalcds%" -T "TOTALTRACKS=%numtracks%" -T "COMMENT=%comment%" %source% -o %dest%


TOC of the extracted CD

Track | Start | Length | Start sector | End sector
––––––––––––––––––––––––––––-
1 | 0:00.00 | 1:52.07 | 0 | 8406
2 | 1:52.07 | 3:34.43 | 8407 | 24499
3 | 5:26.50 | 3:57.40 | 24500 | 42314
4 | 9:24.15 | 3:30.15 | 42315 | 58079
5 | 12:54.30 | 4:28.67 | 58080 | 78246
6 | 17:23.22 | 5:36.58 | 78247 | 103504
7 | 23:00.05 | 5:03.15 | 103505 | 126244
8 | 28:03.20 | 3:48.27 | 126245 | 143371
9 | 31:51.47 | 4:20.53 | 143372 | 162924
10 | 36:12.25 | 5:25.15 | 162925 | 187314
11 | 41:37.40 | 4:09.47 | 187315 | 206036
12 | 45:47.12 | 2:01.05 | 206037 | 215116
13 | 47:48.17 | 4:08.25 | 215117 | 233741
14 | 51:56.42 | 4:25.63 | 233742 | 253679
15 | 56:22.30 | 3:02.05 | 253680 | 267334
16 | 59:24.35 | 3:49.40 | 267335 | 284549
17 | 63:14.00 | 4:06.00 | 284550 | 302999
18 | 67:20.00 | 4:18.20 | 303000 | 322369
19 | 71:38.20 | 4:24.55 | 322370 | 342224


Track 1

Filename E:\Alicia Keys - 2001 - Songs In A Minor\01 - Piano & I.wav

Pre-gap length 0:00:02.00

Peak level 98.8 %
Extraction speed 1.5 X
Track quality 100.0 %
Test CRC 41C9167D
Copy CRC 41C9167D
Accurately ripped (confidence 2) [889B70F0] (AR v2)
Copy OK

Track 2

Filename E:\Alicia Keys - 2001 - Songs In A Minor\02 - Girlfriend.wav

Peak level 98.8 %
Extraction speed 1.6 X
Track quality 100.0 %
Test CRC 94D596F5
Copy CRC 94D596F5
Accurately ripped (confidence 2) [A9A108C7] (AR v2)
Copy OK

Track 3

Filename E:\Alicia Keys - 2001 - Songs In A Minor\03 - How Come You Don't Call Me.wav

Peak level 98.8 %
Extraction speed 1.6 X
Track quality 100.0 %
Test CRC 7D8A40BB
Copy CRC 7D8A40BB
Accurately ripped (confidence 2) [DE468DC4] (AR v2)
Copy OK

Track 4

Filename E:\Alicia Keys - 2001 - Songs In A Minor\04 - Fallin'.wav

Peak level 98.8 %
Extraction speed 1.6 X
Track quality 100.0 %
Test CRC 2CCD59E0
Copy CRC 2CCD59E0
Accurately ripped (confidence 2) [A66B5152] (AR v2)
Copy OK

Track 5

Filename E:\Alicia Keys - 2001 - Songs In A Minor\05 - Troubles.wav

Peak level 98.8 %
Extraction speed 1.5 X
Track quality 99.9 %
Test CRC 6F2D6B58
Copy CRC 6F2D6B58
Accurately ripped (confidence 2) [830A01E8] (AR v2)
Copy OK

Track 6

Filename E:\Alicia Keys - 2001 - Songs In A Minor\06 - Rock Wit U.wav

Peak level 98.8 %
Extraction speed 1.7 X
Track quality 100.0 %
Test CRC AD6E3174
Copy CRC AD6E3174
Accurately ripped (confidence 2) [53658A39] (AR v2)
Copy OK

Track 7

Filename E:\Alicia Keys - 2001 - Songs In A Minor\07 - A Woman's Worth.wav

Peak level 98.8 %
Extraction speed 1.7 X
Track quality 100.0 %
Test CRC 51FB6CB2
Copy CRC 51FB6CB2
Accurately ripped (confidence 2) [493983D2] (AR v2)
Copy OK

Track 8

Filename E:\Alicia Keys - 2001 - Songs In A Minor\08 - Jane Doe.wav

Peak level 98.8 %
Extraction speed 1.6 X
Track quality 100.0 %
Test CRC 88BFA61E
Copy CRC 88BFA61E
Accurately ripped (confidence 2) [77F2A22E] (AR v2)
Copy OK

Track 9

Filename E:\Alicia Keys - 2001 - Songs In A Minor\09 - Goodbye.wav

Peak level 98.8 %
Extraction speed 1.7 X
Track quality 100.0 %
Test CRC 4EE165AE
Copy CRC 4EE165AE
Accurately ripped (confidence 2) [237E634C] (AR v2)
Copy OK

Track 10

Filename E:\Alicia Keys - 2001 - Songs In A Minor\10 - The Life.wav

Peak level 98.8 %
Extraction speed 1.7 X
Track quality 100.0 %
Test CRC 0D829CBF
Copy CRC 0D829CBF
Accurately ripped (confidence 2) [563D4BC4] (AR v2)
Copy OK

Track 11

Filename E:\Alicia Keys - 2001 - Songs In A Minor\11 - Mr. Man (Duet with Jimmy Cozier).wav

Peak level 98.5 %
Extraction speed 1.5 X
Track quality 99.9 %
Test CRC 17758605
Copy CRC 17758605
Accurately ripped (confidence 2) [09CE543A] (AR v2)
Copy OK

Track 12

Filename E:\Alicia Keys - 2001 - Songs In A Minor\12 - Never Felt This Way (Interlude).wav

Peak level 98.7 %
Extraction speed 1.5 X
Track quality 100.0 %
Test CRC 0062B1E3
Copy CRC 0062B1E3
Accurately ripped (confidence 2) [4D73A1BD] (AR v2)
Copy OK

Track 13

Filename E:\Alicia Keys - 2001 - Songs In A Minor\13 - Butterflyz.wav

Peak level 97.6 %
Extraction speed 1.5 X
Track quality 99.9 %
Test CRC 5C533F6C
Copy CRC 5C533F6C
Accurately ripped (confidence 2) [D92C8D6E] (AR v2)
Copy OK

Track 14

Filename E:\Alicia Keys - 2001 - Songs In A Minor\14 - Why Do I Feel So Sad.wav

Peak level 98.8 %
Extraction speed 1.7 X
Track quality 100.0 %
Test CRC C48FB42C
Copy CRC C48FB42C
Accurately ripped (confidence 2) [5AE4CCEC] (AR v2)
Copy OK

Track 15

Filename E:\Alicia Keys - 2001 - Songs In A Minor\15 - Caged Bird.wav

Peak level 98.8 %
Extraction speed 1.6 X
Track quality 100.0 %
Test CRC 3A7093E8
Copy CRC 3A7093E8
Cannot be verified as accurate (confidence 6) [F46B210A], AccurateRip returned [5E130288] (AR v2)
Copy OK

Track 16

Filename E:\Alicia Keys - 2001 - Songs In A Minor\16 - Lovin U.wav

Peak level 98.1 %
Extraction speed 1.6 X
Track quality 100.0 %
Test CRC E7BBE229
Copy CRC E7BBE229
Accurately ripped (confidence 2) [EEBB83BD] (AR v2)
Copy OK

Track 17

Filename E:\Alicia Keys - 2001 - Songs In A Minor\17 - Rear View Mirror.wav

Pre-gap length 0:00:00.74

Peak level 86.1 %
Extraction speed 1.5 X
Track quality 99.9 %
Test CRC 90D5BC7D
Copy CRC 90D5BC7D
Accurately ripped (confidence 2) [FA21C668] (AR v2)
Copy OK

Track 18

Filename E:\Alicia Keys - 2001 - Songs In A Minor\18 - Fallin' (Extended Remix featuring Busta Rhymes & Rampage).wav

Pre-gap length 0:00:01.74

Peak level 100.0 %
Extraction speed 1.5 X
Track quality 99.9 %
Test CRC 22F65170
Copy CRC 22F65170
Accurately ripped (confidence 2) [56EE2CFA] (AR v2)
Copy OK

Track 19

Filename E:\Alicia Keys - 2001 - Songs In A Minor\19 - A Woman's Worth (Remix Radio Edit).wav

Pre-gap length 0:00:02.44

Peak level 99.9 %
Extraction speed 1.6 X
Track quality 100.0 %
Test CRC 6E644A1C
Copy CRC 6E644A1C
Accurately ripped (confidence 2) [515C7188] (AR v2)
Copy OK


18 track(s) accurately ripped
1 track(s) could not be verified as accurate

Some tracks could not be verified as accurate

No errors occurred

End of status report

–– CUETools DB Plugin V2.1.3

[CTDB TOCID: zL_hSX04fzAg3sVq.mplNN6hmqg-] found, Submit result: zL_hSX04fzAg3sVq.mplNN6hmqg- has been confirmed
[e483c992] (1/1) Accurately ripped


==== Log checksum 8D99839E9361FEE776208314D5CC770FAFDBF71042BF3886C36B82978E1B7FB9 ====

foobar2000 1.2 / Dynamic Range Meter 1.1.1
log date: 2017-02-15 16:08:04

––––––––––––––––––––––––––––––––––––––––
Analyzed: Alicia Keys / Songs In A Minor
––––––––––––––––––––––––––––––––––––––––

DR Peak RMS Duration Track
––––––––––––––––––––––––––––––––––––––––
DR9 -0.10 dB -12.29 dB 1:52 01-Piano & I
DR7 -0.10 dB -8.62 dB 3:35 02-Girlfriend
DR7 -0.10 dB -9.28 dB 3:58 03-How Come You Don't Call Me
DR7 -0.10 dB -9.97 dB 3:30 04-Fallin'
DR8 -0.10 dB -9.76 dB 4:29 05-Troubles
DR8 -0.10 dB -9.81 dB 5:37 06-Rock Wit U
DR8 -0.10 dB -9.96 dB 5:03 07-A Woman's Worth
DR7 -0.10 dB -9.89 dB 3:48 08-Jane Doe
DR8 -0.10 dB -10.91 dB 4:21 09-Goodbye
DR7 -0.10 dB -8.45 dB 5:25 10-The Life
DR7 -0.12 dB -8.87 dB 4:10 11-Mr. Man (Duet with Jimmy Cozier)
DR13 -0.11 dB -16.91 dB 2:01 12-Never Felt This Way (Interlude)
DR8 -0.20 dB -11.96 dB 4:08 13-Butterflyz
DR8 -0.10 dB -9.50 dB 4:26 14-Why Do I Feel So Sad
DR15 -0.10 dB -19.25 dB 3:02 15-Caged Bird
DR9 -0.16 dB -10.86 dB 3:50 16-Lovin U
DR8 -1.30 dB -11.33 dB 4:06 17-Rear View Mirror
DR7 0.00 dB -8.56 dB 4:18 18-Fallin' (Extended Remix featuring Busta Rhymes & Rampage)
DR8 0.00 dB -9.56 dB 4:25 19-A Woman's Worth (Remix Radio Edit)
––––––––––––––––––––––––––––––––––––––––

Number of tracks: 19
Official DR value: DR8

Samplerate: 44100 Hz
Channels: 2
Bits per sample: 16
Bitrate: 992 kbps
Codec: FLAC
================================================================================

Alicia Keys - Songs In A Minor (2001) Japanese Edition

Alicia Keys - Songs In A Minor (2001) Japanese Edition

All thanks to original releaser

More interesting music in My Blog