Subcategories

Alicia de Larrocha - Enrique Granados: Goyescas (1977) [Re-Up]

Posted By: Designol
Alicia de Larrocha - Enrique Granados: Goyescas (1977) [Re-Up]

Alicia de Larrocha - Enrique Granados: Goyescas (1977)
EAC | FLAC | Tracks (Cue&Log) ~ 211 Mb | Mp3 (CBR320) ~ 146 Mb | Scans included
Genre: Classical | Label: Decca | # 411 958-2 | Time: 00:56:52

Alicia de Larrocha has been playing these works, the greatest in the repertoire of Spanish piano music, all her life – one of her very first recordings, 40 years ago, was of some of the Goyescas, and I had the pleasure of welcoming her first Iberia ten years after that (10/65); and immersed as she was from her earliest childhood in the authentic tradition (her mother, her aunt and she herself were all trained at Granados’s own school, of which she later became director), she has several times been asked to re-record them. She once said, rather wistfully, that she didn’t consider herself a specialist but that Spanish music was what the public constantly demanded of her. One can sympathize with her if she feels inescapably cast in this mould – but then she shouldn’t be so wonderfully persuasive in it!

She employs plenty of subtle rubato but possesses the ability to make it sound as natural as breathing; yet she can also preserve a stimulating tautness of rhythm. In the true sense of that much-misused word, this is classical playing, free from any superimposed striving for effect but responding fully to the music’s sense of colour; and even in the densest of textures she is able to control conflicting tonal levels. Goyescas, which can tempt the unwary into exaggerated ‘expressiveness’, brings forth a wealth of poetic nuance, without losing shape – as for instance in the splendid “El amor y la muerte”. The recorded quality throughout always was good and here emerges as fresh as ever.

Review by Lionel Salter, Gramophone

Alicia de Larrocha - Enrique Granados: Goyescas (1977) [Re-Up]



Alicia de Larrocha - Enrique Granados: Goyescas (1977) [Re-Up]



Recording Location: Decca Studios, West Hampstead, December 1976

Tracklist:

Los majos enamorados - Part I
01. 1. Los requiebros (08:46)
02. 2. Coloquio en la reja (11:19)
03. 3. El fandango de candil (05:34)
04. 4. Quejas, o la maja y el ruiseñor (06:41)
Los majos enamorados - Part II
05. 5. El amor y la muerte (12:20)
06. 6. Epilogo, o Serenata del espectro (07:40)
07. El Pelele (04:30)


Exact Audio Copy V1.1 from 23. June 2015

EAC extraction logfile from 3. November 2016, 9:49

Granados, Enrique / Goyescas - Alicia de Larrocha

Used drive : PLEXTOR CD-R PREMIUM2 Adapter: 5 ID: 1

Read mode : Secure
Utilize accurate stream : Yes
Defeat audio cache : Yes
Make use of C2 pointers : No

Read offset correction : 30
Overread into Lead-In and Lead-Out : Yes
Fill up missing offset samples with silence : Yes
Delete leading and trailing silent blocks : No
Null samples used in CRC calculations : Yes
Used interface : Installed external ASPI interface
Gap handling : Appended to previous track

Used output format : User Defined Encoder
Selected bitrate : 896 kBit/s
Quality : High
Add ID3 tag : No
Command line compressor : C:\Program Files\Exact Audio Copy\Flac\flac.exe
Additional command line options : -6 -V -T "ARTIST=%artist%" -T "TITLE=%title%" -T "ALBUM=%albumtitle%" -T "DATE=%year%" -T "PERFORMER=%albuminterpret%" -T "TRACKNUMBER=%tracknr%" -T "TOTALTRACKS=%numtracks%" -T "GENRE=%genre%" -T "COMPOSER=%composer%" -T "ALBUMARTIST=%albumartist%" -T "ALBUM ARTIST=%albumartist%" -T "COMMENT=EAC Secure Mode, Test & Copy, AccurateRip, FLAC -6" %source%


TOC of the extracted CD

Track | Start | Length | Start sector | End sector
––––––––––––––––––––––––––––-
1 | 0:00.32 | 8:46.28 | 32 | 39509
2 | 8:46.60 | 11:19.27 | 39510 | 90461
3 | 20:06.12 | 5:34.23 | 90462 | 115534
4 | 25:40.35 | 6:41.30 | 115535 | 145639
5 | 32:21.65 | 12:20.57 | 145640 | 201196
6 | 44:42.47 | 7:40.25 | 201197 | 235721
7 | 52:22.72 | 4:30.20 | 235722 | 255991


Track 1

Filename D:\EAC extraction\01 - Part I - 1. Los requiebros.wav

Pre-gap length 0:00:02.32

Peak level 91.8 %
Extraction speed 1.9 X
Track quality 100.0 %
Test CRC 428B5458
Copy CRC 428B5458
Accurately ripped (confidence 19) [5CCD7C1B] (AR v2)
Copy OK

Track 2

Filename D:\EAC extraction\02 - Part I - 2. Coloquio en la reja.wav

Pre-gap length 0:00:03.22

Peak level 90.0 %
Extraction speed 1.9 X
Track quality 100.0 %
Test CRC 02650A12
Copy CRC 02650A12
Accurately ripped (confidence 18) [EA775495] (AR v2)
Copy OK

Track 3

Filename D:\EAC extraction\03 - Part I - 3. El fandango de candil.wav

Pre-gap length 0:00:03.69

Peak level 89.3 %
Extraction speed 1.8 X
Track quality 99.9 %
Test CRC D8F7F608
Copy CRC D8F7F608
Accurately ripped (confidence 19) [1F9F04E8] (AR v2)
Copy OK

Track 4

Filename D:\EAC extraction\04 - Part I - 4. Quejas, o la maja y el ruisenor.wav

Pre-gap length 0:00:03.45

Peak level 86.3 %
Extraction speed 1.8 X
Track quality 99.9 %
Test CRC 8658C1C2
Copy CRC 8658C1C2
Accurately ripped (confidence 19) [045E50D5] (AR v2)
Copy OK

Track 5

Filename D:\EAC extraction\05 - Part II - 5. El amor y la muerte.wav

Pre-gap length 0:00:03.50

Peak level 83.8 %
Extraction speed 1.9 X
Track quality 100.0 %
Test CRC E940B010
Copy CRC E940B010
Accurately ripped (confidence 19) [DB4EC9EC] (AR v2)
Copy OK

Track 6

Filename D:\EAC extraction\06 - Part II - 6. Epilogo, o Serenata del espectro.wav

Pre-gap length 0:00:02.74

Peak level 77.3 %
Extraction speed 1.9 X
Track quality 100.0 %
Test CRC 1AF7CECE
Copy CRC 1AF7CECE
Accurately ripped (confidence 19) [68EB8BA5] (AR v2)
Copy OK

Track 7

Filename D:\EAC extraction\07 - El Pelele.wav

Pre-gap length 0:00:04.07

Peak level 93.8 %
Extraction speed 1.9 X
Track quality 99.9 %
Test CRC 0F8A96EA
Copy CRC 0F8A96EA
Accurately ripped (confidence 19) [5CF130D3] (AR v2)
Copy OK


All tracks accurately ripped

No errors occurred

End of status report

–– CUETools DB Plugin V2.1.6

[CTDB TOCID: lKw5RwaK0tFodo5i15F6jH_O2O0-] found
Submit result: already submitted
Track | CTDB Status
1 | (21/21) Accurately ripped
2 | (21/21) Accurately ripped
3 | (21/21) Accurately ripped
4 | (21/21) Accurately ripped
5 | (21/21) Accurately ripped
6 | (21/21) Accurately ripped
7 | (21/21) Accurately ripped


==== Log checksum 9872C201E58137B831FFCDA3A4044187C60C32C4E2BD887D9D15E26EC3AE63A2 ====

foobar2000 1.2 / Dynamic Range Meter 1.1.1
log date: 2016-11-06 18:15:58

––––––––––––––––––––––––––––––––––––––––
Analyzed: Granados, Enrique / Goyescas - Alicia de Larrocha
––––––––––––––––––––––––––––––––––––––––

DR Peak RMS Duration Track
––––––––––––––––––––––––––––––––––––––––
DR13 -0.74 dB -19.85 dB 8:46 01-Part I - 1. Los requiebros
DR15 -0.91 dB -22.05 dB 11:19 02-Part I - 2. Coloquio en la reja
DR13 -0.98 dB -19.54 dB 5:34 03-Part I - 3. El fandango de candil
DR16 -1.28 dB -25.40 dB 6:41 04-Part I - 4. Quejas, o la maja y el ruiseñor
DR14 -1.53 dB -22.29 dB 12:21 05-Part II - 5. El amor y la muerte
DR14 -2.24 dB -22.83 dB 7:40 06-Part II - 6. Epilogo, o Serenata del espectro
DR12 -0.55 dB -18.56 dB 4:30 07-El Pelele
––––––––––––––––––––––––––––––––––––––––

Number of tracks: 7
Official DR value: DR14

Samplerate: 44100 Hz
Channels: 2
Bits per sample: 16
Bitrate: 544 kbps
Codec: FLAC
================================================================================

Alicia de Larrocha - Enrique Granados: Goyescas (1977) [Re-Up]

Alicia de Larrocha - Enrique Granados: Goyescas (1977) [Re-Up]

All thanks to original releaser - quivive

More interesting music in My Blog