Subcategories
Tags
Language
Tags

Alphaville: Collection (1984 - 2018) [9CD, 2DVD, HDTV]

Posted By: v3122
Alphaville: Collection (1984 - 2018) [9CD, 2DVD, HDTV]

Alphaville: Collection (1984 - 2018)
EAC | Flac(Image) + Cue + Log & MP3 CBR 320Kbps
9CD | Label: Various | ~ 2889 or 1155 Mb | Artwork(jpg) -> 819 Mb
2xDVD-5: PAL 4:3 (704x576) & 16:9 (720x576) VBR | Dolby AC3, 2 ch
HDTV: MPEG4 (H264) 1280x720, 50fps / Dolby AC3 48kHz, 2ch, 448kbps
Electronic / Rock / New Wave / Synth-Pop

Alphaville is a German synth-pop band centered around vocalist Marian Gold (Hartwig Schierbaum), formed in 1982 in Münster. Started out as a trio with Gold backed by synth players Bernhard Lloyd and Frank Mertens.

At the end of '81, Gold and Lloyd (Frank would come in not long afterwards) take part in a concert with 5 other artists, on Nelson Community.
Initially the band name was just Forever Young, however, after a few months they changed the name inspired by Jean-Luc Goddard's film: Alphaville "the city of the future". Which, incidentally, represented even better their whole project.
Due to contracts and agreements with record labels, Alphaville stopped performing live shows after '84, using only play back features at most shows and presentations. Only after 1994 would they performed again without these resources

The band then has a downfall. At Frankfurt Airport, after a live show (the last, until after 1994) Mertens warns that he would leave the band. Ricky Echolette (Wolfgang Neuhaus) joined in his place, in early 1985. The following year they released the single "Dance With Me", which is well received by the public. Soon they released the album "Afternoons in Utopia"

After 3 years they appeared again with the album "The Breathtaking Blue" bringing a totally new concept with regard to sonority, lyrics, instrumentalization and even the media in which the songs were recorded. They practically invented the DVD. The Breathtaking Blue was released in CD+G format.
The production of the album was difficult, Gold would later say "the production saw Alphaville in the horrors of permanent crisis. There was an ongoing war between [the band]. … The furious guitar shrieks during the intro [of lead-off single "Romeos"] being a true indication of the real spirit of the production.

In 1988, a compilation of singles called "The Singles Collection" was released in the USA, with Forever Young, Big in Japan in a remix (not as good as the one of '84), Red Rose and Dance with me, all in 2 versions.

"Prostitute" was Alphaville's first release for five years. It features electronic jazz, new wave music, synthpop, swing music, hip hop, classical ballads and Pink Floyd-like epic electronic music. However, the album's experimental nature and lack of commercial success led the band to return to its synth/dance roots with the following album, Salvation. It was the last Alphaville album with Ricky Echolette.

The good thing about '93, after 10 years away from the stage they decided to play in Beiruth, yes, live!
They did a tour up until and they decided to launch in June of 1997 the album "Salvation", The most revered song was of the album was "Wishful Thinking".

Between 1999 and 2002 the band, in a stage of rest and crativity, released some parallel and old/demo versions of their songs, independent. Experiments and inventions, the projects were the limited and numbered 8CDs "Dreamscapes", the first live album "Stark Naked And Absolutely Live", and the remixed compillation named "Forever Pop".

In 2003 they release the limited and numbered compilation of 4 CDs called "CrazyShow", it is this year that Lloyd leaves the band definitely.

7 years later, Alphaville mysteriously reappeared with the album "Catching Rays On Giant". So, 2010 is marked as the year of Alphaville's return. Now with a new training and a totally refurbished style!

In 2017, they released a new album with even more force, "Strange Attractor" despite having had an extremely difficult production. After the loss of (Martin Lister), who was also part of the production of the album, they released this new album and went on tour!

~ discogs
Alphaville: Collection (1984 - 2018) [9CD, 2DVD, HDTV]

Alphaville: Collection (1984 - 2018):

Alphaville: Collection (1984 - 2018) [9CD, 2DVD, HDTV]

Tracklist CD01. 1984 - Forever Young (DE, WEA, 240 481-2):

01. A Victory Of Love (04:16)
02. Summer In Berlin (04:47)
03. Big In Japan (04:43)
04. To Germany With Love (04:15)
05. Fallen Angel (03:57)
06. Forever Young (03:47)
07. In The Mood (04:33)
08. Sounds Like A Melody (04:45)
09. Lies (03:33)
10. The Jet Set (04:55)

Exact Audio Copy V1.0 beta 6 from 9. April 2015

EAC extraction logfile from 22. August 2015, 15:35

Alphaville / Forever Young (240 481-2)

Used drive : PIONEER DVD-RW DVR-221L Adapter: 1 ID: 1

Read mode : Secure
Utilize accurate stream : Yes
Defeat audio cache : Yes
Make use of C2 pointers : No

Read offset correction : 6
Overread into Lead-In and Lead-Out : No
Fill up missing offset samples with silence : Yes
Delete leading and trailing silent blocks : No
Null samples used in CRC calculations : Yes
Used interface : Native Win32 interface for Win NT & 2000
Gap handling : Appended to previous track

Used output format : User Defined Encoder
Selected bitrate : 1024 kBit/s
Quality : High
Add ID3 tag : Yes
Command line compressor : C:\Program Files (x86)\Exact Audio Copy\FLAC\FLAC.EXE
Additional command line options : -6 -V -T "COMMENT=Ripped by RRC" -T "ARTIST=%artist%" -T "TITLE=%title%" -T "ALBUM=%albumtitle%" -T "DATE=%year%" -T "TRACKNUMBER=%tracknr%" -T "GENRE=%genre%" -T "BAND=%albuminterpret%" -T "ALBUMARTIST=%albuminterpret%" -T "COMPOSER=%composer%" %haslyrics%–tag-from-file=LYRICS="%lyricsfile%"%haslyrics% -T "DISCNUMBER=%cdnumber%" -T "TOTALDISCS=%totalcds%" -T "TOTALTRACKS=%numtracks%" %hascover%–picture="%coverfile%"%hascover% %source%


TOC of the extracted CD

Track | Start | Length | Start sector | End sector
––––––––––––––––––––––––––––-
1 | 0:00.00 | 4:17.00 | 0 | 19274
2 | 4:17.00 | 4:45.45 | 19275 | 40694
3 | 9:02.45 | 4:44.47 | 40695 | 62041
4 | 13:47.17 | 4:15.00 | 62042 | 81166
5 | 18:02.17 | 3:57.38 | 81167 | 98979
6 | 21:59.55 | 3:48.02 | 98980 | 116081
7 | 25:47.57 | 4:32.73 | 116082 | 136554
8 | 30:20.55 | 4:45.00 | 136555 | 157929
9 | 35:05.55 | 3:32.72 | 157930 | 173901
10 | 38:38.52 | 4:56.05 | 173902 | 196106


Track 1

Filename G:\RRC Ripped\01-A Victory of Love.wav

Pre-gap length 0:00:02.00

Peak level 100.0 %
Extraction speed 4.3 X
Track quality 100.0 %
Test CRC 158B026E
Copy CRC 158B026E
Accurately ripped (confidence 30) [607060C1] (AR v2)
Copy OK

Track 2

Filename G:\RRC Ripped\02-Summer in Berlin.wav

Pre-gap length 0:00:02.03

Peak level 80.5 %
Extraction speed 5.0 X
Track quality 100.0 %
Test CRC 0464E017
Copy CRC 0464E017
Accurately ripped (confidence 30) [DDF0A951] (AR v2)
Copy OK

Track 3

Filename G:\RRC Ripped\03-Big in Japan.wav

Peak level 78.2 %
Extraction speed 5.5 X
Track quality 100.0 %
Test CRC 6D23C28E
Copy CRC 6D23C28E
Accurately ripped (confidence 33) [303CE04C] (AR v2)
Copy OK

Track 4

Filename G:\RRC Ripped\04-To Germany With Love.wav

Pre-gap length 0:00:00.60

Peak level 71.1 %
Extraction speed 5.7 X
Track quality 100.0 %
Test CRC EAD307BB
Copy CRC EAD307BB
Accurately ripped (confidence 31) [72AA3DD7] (AR v2)
Copy OK

Track 5

Filename G:\RRC Ripped\05-Fallen Angel.wav

Peak level 81.7 %
Extraction speed 6.1 X
Track quality 100.0 %
Test CRC A97620A3
Copy CRC A97620A3
Accurately ripped (confidence 30) [880FCED8] (AR v2)
Copy OK

Track 6

Filename G:\RRC Ripped\06-Forever Young.wav

Pre-gap length 0:00:02.08

Peak level 77.7 %
Extraction speed 6.3 X
Track quality 100.0 %
Test CRC 0CBCBC18
Copy CRC 0CBCBC18
Accurately ripped (confidence 33) [2C9764C9] (AR v2)
Copy OK

Track 7

Filename G:\RRC Ripped\07-In the Mood.wav

Pre-gap length 0:00:02.50

Peak level 89.4 %
Extraction speed 6.8 X
Track quality 100.0 %
Test CRC AD413C33
Copy CRC AD413C33
Accurately ripped (confidence 31) [8A59E9DC] (AR v2)
Copy OK

Track 8

Filename G:\RRC Ripped\08-Sounds Like a Melody.wav

Pre-gap length 0:00:02.43

Peak level 100.0 %
Extraction speed 7.2 X
Track quality 100.0 %
Test CRC 3A1EFA52
Copy CRC 3A1EFA52
Accurately ripped (confidence 32) [CC8E4B9A] (AR v2)
Copy OK

Track 9

Filename G:\RRC Ripped\09-Lies.wav

Pre-gap length 0:00:01.43

Peak level 84.1 %
Extraction speed 7.2 X
Track quality 100.0 %
Test CRC 23396307
Copy CRC 23396307
Accurately ripped (confidence 31) [81A2FEAE] (AR v2)
Copy OK

Track 10

Filename G:\RRC Ripped\10-The Jet Set.wav

Peak level 83.9 %
Extraction speed 7.8 X
Track quality 100.0 %
Test CRC 0C53507D
Copy CRC 0C53507D
Accurately ripped (confidence 29) [B1C21F8A] (AR v2)
Copy OK


All tracks accurately ripped

No errors occurred

End of status report

–– CUETools DB Plugin V2.1.6

[CTDB TOCID: veMisZ6knczwQWs8F5wGdwf0p7Y-] found
Submit result: already submitted
Track | CTDB Status
1 | (551/562) Accurately ripped
2 | (553/562) Accurately ripped
3 | (551/562) Accurately ripped
4 | (551/562) Accurately ripped
5 | (553/562) Accurately ripped
6 | (551/562) Accurately ripped
7 | (553/562) Accurately ripped
8 | (552/562) Accurately ripped
9 | (550/562) Accurately ripped
10 | (552/562) Accurately ripped


==== Log checksum B4093C6FF58EDDCAB42760A9A2B57D9D05F4AEBE91331802DE098CA9CF64E8D7 ====


[CUETools log; Date: 02.04.2021 12:08:46; Version: 2.1.4]
[AccurateRip ID: 0010856f-0083b33c-770a360a] found.
Track [ CRC | V2 ] Status
01 [94e5a808|607060c1] (042+059/950) Accurately ripped
02 [1cc3ea1a|ddf0a951] (043+059/952) Accurately ripped
03 [de8a1c8e|303ce04c] (042+060/963) Accurately ripped
04 [33e88e8d|72aa3dd7] (043+061/956) Accurately ripped
05 [df99b225|880fced8] (041+060/952) Accurately ripped
06 [9691d9c1|2c9764c9] (040+062/959) Accurately ripped
07 [995958e6|8a59e9dc] (040+061/950) Accurately ripped
08 [f348c852|cc8e4b9a] (041+061/957) Accurately ripped
09 [82593aae|81a2feae] (042+060/948) Accurately ripped
10 [34a38278|b1c21f8a] (038+057/943) Accurately ripped
Offsetted by -2897:
01 [fc429918] (084/950) Accurately ripped
02 [6c5b1e11] (080/952) Accurately ripped
03 [219def30] (084/963) Accurately ripped
04 [00222f3a] (081/956) Accurately ripped
05 [2cdfe5af] (082/952) Accurately ripped
06 [6c036d24] (083/959) Accurately ripped
07 [fd84bf34] (082/950) Accurately ripped
08 [d8f1ee48] (082/957) Accurately ripped
09 [7909452f] (082/948) Accurately ripped
10 [b4db3239] (078/943) Accurately ripped
Offsetted by -2228:
01 [5447dce7] (008/950) Accurately ripped
02 [373d6d79] (009/952) Accurately ripped
03 [55ed5b22] (009/963) Accurately ripped
04 [3e70bd82] (009/956) Accurately ripped
05 [bc41d7ea] (008/952) Accurately ripped
06 [daeeda9d] (009/959) Accurately ripped
07 [8e37fd3f] (009/950) Accurately ripped
08 [e34fae3b] (009/957) Accurately ripped
09 [acd1077f] (009/948) Accurately ripped
10 [dd5283c9] (009/943) Accurately ripped
Offsetted by -1569:
01 [f08ee703] (200/950) Accurately ripped
02 [d1616de2] (200/952) Accurately ripped
03 [c03a8fa6] (200/963) Accurately ripped
04 [8f890aa6] (200/956) Accurately ripped
05 [9923c0c9] (200/952) Accurately ripped
06 [10b57894] (200/959) Accurately ripped
07 [ceee0f0a] (200/950) Accurately ripped
08 [793e40f3] (200/957) Accurately ripped
09 [dc61c065] (200/948) Accurately ripped
10 [bbc163e2] (200/943) Accurately ripped
Offsetted by -2253:
01 [37557a83] (000/950) No match (V2 was not tested)
02 [36dc0421] (000/952) No match (V2 was not tested)
03 [25148d00] (000/963) No match (V2 was not tested)
04 [61ff6b42] (000/956) No match (V2 was not tested)
05 [91a35b70] (000/952) No match (V2 was not tested)
06 [cc12d3d8] (000/959) No match (V2 was not tested)
07 [145e2a51] (000/950) No match (V2 was not tested)
08 [5e4472aa] (000/957) No match (V2 was not tested)
09 [fd5b33dc] (000/948) No match (V2 was not tested)
10 [ce8f6963] (000/943) No match (V2 was not tested)
Offsetted by -1667:
01 [d9d73fcd] (000/950) No match (V2 was not tested)
02 [9b7296d8] (000/952) No match (V2 was not tested)
03 [dca9fa5d] (000/963) No match (V2 was not tested)
04 [c9a9f15c] (000/956) No match (V2 was not tested)
05 [5225a3c8] (000/952) No match (V2 was not tested)
06 [e0b3209a] (000/959) No match (V2 was not tested)
07 [11c1b07b] (000/950) No match (V2 was not tested)
08 [e5e42247] (000/957) No match (V2 was not tested)
09 [a4f0d930] (000/948) No match (V2 was not tested)
10 [2652d7b9] (000/943) No match (V2 was not tested)
Offsetted by -1665:
01 [5a3239ab] (000/950) No match (V2 was not tested)
02 [bc44b617] (000/952) No match (V2 was not tested)
03 [092d8ce5] (000/963) No match (V2 was not tested)
04 [27232f1f] (000/956) No match (V2 was not tested)
05 [bcbec628] (000/952) No match (V2 was not tested)
06 [ec20e3b4] (000/959) No match (V2 was not tested)
07 [a9f501e8] (000/950) No match (V2 was not tested)
08 [0721bee4] (000/957) No match (V2 was not tested)
09 [85c627bc] (000/948) No match (V2 was not tested)
10 [b72e899a] (000/943) No match (V2 was not tested)
Offsetted by -1575:
01 [4d6667fe] (000/950) No match
02 [2555c7ed] (000/952) No match
03 [bf27e2cc] (000/963) No match (V2 was not tested)
04 [5ef8bb05] (000/956) No match
05 [fb19294a] (000/952) No match
06 [ee6c2f46] (000/959) No match (V2 was not tested)
07 [96118722] (000/950) No match
08 [f2717bb2] (000/957) No match
09 [49fa16b8] (000/948) No match
10 [c50be52e] (000/943) No match
Offsetted by -1563:
01 [49b839a6] (000/950) No match (V2 was not tested)
02 [22b32799] (000/952) No match (V2 was not tested)
03 [0cea6413] (002/963) Accurately ripped
04 [c433f449] (002/956) Accurately ripped
05 [0ea22a73] (002/952) Accurately ripped
06 [32fec1e2] (002/959) Accurately ripped
07 [1e6e9e42] (002/950) Accurately ripped
08 [ccab90bb] (000/957) No match (V2 was not tested)
09 [63f74a3b] (000/948) No match (V2 was not tested)
10 [1df63195] (000/943) No match (V2 was not tested)
Offsetted by -1551:
01 [983ca807] (000/950) No match
02 [2d6586a5] (000/952) No match
03 [85ab2e06] (000/963) No match
04 [89d806f8] (000/956) No match (V2 was not tested)
05 [7b6f7444] (000/952) No match
06 [7791547e] (000/959) No match
07 [31afd2a2] (000/950) No match
08 [627120b4] (000/957) No match
09 [6a87c696] (000/948) No match
10 [8c7996b7] (000/943) No match
Offsetted by -1539:
01 [fa909edf] (000/950) No match (V2 was not tested)
02 [2fbe2555] (000/952) No match (V2 was not tested)
03 [082f2bc6] (000/963) No match (V2 was not tested)
04 [000afb14] (000/956) No match
05 [3bef06b4] (000/952) No match (V2 was not tested)
06 [bc23e71a] (000/959) No match (V2 was not tested)
07 [1fb72442] (000/950) No match (V2 was not tested)
08 [af001b55] (000/957) No match (V2 was not tested)
09 [72d0a4a4] (000/948) No match (V2 was not tested)
10 [abf6306b] (000/943) No match (V2 was not tested)
Offsetted by -1238:
01 [a666adf5] (000/950) No match (V2 was not tested)
02 [356b85d0] (000/952) No match (V2 was not tested)
03 [3b3df36b] (000/963) No match (V2 was not tested)
04 [6728772b] (000/956) No match (V2 was not tested)
05 [c3ee016f] (000/952) No match (V2 was not tested)
06 [f42b19e3] (000/959) No match (V2 was not tested)
07 [77e73315] (000/950) No match (V2 was not tested)
08 [380d41be] (000/957) No match (V2 was not tested)
09 [7dd25021] (000/948) No match (V2 was not tested)
10 [f9d8e02d] (000/943) No match (V2 was not tested)
Offsetted by -829:
01 [61e12e7e] (000/950) No match (V2 was not tested)
02 [a40778ec] (000/952) No match (V2 was not tested)
03 [7ffb417c] (000/963) No match (V2 was not tested)
04 [46294597] (000/956) No match (V2 was not tested)
05 [f9672d95] (000/952) No match (V2 was not tested)
06 [95597428] (000/959) No match (V2 was not tested)
07 [be8a0225] (000/950) No match (V2 was not tested)
08 [442cd1c9] (000/957) No match (V2 was not tested)
09 [b244eb3b] (000/948) No match (V2 was not tested)
10 [f3f3726f] (000/943) No match (V2 was not tested)
Offsetted by 16:
01 [aa96d9bb] (000/950) No match
02 [37f5230a] (000/952) No match (V2 was not tested)
03 [b4883686] (000/963) No match (V2 was not tested)
04 [2311b664] (000/956) No match (V2 was not tested)
05 [345cb357] (000/952) No match (V2 was not tested)
06 [f1fff291] (000/959) No match (V2 was not tested)
07 [23607a36] (000/950) No match (V2 was not tested)
08 [d01f32a1] (000/957) No match (V2 was not tested)
09 [4311838b] (000/948) No match (V2 was not tested)
10 [402bb9d8] (000/943) No match (V2 was not tested)

Track Peak [ CRC32 ] [W/O NULL] [ LOG ]
– 100,0 [C4F1DA1B] [A021C880]
01 100,0 [158B026E] [A2F5D29D] CRC32
02 80,5 [0464E017] [6CA5C75D] CRC32
03 78,2 [6D23C28E] [F4385BB4] CRC32
04 71,1 [EAD307BB] [C9AE52F0] CRC32
05 81,7 [A97620A3] [8059F792] CRC32
06 77,7 [0CBCBC18] [63BF9A17] CRC32
07 89,4 [AD413C33] [D0C4A78D] CRC32
08 100,0 [3A1EFA52] [8A37C35D] CRC32
09 84,1 [23396307] [1F47639D] CRC32
10 83,9 [0C53507D] [69CC0C4A] CRC32


Alphaville: Collection (1984 - 2018) [9CD, 2DVD, HDTV]

Tracklist CD02. 1984 - Forever Young (DE, WEA, 240 481-2, Target):

01. A Victory Of Love (04:16)
02. Summer In Berlin (04:47)
03. Big In Japan (04:43)
04. To Germany With Love (04:15)
05. Fallen Angel (03:57)
06. Forever Young (03:47)
07. In The Mood (04:33)
08. Sounds Like A Melody (04:45)
09. Lies (03:33)
10. The Jet Set (04:55)

Exact Audio Copy V1.3 from 2. September 2016

EAC extraction logfile from 1. February 2018, 22:04

Alphaville / Forever Young

Used drive : PIONEER DVD-RW DVR-215 Adapter: 1 ID: 1

Read mode : Secure
Utilize accurate stream : Yes
Defeat audio cache : Yes
Make use of C2 pointers : No

Read offset correction : 48
Overread into Lead-In and Lead-Out : No
Fill up missing offset samples with silence : Yes
Delete leading and trailing silent blocks : No
Null samples used in CRC calculations : Yes
Used interface : Native Win32 interface for Win NT & 2000
Gap handling : Appended to previous track

Used output format : User Defined Encoder
Selected bitrate : 1024 kBit/s
Quality : High
Add ID3 tag : No
Command line compressor : C:\Program Files (x86)\Exact Audio Copy\FLAC\FLAC.EXE
Additional command line options : -6 -V -T "COMMENT=Ripped by RRCLtd" -T "ARTIST=%artist%" -T "TITLE=%title%" -T "ALBUM=%albumtitle%" -T "DATE=%year%" -T "TRACKNUMBER=%tracknr%" -T "GENRE=%genre%" -T "COMMENT=%comment%" -T "BAND=%albuminterpret%" -T "ALBUMARTIST=%albuminterpret%" -T "COMPOSER=%composer%" %haslyrics%–tag-from-file=LYRICS="%lyricsfile%"%haslyrics% -T "DISCNUMBER=%cdnumber%" -T "TOTALDISCS=%totalcds%" -T "TOTALTRACKS=%numtracks%" %hascover%–picture="%coverfile%"%hascover% %source% -o %dest%


TOC of the extracted CD

Track | Start | Length | Start sector | End sector
––––––––––––––––––––––––––––-
1 | 0:00.32 | 4:17.00 | 32 | 19306
2 | 4:17.32 | 4:47.40 | 19307 | 40871
3 | 9:04.72 | 4:42.73 | 40872 | 62094
4 | 13:47.70 | 4:14.72 | 62095 | 81216
5 | 18:02.67 | 3:56.73 | 81217 | 98989
6 | 21:59.65 | 3:48.42 | 98990 | 116131
7 | 25:48.32 | 4:33.00 | 116132 | 136606
8 | 30:21.32 | 4:45.00 | 136607 | 157981
9 | 35:06.32 | 3:33.68 | 157982 | 174024
10 | 38:40.25 | 4:55.20 | 174025 | 196169


Track 1

Filename E:\RRCLtd Rip\01-A Victory Of Love.wav

Pre-gap length 0:00:02.32

Peak level 97.5 %
Extraction speed 4.4 X
Track quality 100.0 %
Test CRC 54A8575D
Copy CRC 54A8575D
Accurately ripped (confidence 56) [33751324] (AR v2)
Copy OK

Track 2

Filename E:\RRCLtd Rip\02-Summer In Berlin.wav

Pre-gap length 0:00:00.12

Peak level 80.5 %
Extraction speed 5.0 X
Track quality 100.0 %
Test CRC 441A7B17
Copy CRC 441A7B17
Accurately ripped (confidence 56) [B3B590D1] (AR v2)
Copy OK

Track 3

Filename E:\RRCLtd Rip\03-Big In Japan.wav

Peak level 78.2 %
Extraction speed 5.5 X
Track quality 100.0 %
Test CRC 1A68F4E9
Copy CRC 1A68F4E9
Accurately ripped (confidence 56) [1C796ACD] (AR v2)
Copy OK

Track 4

Filename E:\RRCLtd Rip\04-To Germany With Love.wav

Pre-gap length 0:00:00.13

Peak level 71.1 %
Extraction speed 5.2 X
Track quality 99.9 %
Test CRC E0B0E0B8
Copy CRC E0B0E0B8
Accurately ripped (confidence 57) [1BB71255] (AR v2)
Copy OK

Track 5

Filename E:\RRCLtd Rip\05-Fallen Angel.wav

Peak level 81.7 %
Extraction speed 6.1 X
Track quality 100.0 %
Test CRC 95D607AE
Copy CRC 95D607AE
Accurately ripped (confidence 57) [05D5D168] (AR v2)
Copy OK

Track 6

Filename E:\RRCLtd Rip\06-Forever Young.wav

Pre-gap length 0:00:01.03

Peak level 77.7 %
Extraction speed 6.3 X
Track quality 100.0 %
Test CRC 0BD33A23
Copy CRC 0BD33A23
Accurately ripped (confidence 58) [DDEA5564] (AR v2)
Copy OK

Track 7

Filename E:\RRCLtd Rip\07-In The Mood.wav

Pre-gap length 0:00:00.47

Peak level 89.4 %
Extraction speed 6.8 X
Track quality 100.0 %
Test CRC 324F538D
Copy CRC 324F538D
Accurately ripped (confidence 57) [7BD1DDF3] (AR v2)
Copy OK

Track 8

Filename E:\RRCLtd Rip\08-Sounds Like a Melody.wav

Pre-gap length 0:00:01.50

Peak level 100.0 %
Extraction speed 7.2 X
Track quality 100.0 %
Test CRC A5A8EBDF
Copy CRC A5A8EBDF
Accurately ripped (confidence 57) [6F7AEEF6] (AR v2)
Copy OK

Track 9

Filename E:\RRCLtd Rip\09-Lies.wav

Pre-gap length 0:00:00.50

Peak level 84.1 %
Extraction speed 7.1 X
Track quality 100.0 %
Test CRC 98F9B5A4
Copy CRC 98F9B5A4
Accurately ripped (confidence 57) [A724353A] (AR v2)
Copy OK

Track 10

Filename E:\RRCLtd Rip\10-The Jet Set.wav

Peak level 83.9 %
Extraction speed 7.7 X
Track quality 100.0 %
Test CRC EFF45434
Copy CRC EFF45434
Accurately ripped (confidence 58) [A794747F] (AR v2)
Copy OK


All tracks accurately ripped

No errors occurred

End of status report

–– CUETools DB Plugin V2.1.6

[CTDB TOCID: ZI4qt3OJpDIxoeS9BCQfsrpWgso-] found
Submit result: ZI4qt3OJpDIxoeS9BCQfsrpWgso- has been confirmed
Track | CTDB Status
1 | (86/90) Accurately ripped
2 | (87/90) Accurately ripped
3 | (88/90) Accurately ripped
4 | (88/90) Accurately ripped
5 | (88/90) Accurately ripped
6 | (90/90) Accurately ripped
7 | (88/90) Accurately ripped
8 | (87/90) Accurately ripped
9 | (88/90) Accurately ripped
10 | (89/90) Accurately ripped


==== Log checksum 450531085E7DADEFF58C358C6C775810E421CC251B1AA1DD1BF0CD23225C8954 ====


[CUETools log; Date: 02.04.2021 12:29:38; Version: 2.1.4]
Pregap length 00:00:32.
[AccurateRip ID: 00108825-0083c40d-750a370a] found.
Track [ CRC | V2 ] Status
01 [d2faf81c|33751324] (050+076/126) Accurately ripped
02 [e84ecd38|b3b590d1] (050+076/126) Accurately ripped
03 [d3f2300c|1c796acd] (050+076/126) Accurately ripped
04 [bc663f9d|1bb71255] (049+077/126) Accurately ripped
05 [a0a1a393|05d5d168] (049+077/126) Accurately ripped
06 [678c3f9c|ddea5564] (050+078/128) Accurately ripped
07 [3dd755d7|7bd1ddf3] (050+077/127) Accurately ripped
08 [066d52f0|6f7aeef6] (050+077/127) Accurately ripped
09 [87f005a3|a724353a] (051+077/128) Accurately ripped
10 [cf990d5e|a794747f] (049+078/127) Accurately ripped

Track Peak [ CRC32 ] [W/O NULL] [ LOG ]
– 100,0 [8789C8AA] [E5CBCC69]
01 97,5 [54A8575D] [5FFFCA1B] CRC32
02 80,5 [441A7B17] [4DCD95D1] CRC32
03 78,2 [1A68F4E9] [B2245A32] CRC32
04 71,1 [E0B0E0B8] [2D0321F7] CRC32
05 81,7 [95D607AE] [C510683F] CRC32
06 77,7 [0BD33A23] [30BD734C] CRC32
07 89,4 [324F538D] [8518D566] CRC32
08 100,0 [A5A8EBDF] [6D43EEC2] CRC32
09 84,1 [98F9B5A4] [515B74DA] CRC32
10 83,9 [EFF45434] [BBF47E5E] CRC32


Alphaville: Collection (1984 - 2018) [9CD, 2DVD, HDTV]

Tracklist CD03. 1984 - Forever Young (Repress 1989) (US, Atlantic, 7 80186-2):

01. A Victory Of Love (04:16)
02. Summer In Berlin (04:47)
03. Big In Japan (04:43)
04. To Germany With Love (04:15)
05. Fallen Angel (03:57)
06. Forever Young (03:47)
07. In The Mood (04:33)
08. Sounds Like A Melody (04:45)
09. Lies (03:33)
10. The Jet Set (04:55)

Exact Audio Copy V1.0 beta 6 from 9. April 2015

EAC extraction logfile from 25. August 2015, 11:20

Alphaville / Forever Young (7 80186-2)

Used drive : YAMAHA CRW-F1E Adapter: 1 ID: 1

Read mode : Secure
Utilize accurate stream : Yes
Defeat audio cache : Yes
Make use of C2 pointers : No

Read offset correction : 733
Overread into Lead-In and Lead-Out : No
Fill up missing offset samples with silence : Yes
Delete leading and trailing silent blocks : No
Null samples used in CRC calculations : Yes
Used interface : Native Win32 interface for Win NT & 2000
Gap handling : Appended to previous track

Used output format : User Defined Encoder
Selected bitrate : 1024 kBit/s
Quality : High
Add ID3 tag : Yes
Command line compressor : C:\Program Files (x86)\Exact Audio Copy\FLAC\FLAC.EXE
Additional command line options : -6 -V -T "COMMENT=Ripped by RRCLtd" -T "ARTIST=%artist%" -T "TITLE=%title%" -T "ALBUM=%albumtitle%" -T "DATE=%year%" -T "TRACKNUMBER=%tracknr%" -T "GENRE=%genre%" -T "BAND=%albuminterpret%" -T "ALBUMARTIST=%albuminterpret%" -T "COMPOSER=%composer%" %haslyrics%–tag-from-file=LYRICS="%lyricsfile%"%haslyrics% -T "DISCNUMBER=%cdnumber%" -T "TOTALDISCS=%totalcds%" -T "TOTALTRACKS=%numtracks%" %hascover%–picture="%coverfile%"%hascover% %source%


TOC of the extracted CD

Track | Start | Length | Start sector | End sector
––––––––––––––––––––––––––––-
1 | 0:00.32 | 4:16.08 | 32 | 19239
2 | 4:16.40 | 4:44.25 | 19240 | 40564
3 | 9:00.65 | 4:46.12 | 40565 | 62026
4 | 13:47.02 | 4:14.70 | 62027 | 81146
5 | 18:01.72 | 3:58.00 | 81147 | 98996
6 | 21:59.72 | 3:47.73 | 98997 | 116094
7 | 25:47.70 | 4:33.00 | 116095 | 136569
8 | 30:20.70 | 4:45.00 | 136570 | 157944
9 | 35:05.70 | 3:33.07 | 157945 | 173926
10 | 38:39.02 | 4:55.55 | 173927 | 196106


Track 1

Filename G:\RRC Own CD Rip\01-A Victory Of Love.wav

Pre-gap length 0:00:02.32

Peak level 97.5 %
Extraction speed 2.2 X
Track quality 100.0 %
Test CRC 2EDB6B95
Copy CRC 2EDB6B95
Accurately ripped (confidence 25) [8B43D5A5] (AR v2)
Copy OK

Track 2

Filename G:\RRC Own CD Rip\02-Summer In Berlin.wav

Peak level 80.5 %
Extraction speed 2.2 X
Track quality 100.0 %
Test CRC C8731908
Copy CRC C8731908
Accurately ripped (confidence 26) [3EBF8875] (AR v2)
Copy OK

Track 3

Filename G:\RRC Own CD Rip\03-Big In Japan.wav

Peak level 78.2 %
Extraction speed 2.0 X
Track quality 99.9 %
Test CRC 532BC9D5
Copy CRC 532BC9D5
Accurately ripped (confidence 25) [D726CD54] (AR v2)
Copy OK

Track 4

Filename G:\RRC Own CD Rip\04-To Germany With Love.wav

Peak level 71.1 %
Extraction speed 1.9 X
Track quality 99.9 %
Test CRC F004997B
Copy CRC F004997B
Accurately ripped (confidence 24) [7C3F7783] (AR v2)
Copy OK

Track 5

Filename G:\RRC Own CD Rip\05-Fallen Angel.wav

Peak level 81.7 %
Extraction speed 2.2 X
Track quality 100.0 %
Test CRC 648387A6
Copy CRC 648387A6
Accurately ripped (confidence 25) [81844ED5] (AR v2)
Copy OK

Track 6

Filename G:\RRC Own CD Rip\06-Forever Young.wav

Pre-gap length 0:00:01.20

Peak level 77.7 %
Extraction speed 2.2 X
Track quality 100.0 %
Test CRC 0C5B6BC9
Copy CRC 0C5B6BC9
Accurately ripped (confidence 25) [3175D0B7] (AR v2)
Copy OK

Track 7

Filename G:\RRC Own CD Rip\07-In The Mood.wav

Pre-gap length 0:00:01.03

Peak level 89.4 %
Extraction speed 2.2 X
Track quality 100.0 %
Test CRC AE4BC466
Copy CRC AE4BC466
Accurately ripped (confidence 26) [52A25DA4] (AR v2)
Copy OK

Track 8

Filename G:\RRC Own CD Rip\08-Sounds Like A Melody.wav

Pre-gap length 0:00:01.00

Peak level 100.0 %
Extraction speed 2.2 X
Track quality 100.0 %
Test CRC EC2BFD2E
Copy CRC EC2BFD2E
Accurately ripped (confidence 25) [746C36D5] (AR v2)
Copy OK

Track 9

Filename G:\RRC Own CD Rip\09-Lies.wav

Pre-gap length 0:00:00.38

Peak level 84.1 %
Extraction speed 1.8 X
Track quality 99.9 %
Test CRC 1F925443
Copy CRC 1F925443
Accurately ripped (confidence 25) [6177048F] (AR v2)
Copy OK

Track 10

Filename G:\RRC Own CD Rip\10-The Jet Set.wav

Peak level 83.9 %
Extraction speed 2.2 X
Track quality 100.0 %
Test CRC 5709B77F
Copy CRC 5709B77F
Accurately ripped (confidence 25) [8DBBAB15] (AR v2)
Copy OK


All tracks accurately ripped

No errors occurred

End of status report

–– CUETools DB Plugin V2.1.6

[CTDB TOCID: XELxQcdUSZhmBd5Lu.6h803vPUA-] found
Submit result: already submitted
Track | CTDB Status
1 | (22/22) Accurately ripped
2 | (22/22) Accurately ripped
3 | (21/22) Accurately ripped
4 | (21/22) Accurately ripped
5 | (22/22) Accurately ripped
6 | (21/22) Accurately ripped
7 | (21/22) Accurately ripped
8 | (21/22) Accurately ripped
9 | (21/22) Accurately ripped
10 | (22/22) Accurately ripped


==== Log checksum 5784BBB3D37931A3CC54A1C99802D9F81E73D4D5B314483CE4A099280BC1016B ====


[CUETools log; Date: 02.04.2021 12:32:36; Version: 2.1.4]
Pregap length 00:00:32.
[AccurateRip ID: 0010851c-0083b3a9-740a360a] found.
Track [ CRC | V2 ] Status
01 [908fb8c5|8b43d5a5] (032+045/180) Accurately ripped
02 [eda64c89|3ebf8875] (032+047/180) Accurately ripped
03 [df95fe75|d726cd54] (035+046/186) Accurately ripped
04 [c5133628|7c3f7783] (032+045/179) Accurately ripped
05 [95621219|81844ed5] (030+046/177) Accurately ripped
06 [160e02ec|3175d0b7] (033+046/186) Accurately ripped
07 [c2faabf8|52a25da4] (032+047/178) Accurately ripped
08 [65a3cc5f|746c36d5] (031+046/180) Accurately ripped
09 [d6e7a223|6177048f] (029+045/172) Accurately ripped
10 [b48452db|8dbbab15] (028+044/172) Accurately ripped
Offsetted by -1994:
01 [41ab99f8] (003/180) Accurately ripped
02 [755e3fd2] (003/180) Accurately ripped
03 [a4e49b10] (003/186) Accurately ripped
04 [d5c55e34] (003/179) Accurately ripped
05 [1671b512] (003/177) Accurately ripped
06 [1da4611c] (003/186) Accurately ripped
07 [9bc4e910] (003/178) Accurately ripped
08 [399b1823] (003/180) Accurately ripped
09 [bf08802c] (003/172) Accurately ripped
10 [be690a68] (003/172) Accurately ripped
Offsetted by -1324:
01 [7edb477e] (006/180) Accurately ripped
02 [6ab0a650] (006/180) Accurately ripped
03 [178ab9e9] (006/186) Accurately ripped
04 [a5e14f88] (006/179) Accurately ripped
05 [375aebc1] (006/177) Accurately ripped
06 [d4fe908c] (006/186) Accurately ripped
07 [154d16c8] (006/178) Accurately ripped
08 [9360e857] (006/180) Accurately ripped
09 [07c367db] (006/172) Accurately ripped
10 [34bc6bdf] (006/172) Accurately ripped
Offsetted by -690:
01 [b9e67a3d] (002/180) Accurately ripped
02 [05ee8f10] (002/180) Accurately ripped
03 [9dcc14a0] (002/186) Accurately ripped
04 [2a665850] (002/179) Accurately ripped
05 [713a16d7] (002/177) Accurately ripped
06 [a5a5abdc] (002/186) Accurately ripped
07 [32b70670] (002/178) Accurately ripped
08 [f24310b3] (002/180) Accurately ripped
09 [1dfd1ff8] (002/172) Accurately ripped
10 [f361eaa2] (002/172) Accurately ripped
Offsetted by -96:
01 [fd2a4b2b] (031/180) Accurately ripped
02 [0a03d511] (030/180) Accurately ripped
03 [62aa0c1c] (033/186) Accurately ripped
04 [8ea042f4] (030/179) Accurately ripped
05 [ebd9dd80] (030/177) Accurately ripped
06 [043077ec] (034/186) Accurately ripped
07 [22aa0678] (029/178) Accurately ripped
08 [1def621f] (031/180) Accurately ripped
09 [b15f754a] (026/172) Accurately ripped
10 [2d27daa9] (028/172) Accurately ripped
Offsetted by -575:
01 [4cfca021] (005/180) Accurately ripped
02 [b470e32c] (005/180) Accurately ripped
03 [51812476] (005/186) Accurately ripped
04 [5ecbabe2] (005/179) Accurately ripped
05 [97e6e7bb] (005/177) Accurately ripped
06 [0db70fb4] (005/186) Accurately ripped
07 [756cf75c] (005/178) Accurately ripped
08 [857ddaa5] (005/180) Accurately ripped
09 [3aeaa148] (005/172) Accurately ripped
10 [963b1bde] (000/172) No match (V2 was not tested)
Offsetted by 6:
01 [deb2803e] (000/180) No match (V2 was not tested)
02 [5e0ff835] (000/180) No match (V2 was not tested)
03 [3d7fbe37] (000/186) No match (V2 was not tested)
04 [536c6fb7] (000/179) No match (V2 was not tested)
05 [5c40eb7b] (000/177) No match (V2 was not tested)
06 [672bdb9c] (000/186) No match (V2 was not tested)
07 [7cffb650] (000/178) No match (V2 was not tested)
08 [3a1f1303] (000/180) No match (V2 was not tested)
09 [3c626dd9] (000/172) No match (V2 was not tested)
10 [70d13d4d] (000/172) No match (V2 was not tested)

Track Peak [ CRC32 ] [W/O NULL] [ LOG ]
– 100,0 [87A61666] [8283214F]
01 97,5 [2EDB6B95] [F38AC728] CRC32
02 80,5 [C8731908] [F5F7909E] CRC32
03 78,2 [532BC9D5] [7DC65931] CRC32
04 71,1 [F004997B] [A90630A4] CRC32
05 81,7 [648387A6] [3CBE3C26] CRC32
06 77,7 [0C5B6BC9] [F2AD5AF7] CRC32
07 89,4 [AE4BC466] [6F950C1A] CRC32
08 100,0 [EC2BFD2E] [701482F1] CRC32
09 84,1 [1F925443] [55A1DFD5] CRC32
10 83,9 [5709B77F] [8BB2D8E6] CRC32


Alphaville: Collection (1984 - 2018) [9CD, 2DVD, HDTV]

Tracklist CD04. 1986 - Afternoons in Utopia (DE, WEA, 2292-40948-2):

01. IAO (00:42)
02. Fantastic Dream (03:57)
03. Jerusalem (04:10)
04. Dance With Me (04:01)
05. Afternoons In Utopia (03:06)
06. Sensations (04:26)
07. 20th Century (01:23)
08. The Voyager (04:39)
09. Carol Masters (04:32)
10. Universal Daddy (04:04)
11. Lassie Come Home (07:02)
12. Red Rose (04:09)
13. Lady Bright (00:41)

Exact Audio Copy V1.0 beta 6 from 9. April 2015

EAC extraction logfile from 22. August 2015, 15:00

Alphaville / Afternoons in Utopia

Used drive : PIONEER DVD-RW DVR-221L Adapter: 1 ID: 1

Read mode : Secure
Utilize accurate stream : Yes
Defeat audio cache : Yes
Make use of C2 pointers : No

Read offset correction : 6
Overread into Lead-In and Lead-Out : No
Fill up missing offset samples with silence : Yes
Delete leading and trailing silent blocks : No
Null samples used in CRC calculations : Yes
Used interface : Native Win32 interface for Win NT & 2000
Gap handling : Appended to previous track

Used output format : User Defined Encoder
Selected bitrate : 1024 kBit/s
Quality : High
Add ID3 tag : Yes
Command line compressor : C:\Program Files (x86)\Exact Audio Copy\FLAC\FLAC.EXE
Additional command line options : -6 -V -T "COMMENT=Ripped by RRC" -T "ARTIST=%artist%" -T "TITLE=%title%" -T "ALBUM=%albumtitle%" -T "DATE=%year%" -T "TRACKNUMBER=%tracknr%" -T "GENRE=%genre%" -T "BAND=%albuminterpret%" -T "ALBUMARTIST=%albuminterpret%" -T "COMPOSER=%composer%" %haslyrics%–tag-from-file=LYRICS="%lyricsfile%"%haslyrics% -T "DISCNUMBER=%cdnumber%" -T "TOTALDISCS=%totalcds%" -T "TOTALTRACKS=%numtracks%" %hascover%–picture="%coverfile%"%hascover% %source%


TOC of the extracted CD

Track | Start | Length | Start sector | End sector
––––––––––––––––––––––––––––-
1 | 0:00.00 | 0:43.15 | 0 | 3239
2 | 0:43.15 | 3:57.30 | 3240 | 21044
3 | 4:40.45 | 4:10.68 | 21045 | 39862
4 | 8:51.38 | 4:01.12 | 39863 | 57949
5 | 12:52.50 | 3:06.50 | 57950 | 71949
6 | 15:59.25 | 4:27.68 | 71950 | 92042
7 | 20:27.18 | 1:24.47 | 92043 | 98389
8 | 21:51.65 | 4:31.35 | 98390 | 118749
9 | 26:23.25 | 4:39.43 | 118750 | 139717
10 | 31:02.68 | 4:04.50 | 139718 | 158067
11 | 35:07.43 | 7:03.05 | 158068 | 189797
12 | 42:10.48 | 4:09.60 | 189798 | 208532
13 | 46:20.33 | 0:40.30 | 208533 | 211562


Track 1

Filename G:\RRC Ripped\01-IAO.wav

Pre-gap length 0:00:02.00

Peak level 49.4 %
Extraction speed 1.6 X
Track quality 100.0 %
Test CRC AC7D32BF
Copy CRC AC7D32BF
Accurately ripped (confidence 44) [9A9FE680] (AR v2)
Copy OK

Track 2

Filename G:\RRC Ripped\02-Fantastic Dream.wav

Peak level 77.3 %
Extraction speed 2.1 X
Track quality 99.9 %
Test CRC AB85745A
Copy CRC AB85745A
Accurately ripped (confidence 43) [B61804D1] (AR v2)
Copy OK

Track 3

Filename G:\RRC Ripped\03-Jerusalem.wav

Pre-gap length 0:00:01.70

Peak level 80.8 %
Extraction speed 3.0 X
Track quality 100.0 %
Test CRC 64092329
Copy CRC 64092329
Accurately ripped (confidence 45) [7D26AC17] (AR v2)
Copy OK

Track 4

Filename G:\RRC Ripped\04-Dance With Me.wav

Pre-gap length 0:00:02.63

Peak level 68.0 %
Extraction speed 3.3 X
Track quality 100.0 %
Test CRC C63F2547
Copy CRC C63F2547
Accurately ripped (confidence 45) [E629BFF6] (AR v2)
Copy OK

Track 5

Filename G:\RRC Ripped\05-Afternoons in Utopia.wav

Pre-gap length 0:00:03.15

Peak level 58.9 %
Extraction speed 3.4 X
Track quality 100.0 %
Test CRC 8AF9CEBF
Copy CRC 8AF9CEBF
Accurately ripped (confidence 44) [A9D0F5E5] (AR v2)
Copy OK

Track 6

Filename G:\RRC Ripped\06-Sensations.wav

Peak level 75.1 %
Extraction speed 3.0 X
Track quality 99.9 %
Test CRC 62B0CFFB
Copy CRC 62B0CFFB
Accurately ripped (confidence 45) [A6F18F26] (AR v2)
Copy OK

Track 7

Filename G:\RRC Ripped\07-20th Century.wav

Pre-gap length 0:00:01.73

Peak level 31.2 %
Extraction speed 1.8 X
Track quality 99.8 %
Test CRC 853C18B4
Copy CRC 853C18B4
Accurately ripped (confidence 44) [9A4D5115] (AR v2)
Copy OK

Track 8

Filename G:\RRC Ripped\08-The Voyager.wav

Peak level 74.7 %
Extraction speed 4.1 X
Track quality 100.0 %
Test CRC 0471DD67
Copy CRC 0471DD67
Accurately ripped (confidence 44) [4CF0804B] (AR v2)
Copy OK

Track 9

Filename G:\RRC Ripped\09-Carol Masters.wav

Peak level 66.4 %
Extraction speed 4.3 X
Track quality 100.0 %
Test CRC AB2599AE
Copy CRC AB2599AE
Accurately ripped (confidence 45) [9690DB1F] (AR v2)
Copy OK

Track 10

Filename G:\RRC Ripped\10-Universal Daddy.wav

Pre-gap length 0:00:00.70

Peak level 71.4 %
Extraction speed 3.5 X
Track quality 99.9 %
Test CRC 2AFE4510
Copy CRC 2AFE4510
Accurately ripped (confidence 45) [6DAB49E4] (AR v2)
Copy OK

Track 11

Filename G:\RRC Ripped\11-Lassie Come Home.wav

Pre-gap length 0:00:07.45

Peak level 59.1 %
Extraction speed 5.0 X
Track quality 100.0 %
Test CRC 9EB3F473
Copy CRC 9EB3F473
Accurately ripped (confidence 45) [81BDA660] (AR v2)
Copy OK

Track 12

Filename G:\RRC Ripped\12-Red Rose.wav

Pre-gap length 0:00:02.70

Peak level 61.2 %
Extraction speed 5.0 X
Track quality 100.0 %
Test CRC 19B46619
Copy CRC 19B46619
Accurately ripped (confidence 43) [F9ACF4FD] (AR v2)
Copy OK

Track 13

Filename G:\RRC Ripped\13-Lady Bright - Faster Than Light.wav

Pre-gap length 0:00:03.65

Peak level 2.8 %
Extraction speed 2.9 X
Track quality 100.0 %
Test CRC 4B26065C
Copy CRC 4B26065C
Accurately ripped (confidence 43) [7AD13533] (AR v2)
Copy OK


All tracks accurately ripped

No errors occurred

End of status report

–– CUETools DB Plugin V2.1.6

[CTDB TOCID: imGwVTTOSF.0ctllKnr6Do7kG0M-] found
Submit result: already submitted
Track | CTDB Status
1 | (42/44) Accurately ripped
2 | (43/44) Accurately ripped
3 | (42/44) Accurately ripped
4 | (42/44) Accurately ripped
5 | (43/44) Accurately ripped
6 | (43/44) Accurately ripped
7 | (43/44) Accurately ripped
8 | (43/44) Accurately ripped
9 | (42/44) Accurately ripped
10 | (42/44) Accurately ripped
11 | (42/44) Accurately ripped
12 | (43/44) Accurately ripped
13 | (43/44) Accurately ripped


==== Log checksum 530DF23C53F2DC26D3B915414D0E74514F73124A6ED6EE3FC5D1F796B006BBE5 ====


[CUETools log; Date: 02.04.2021 12:35:42; Version: 2.1.4]
[AccurateRip ID: 0015875f-00ddd12c-ab0b040d] found.
Track [ CRC | V2 ] Status
01 [d51a244c|9a9fe680] (040+081/121) Accurately ripped
02 [31547a60|b61804d1] (039+080/119) Accurately ripped
03 [7e554dfc|7d26ac17] (038+082/120) Accurately ripped
04 [3426a19c|e629bff6] (040+080/120) Accurately ripped
05 [54573ae7|a9d0f5e5] (041+081/122) Accurately ripped
06 [df1c0209|a6f18f26] (040+082/122) Accurately ripped
07 [d6c2539e|9a4d5115] (039+081/120) Accurately ripped
08 [278ce13e|4cf0804b] (039+081/120) Accurately ripped
09 [16b591ba|9690db1f] (039+081/120) Accurately ripped
10 [c8cd9276|6dab49e4] (039+082/121) Accurately ripped
11 [d8f94845|81bda660] (040+082/122) Accurately ripped
12 [76b17d39|f9acf4fd] (040+080/120) Accurately ripped
13 [d71589ba|7ad13533] (039+080/119) Accurately ripped

Track Peak [ CRC32 ] [W/O NULL] [ LOG ]
– 80,8 [C5C0F0B4] [B2151B20]
01 49,4 [AC7D32BF] [785A9CAA] CRC32
02 77,3 [AB85745A] [92F084A2] CRC32
03 80,8 [64092329] [278C571D] CRC32
04 68,0 [C63F2547] [56F4BCEA] CRC32
05 58,9 [8AF9CEBF] [FB78F5F9] CRC32
06 75,1 [62B0CFFB] [5D4D5175] CRC32
07 31,2 [853C18B4] [6D40ED63] CRC32
08 74,7 [0471DD67] [24516E7D] CRC32
09 66,4 [AB2599AE] [FE581D89] CRC32
10 71,4 [2AFE4510] [2F2C3EA7] CRC32
11 59,1 [9EB3F473] [17315175] CRC32
12 61,2 [19B46619] [335A3A42] CRC32
13 2,8 [4B26065C] [1E65C5B7] CRC32


Alphaville: Collection (1984 - 2018) [9CD, 2DVD, HDTV]

Tracklist CD05. 1986 - Afternoons In Utopia (US, WEA, 7 81667-2):

01. IAO (00:42)
02. Fantastic Dream (03:57)
03. Jerusalem (04:10)
04. Dance With Me (04:01)
05. Afternoons In Utopia (03:06)
06. Sensations (04:26)
07. 20th Century (01:23)
08. The Voyager (04:39)
09. Carol Masters (04:32)
10. Universal Daddy (04:04)
11. Lassie Come Home (07:02)
12. Red Rose (04:09)
13. Lady Bright (00:41)

Exact Audio Copy V1.0 beta 6 from 9. April 2015

EAC extraction logfile from 23. August 2015, 1:12

Alphaville / Afternoons In Utopia (7 81667-2)

Used drive : PIONEER DVD-RW DVR-221L Adapter: 1 ID: 1

Read mode : Secure
Utilize accurate stream : Yes
Defeat audio cache : Yes
Make use of C2 pointers : No

Read offset correction : 6
Overread into Lead-In and Lead-Out : No
Fill up missing offset samples with silence : Yes
Delete leading and trailing silent blocks : No
Null samples used in CRC calculations : Yes
Used interface : Native Win32 interface for Win NT & 2000
Gap handling : Appended to previous track

Used output format : User Defined Encoder
Selected bitrate : 1024 kBit/s
Quality : High
Add ID3 tag : Yes
Command line compressor : C:\Program Files (x86)\Exact Audio Copy\FLAC\FLAC.EXE
Additional command line options : -6 -V -T "COMMENT=Ripped by RRC" -T "ARTIST=%artist%" -T "TITLE=%title%" -T "ALBUM=%albumtitle%" -T "DATE=%year%" -T "TRACKNUMBER=%tracknr%" -T "GENRE=%genre%" -T "BAND=%albuminterpret%" -T "ALBUMARTIST=%albuminterpret%" -T "COMPOSER=%composer%" %haslyrics%–tag-from-file=LYRICS="%lyricsfile%"%haslyrics% -T "DISCNUMBER=%cdnumber%" -T "TOTALDISCS=%totalcds%" -T "TOTALTRACKS=%numtracks%" %hascover%–picture="%coverfile%"%hascover% %source%


TOC of the extracted CD

Track | Start | Length | Start sector | End sector
––––––––––––––––––––––––––––-
1 | 0:00.32 | 0:42.65 | 32 | 3246
2 | 0:43.22 | 3:57.15 | 3247 | 21036
3 | 4:40.37 | 4:10.53 | 21037 | 39839
4 | 8:51.15 | 4:00.72 | 39840 | 57911
5 | 12:52.12 | 3:06.20 | 57912 | 71881
6 | 15:58.32 | 4:26.65 | 71882 | 91896
7 | 20:25.22 | 1:23.13 | 91897 | 98134
8 | 21:48.35 | 4:39.22 | 98135 | 119081
9 | 26:27.57 | 4:32.55 | 119082 | 139536
10 | 31:00.37 | 4:04.48 | 139537 | 157884
11 | 35:05.10 | 7:02.35 | 157885 | 189569
12 | 42:07.45 | 4:09.45 | 189570 | 208289
13 | 46:17.15 | 0:41.42 | 208290 | 211406


Track 1

Filename G:\RRC Ripped\01-I A O.wav

Pre-gap length 0:00:02.32

Peak level 59.0 %
Extraction speed 1.5 X
Track quality 100.0 %
Test CRC 6F85BA01
Copy CRC 6F85BA01
Accurately ripped (confidence 13) [B91F152F] (AR v2)
Copy OK

Track 2

Filename G:\RRC Ripped\02-Fantastic Dream.wav

Peak level 98.4 %
Extraction speed 2.7 X
Track quality 100.0 %
Test CRC ED6C061E
Copy CRC ED6C061E
Accurately ripped (confidence 13) [F73606E1] (AR v2)
Copy OK

Track 3

Filename G:\RRC Ripped\03-Jerusalem.wav

Pre-gap length 0:00:01.07

Peak level 94.0 %
Extraction speed 3.0 X
Track quality 100.0 %
Test CRC CE13C390
Copy CRC CE13C390
Accurately ripped (confidence 13) [775EE469] (AR v2)
Copy OK

Track 4

Filename G:\RRC Ripped\04-Dance With Me.wav

Pre-gap length 0:00:00.18

Peak level 91.4 %
Extraction speed 3.2 X
Track quality 100.0 %
Test CRC 4F6D2538
Copy CRC 4F6D2538
Accurately ripped (confidence 14) [190273F1] (AR v2)
Copy OK

Track 5

Filename G:\RRC Ripped\05-Afternoons In Utopia.wav

Pre-gap length 0:00:01.72

Peak level 72.6 %
Extraction speed 2.5 X
Track quality 99.9 %
Test CRC F768BD61
Copy CRC F768BD61
Accurately ripped (confidence 14) [ACEEA909] (AR v2)
Copy OK

Track 6

Filename G:\RRC Ripped\06-Sensations.wav

Peak level 94.1 %
Extraction speed 3.7 X
Track quality 100.0 %
Test CRC C54491FC
Copy CRC C54491FC
Accurately ripped (confidence 14) [DA81EE1D] (AR v2)
Copy OK

Track 7

Filename G:\RRC Ripped\07-20th Century.wav

Pre-gap length 0:00:02.02

Peak level 43.0 %
Extraction speed 3.0 X
Track quality 100.0 %
Test CRC B1CC7D33
Copy CRC B1CC7D33
Accurately ripped (confidence 14) [83BDBC05] (AR v2)
Copy OK

Track 8

Filename G:\RRC Ripped\08-The Voyager.wav

Peak level 95.0 %
Extraction speed 4.1 X
Track quality 100.0 %
Test CRC D2C349F3
Copy CRC D2C349F3
Accurately ripped (confidence 13) [318CD980] (AR v2)
Copy OK

Track 9

Filename G:\RRC Ripped\09-Carol Masters.wav

Peak level 87.2 %
Extraction speed 4.2 X
Track quality 100.0 %
Test CRC E95D4630
Copy CRC E95D4630
Accurately ripped (confidence 14) [F0752AC4] (AR v2)
Copy OK

Track 10

Filename G:\RRC Ripped\10-Universal Daddy.wav

Peak level 94.8 %
Extraction speed 4.4 X
Track quality 100.0 %
Test CRC 03AF0E0A
Copy CRC 03AF0E0A
Accurately ripped (confidence 13) [9C1B600F] (AR v2)
Copy OK

Track 11

Filename G:\RRC Ripped\11-Lassie Come Home.wav

Pre-gap length 0:00:07.25

Peak level 76.5 %
Extraction speed 4.9 X
Track quality 100.0 %
Test CRC F933374C
Copy CRC F933374C
Accurately ripped (confidence 13) [3B7D88D0] (AR v2)
Copy OK

Track 12

Filename G:\RRC Ripped\12-Red Rose.wav

Pre-gap length 0:00:01.63

Peak level 96.2 %
Extraction speed 4.7 X
Track quality 100.0 %
Test CRC B7A4DD98
Copy CRC B7A4DD98
Accurately ripped (confidence 13) [C4ED0517] (AR v2)
Copy OK

Track 13

Filename G:\RRC Ripped\13-Lady Bright.wav

Pre-gap length 0:00:02.33

Peak level 4.1 %
Extraction speed 3.0 X
Track quality 100.0 %
Test CRC 6CDBA7F9
Copy CRC 6CDBA7F9
Accurately ripped (confidence 14) [3478A84B] (AR v2)
Copy OK


All tracks accurately ripped

No errors occurred

End of status report

–– CUETools DB Plugin V2.1.6

[CTDB TOCID: GSn0whNzejT4x3PMiIaxOlDxtbw-] found
Submit result: GSn0whNzejT4x3PMiIaxOlDxtbw- has been confirmed
Track | CTDB Status
1 | (6/6) Accurately ripped
2 | (6/6) Accurately ripped
3 | (6/6) Accurately ripped
4 | (6/6) Accurately ripped
5 | (6/6) Accurately ripped
6 | (6/6) Accurately ripped
7 | (6/6) Accurately ripped
8 | (6/6) Accurately ripped
9 | (6/6) Accurately ripped
10 | (6/6) Accurately ripped
11 | (6/6) Accurately ripped
12 | (6/6) Accurately ripped
13 | (6/6) Accurately ripped


==== Log checksum A7C5BE3FEA949D4B6B0F166ACD4EC55F1BF0BB8A2DF151BF8BE5CDBB7E180777 ====


[CUETools log; Date: 02.04.2021 12:40:37; Version: 2.1.4]
Pregap length 00:00:32.
[AccurateRip ID: 001582d9-00dd9fc7-b10b020d] found.
Track [ CRC | V2 ] Status
01 [aa669dee|b91f152f] (22+28/67) Accurately ripped
02 [7ab44b68|f73606e1] (22+27/65) Accurately ripped
03 [95e1b90c|775ee469] (23+27/66) Accurately ripped
04 [d9536d2f|190273f1] (23+29/69) Accurately ripped
05 [bdd42a66|aceea909] (21+29/67) Accurately ripped
06 [88cc319e|da81ee1d] (23+28/68) Accurately ripped
07 [1282f359|83bdbc05] (22+29/68) Accurately ripped
08 [e2de6ea4|318cd980] (22+28/67) Accurately ripped
09 [3f03d4a4|f0752ac4] (22+29/68) Accurately ripped
10 [fea4b24f|9c1b600f] (23+28/68) Accurately ripped
11 [b9447432|3b7d88d0] (23+28/68) Accurately ripped
12 [96f9ce97|c4ed0517] (23+28/68) Accurately ripped
13 [3dcc26fa|3478a84b] (21+29/67) Accurately ripped
Offsetted by 702:
01 [ca8d123f] (04/67) Accurately ripped
02 [0f48667d] (04/65) Accurately ripped
03 [a10e5aee] (04/66) Accurately ripped
04 [7843966f] (04/69) Accurately ripped
05 [e429e73c] (04/67) Accurately ripped
06 [ec54b0ec] (04/68) Accurately ripped
07 [fe61c2a9] (04/68) Accurately ripped
08 [88e90bbc] (04/67) Accurately ripped
09 [9acd28d7] (04/68) Accurately ripped
10 [49c715ce] (04/68) Accurately ripped
11 [453d8e7c] (04/68) Accurately ripped
12 [c110db2d] (04/68) Accurately ripped
13 [2d9882d0] (04/67) Accurately ripped
Offsetted by 949:
01 [e3685b0c] (04/67) Accurately ripped
02 [2754d4bf] (04/65) Accurately ripped
03 [d922ccc7] (04/66) Accurately ripped
04 [b4ed6c0f] (04/69) Accurately ripped
05 [3002d4e3] (04/67) Accurately ripped
06 [60dbfae7] (04/68) Accurately ripped
07 [8b8975d6] (04/68) Accurately ripped
08 [3301490e] (04/67) Accurately ripped
09 [4c24deeb] (04/68) Accurately ripped
10 [cf8fbbc2] (04/68) Accurately ripped
11 [ed023da9] (04/68) Accurately ripped
12 [d49db4f0] (04/68) Accurately ripped
13 [4a7999b1] (04/67) Accurately ripped

Track Peak [ CRC32 ] [W/O NULL] [ LOG ]
– 98,4 [6A0EEB73] [6C2D7DE5]
01 59,0 [6F85BA01] [B576A2DB] CRC32
02 98,4 [ED6C061E] [D20159EB] CRC32
03 94,0 [CE13C390] [0260EB77] CRC32
04 91,4 [4F6D2538] [C74E931A] CRC32
05 72,6 [F768BD61] [1924BB4E] CRC32
06 94,1 [C54491FC] [6E994ED9] CRC32
07 43,0 [B1CC7D33] [239EFF95] CRC32
08 95,0 [D2C349F3] [3CF73D39] CRC32
09 87,2 [E95D4630] [EA36E3C8] CRC32
10 94,8 [03AF0E0A] [C49CE896] CRC32
11 76,5 [F933374C] [63DA7114] CRC32
12 96,2 [B7A4DD98] [16CA7035] CRC32
13 4,1 [6CDBA7F9] [8FC799BF] CRC32


Alphaville: Collection (1984 - 2018) [9CD, 2DVD, HDTV]

Tracklist CD06. 1989 - The Breathtaking Blue (DE, WEA, 2292-44855-2):

01. Summer Rain (04:10)
02. Romeos (05:29)
03. She Fades Away (04:57)
04. The Mysteries Of Love (04:55)
05. Ariana (03:42)
06. Heaven Or Hell (03:26)
07. For A Million (06:09)
08. Middle Of The Riddle (03:19)
09. Patricia's Park (04:12)
10. Anyway (02:49)

Exact Audio Copy V1.0 beta 6 from 9. April 2015

EAC extraction logfile from 23. August 2015, 9:20

Alphaville / The Breathtaking Blue (2292-44855-2)

Used drive : PIONEER DVD-RW DVR-221L Adapter: 1 ID: 1

Read mode : Secure
Utilize accurate stream : Yes
Defeat audio cache : Yes
Make use of C2 pointers : No

Read offset correction : 6
Overread into Lead-In and Lead-Out : No
Fill up missing offset samples with silence : Yes
Delete leading and trailing silent blocks : No
Null samples used in CRC calculations : Yes
Used interface : Native Win32 interface for Win NT & 2000
Gap handling : Appended to previous track

Used output format : User Defined Encoder
Selected bitrate : 1024 kBit/s
Quality : High
Add ID3 tag : Yes
Command line compressor : C:\Program Files (x86)\Exact Audio Copy\FLAC\FLAC.EXE
Additional command line options : -6 -V -T "COMMENT=Ripped by RRC" -T "ARTIST=%artist%" -T "TITLE=%title%" -T "ALBUM=%albumtitle%" -T "DATE=%year%" -T "TRACKNUMBER=%tracknr%" -T "GENRE=%genre%" -T "BAND=%albuminterpret%" -T "ALBUMARTIST=%albuminterpret%" -T "COMPOSER=%composer%" %haslyrics%–tag-from-file=LYRICS="%lyricsfile%"%haslyrics% -T "DISCNUMBER=%cdnumber%" -T "TOTALDISCS=%totalcds%" -T "TOTALTRACKS=%numtracks%" %hascover%–picture="%coverfile%"%hascover% %source%


TOC of the extracted CD

Track | Start | Length | Start sector | End sector
––––––––––––––––––––––––––––-
1 | 0:00.00 | 4:10.13 | 0 | 18762
2 | 4:10.13 | 5:29.22 | 18763 | 43459
3 | 9:39.35 | 4:57.05 | 43460 | 65739
4 | 14:36.40 | 4:55.48 | 65740 | 87912
5 | 19:32.13 | 3:42.52 | 87913 | 104614
6 | 23:14.65 | 3:27.03 | 104615 | 120142
7 | 26:41.68 | 6:09.50 | 120143 | 147867
8 | 32:51.43 | 3:19.60 | 147868 | 162852
9 | 36:11.28 | 4:12.35 | 162853 | 181787
10 | 40:23.63 | 2:48.50 | 181788 | 194437


Track 1

Filename G:\RRC Ripped\01-Summer Rain.wav

Pre-gap length 0:00:02.00

Peak level 95.7 %
Extraction speed 4.3 X
Track quality 100.0 %
Test CRC 34B82FF8
Copy CRC 34B82FF8
Accurately ripped (confidence 11) [BA299BE3] (AR v2)
Copy OK

Track 2

Filename G:\RRC Ripped\02-Romeos.wav

Peak level 95.4 %
Extraction speed 5.1 X
Track quality 100.0 %
Test CRC 8357C01B
Copy CRC 8357C01B
Accurately ripped (confidence 11) [560665A0] (AR v2)
Copy OK

Track 3

Filename G:\RRC Ripped\03-She Fades Away.wav

Peak level 98.1 %
Extraction speed 5.6 X
Track quality 100.0 %
Test CRC 02FB205A
Copy CRC 02FB205A
Accurately ripped (confidence 11) [10BC96A8] (AR v2)
Copy OK

Track 4

Filename G:\RRC Ripped\04-The Mysteries of Love.wav

Peak level 97.5 %
Extraction speed 6.1 X
Track quality 100.0 %
Test CRC 3EE9EEA1
Copy CRC 3EE9EEA1
Accurately ripped (confidence 11) [8640CEC4] (AR v2)
Copy OK

Track 5

Filename G:\RRC Ripped\05-Ariana.wav

Peak level 92.1 %
Extraction speed 6.2 X
Track quality 100.0 %
Test CRC 48C27B77
Copy CRC 48C27B77
Accurately ripped (confidence 11) [0FC497AF] (AR v2)
Copy OK

Track 6

Filename G:\RRC Ripped\06-Heaven or Hell.wav

Peak level 99.9 %
Extraction speed 6.4 X
Track quality 100.0 %
Test CRC 7D4FBEE5
Copy CRC 7D4FBEE5
Accurately ripped (confidence 11) [E874C711] (AR v2)
Copy OK

Track 7

Filename G:\RRC Ripped\07-For a Million.wav

Peak level 95.9 %
Extraction speed 7.4 X
Track quality 100.0 %
Test CRC 20BD4C17
Copy CRC 20BD4C17
Accurately ripped (confidence 11) [40FEFAC6] (AR v2)
Copy OK

Track 8

Filename G:\RRC Ripped\08-Middle of the Riddle.wav

Peak level 96.4 %
Extraction speed 7.0 X
Track quality 100.0 %
Test CRC F874C6C4
Copy CRC F874C6C4
Accurately ripped (confidence 11) [B273C9AB] (AR v2)
Copy OK

Track 9

Filename G:\RRC Ripped\09-Patricia's Park.wav

Peak level 80.7 %
Extraction speed 7.7 X
Track quality 100.0 %
Test CRC CD53165E
Copy CRC CD53165E
Accurately ripped (confidence 11) [6D807093] (AR v2)
Copy OK

Track 10

Filename G:\RRC Ripped\10-Anyway.wav

Peak level 90.4 %
Extraction speed 5.7 X
Track quality 99.9 %
Test CRC 62DCBF5C
Copy CRC 62DCBF5C
Accurately ripped (confidence 11) [259E1BB6] (AR v2)
Copy OK


All tracks accurately ripped

No errors occurred

End of status report

–– CUETools DB Plugin V2.1.6

[CTDB TOCID: lENPTPKvCSrCB7cnOybRag7O3ws-] found
Submit result: lENPTPKvCSrCB7cnOybRag7O3ws- has been confirmed
Track | CTDB Status
1 | (51/51) Accurately ripped
2 | (50/51) Accurately ripped
3 | (51/51) Accurately ripped
4 | (50/51) Accurately ripped
5 | (51/51) Accurately ripped
6 | (51/51) Accurately ripped
7 | (51/51) Accurately ripped
8 | (51/51) Accurately ripped
9 | (51/51) Accurately ripped
10 | (49/51) Accurately ripped


==== Log checksum 762C38344953913FC5732D6591FED3AB78C9182773546302FDB7E0C974BADA56 ====


[CUETools log; Date: 02.04.2021 12:45:33; Version: 2.1.4]
[AccurateRip ID: 0011349d-00887b3a-880a200a] found.
Track [ CRC | V2 ] Status
01 [b3c17f00|ba299be3] (15+22/87) Accurately ripped
02 [8a1d02b7|560665a0] (15+22/89) Accurately ripped
03 [f31b6afb|10bc96a8] (15+22/88) Accurately ripped
04 [a811bb3a|8640cec4] (15+22/89) Accurately ripped
05 [30d04d0a|0fc497af] (15+22/88) Accurately ripped
06 [c9213198|e874c711] (15+22/89) Accurately ripped
07 [f6857a15|40fefac6] (15+22/89) Accurately ripped
08 [76dcf15a|b273c9ab] (15+22/89) Accurately ripped
09 [6a29bb91|6d807093] (15+22/89) Accurately ripped
10 [b53e5056|259e1bb6] (15+22/87) Accurately ripped
Offsetted by 1355:
01 [8ad4570f] (14/87) Accurately ripped
02 [78658232] (15/89) Accurately ripped
03 [e6a7d41f] (14/88) Accurately ripped
04 [141216a6] (15/89) Accurately ripped
05 [7558c6d2] (14/88) Accurately ripped
06 [f472bb7e] (15/89) Accurately ripped
07 [e132cd4d] (15/89) Accurately ripped
08 [dd3ce4c6] (15/89) Accurately ripped
09 [ccfce157] (15/89) Accurately ripped
10 [a70acab2] (15/87) Accurately ripped
Offsetted by -877:
01 [78d304dc] (00/87) No match (V2 was not tested)
02 [7ee70be9] (00/89) No match (V2 was not tested)
03 [0aa5548a] (00/88) No match (V2 was not tested)
04 [22b462b5] (00/89) No match (V2 was not tested)
05 [bfbc97e2] (00/88) No match (V2 was not tested)
06 [9e3d1c50] (00/89) No match (V2 was not tested)
07 [21406264] (00/89) No match (V2 was not tested)
08 [7477e0f1] (00/89) No match (V2 was not tested)
09 [c7d84241] (00/89) No match (V2 was not tested)
10 [cd17bf6c] (00/87) No match (V2 was not tested)
Offsetted by 691:
01 [35c583a0] (00/87) No match (V2 was not tested)
02 [818c2412] (00/89) No match (V2 was not tested)
03 [44fc73be] (00/88) No match (V2 was not tested)
04 [8f89783e] (00/89) No match (V2 was not tested)
05 [96930a07] (00/88) No match (V2 was not tested)
06 [0186664e] (00/89) No match (V2 was not tested)
07 [9f9df06e] (00/89) No match (V2 was not tested)
08 [42a08bd7] (00/89) No match (V2 was not tested)
09 [60b0ab83] (00/89) No match (V2 was not tested)
10 [85ad7f47] (00/87) No match (V2 was not tested)
Offsetted by 1452:
01 [f7de9787] (00/87) No match (V2 was not tested)
02 [c19a2fdf] (00/89) No match (V2 was not tested)
03 [6f7b1c04] (00/88) No match (V2 was not tested)
04 [86d4345e] (00/89) No match (V2 was not tested)
05 [b195de6a] (00/88) No match (V2 was not tested)
06 [8b8e5cff] (00/89) No match (V2 was not tested)
07 [a64f76b8] (00/89) No match (V2 was not tested)
08 [73940343] (00/89) No match (V2 was not tested)
09 [6b6caf40] (00/89) No match (V2 was not tested)
10 [8e7612dc] (00/87) No match (V2 was not tested)

Track Peak [ CRC32 ] [W/O NULL] [ LOG ]
– 99,9 [84B13342] [791C8A4F]
01 95,7 [34B82FF8] [C8D82D69] CRC32
02 95,4 [8357C01B] [DC036B73] CRC32
03 98,1 [02FB205A] [41CFB993] CRC32
04 97,5 [3EE9EEA1] [1B5DBB7C] CRC32
05 92,1 [48C27B77] [406EC59A] CRC32
06 99,9 [7D4FBEE5] [9E0A7ADF] CRC32
07 95,9 [20BD4C17] [DD9E3861] CRC32
08 96,4 [F874C6C4] [DD8457C2] CRC32
09 80,7 [CD53165E] [8C541EB2] CRC32
10 90,4 [62DCBF5C] [68A51B55] CRC32


Alphaville: Collection (1984 - 2018) [9CD, 2DVD, HDTV]

Tracklist CD07. 1997 - Salvation (DE, WEA, 0630-19664-2):

01. Inside Out (05:17)
02. Monkey In The Moon (03:53)
03. Guardian Angel (04:14)
04. Wishful Thinking (03:47)
05. Flame (03:52)
06. Point Of Know Return (05:51)
07. Control (03:32)
08. Dangerous Places (03:58)
09. Spirit Of The Age (04:30)
10. Soul Messiah (04:52)
11. New Horizons (05:35)
12. Pandora's Lullaby (04:28)

Exact Audio Copy V1.0 beta 6 from 9. April 2015

EAC extraction logfile from 23. August 2015, 9:47

Alphaville / Salvation (19664-2)

Used drive : PIONEER DVD-RW DVR-221L Adapter: 1 ID: 1

Read mode : Secure
Utilize accurate stream : Yes
Defeat audio cache : Yes
Make use of C2 pointers : No

Read offset correction : 6
Overread into Lead-In and Lead-Out : No
Fill up missing offset samples with silence : Yes
Delete leading and trailing silent blocks : No
Null samples used in CRC calculations : Yes
Used interface : Native Win32 interface for Win NT & 2000
Gap handling : Appended to previous track

Used output format : User Defined Encoder
Selected bitrate : 1024 kBit/s
Quality : High
Add ID3 tag : Yes
Command line compressor : C:\Program Files (x86)\Exact Audio Copy\FLAC\FLAC.EXE
Additional command line options : -6 -V -T "COMMENT=Ripped by RRC" -T "ARTIST=%artist%" -T "TITLE=%title%" -T "ALBUM=%albumtitle%" -T "DATE=%year%" -T "TRACKNUMBER=%tracknr%" -T "GENRE=%genre%" -T "BAND=%albuminterpret%" -T "ALBUMARTIST=%albuminterpret%" -T "COMPOSER=%composer%" %haslyrics%–tag-from-file=LYRICS="%lyricsfile%"%haslyrics% -T "DISCNUMBER=%cdnumber%" -T "TOTALDISCS=%totalcds%" -T "TOTALTRACKS=%numtracks%" %hascover%–picture="%coverfile%"%hascover% %source%


TOC of the extracted CD

Track | Start | Length | Start sector | End sector
––––––––––––––––––––––––––––-
1 | 0:00.00 | 5:17.35 | 0 | 23809
2 | 5:17.35 | 3:53.15 | 23810 | 41299
3 | 9:10.50 | 4:14.42 | 41300 | 60391
4 | 13:25.17 | 3:47.60 | 60392 | 77476
5 | 17:13.02 | 3:52.30 | 77477 | 94906
6 | 21:05.32 | 5:51.50 | 94907 | 121281
7 | 26:57.07 | 3:32.25 | 121282 | 137206
8 | 30:29.32 | 3:58.65 | 137207 | 155121
9 | 34:28.22 | 4:30.58 | 155122 | 175429
10 | 38:59.05 | 4:52.07 | 175430 | 197336
11 | 43:51.12 | 5:35.48 | 197337 | 222509
12 | 49:26.60 | 4:28.20 | 222510 | 242629


Track 1

Filename G:\RRC Ripped\01-Inside Out.wav

Pre-gap length 0:00:02.00

Peak level 98.0 %
Extraction speed 4.5 X
Track quality 100.0 %
Test CRC 98F82C85
Copy CRC 98F82C85
Accurately ripped (confidence 29) [E9E19D83] (AR v2)
Copy OK

Track 2

Filename G:\RRC Ripped\02-Monkey In The Moon.wav

Peak level 98.0 %
Extraction speed 4.9 X
Track quality 100.0 %
Test CRC E0B0469F
Copy CRC E0B0469F
Accurately ripped (confidence 29) [7414600C] (AR v2)
Copy OK

Track 3

Filename G:\RRC Ripped\03-Guardian Angel.wav

Peak level 98.0 %
Extraction speed 5.3 X
Track quality 100.0 %
Test CRC 56518594
Copy CRC 56518594
Accurately ripped (confidence 29) [250079FF] (AR v2)
Copy OK

Track 4

Filename G:\RRC Ripped\04-Wishful Thinking.wav

Peak level 98.0 %
Extraction speed 5.7 X
Track quality 100.0 %
Test CRC 028AA3BD
Copy CRC 028AA3BD
Accurately ripped (confidence 29) [535D852A] (AR v2)
Copy OK

Track 5

Filename G:\RRC Ripped\05-Flame.wav

Peak level 98.0 %
Extraction speed 4.9 X
Track quality 99.9 %
Test CRC 575019E9
Copy CRC 575019E9
Accurately ripped (confidence 29) [A80AAE11] (AR v2)
Copy OK

Track 6

Filename G:\RRC Ripped\06-Point Of Know Return.wav

Peak level 98.0 %
Extraction speed 6.8 X
Track quality 100.0 %
Test CRC D60266F5
Copy CRC D60266F5
Accurately ripped (confidence 29) [051754A6] (AR v2)
Copy OK

Track 7

Filename G:\RRC Ripped\07-Control.wav

Peak level 98.0 %
Extraction speed 6.6 X
Track quality 100.0 %
Test CRC 760901EA
Copy CRC 760901EA
Accurately ripped (confidence 29) [6DB93359] (AR v2)
Copy OK

Track 8

Filename G:\RRC Ripped\08-Dangerous Places.wav

Peak level 98.0 %
Extraction speed 7.1 X
Track quality 100.0 %
Test CRC 30D143D8
Copy CRC 30D143D8
Accurately ripped (confidence 30) [106DF734] (AR v2)
Copy OK

Track 9

Filename G:\RRC Ripped\09-Spirit Of The Age.wav

Peak level 98.0 %
Extraction speed 7.4 X
Track quality 100.0 %
Test CRC B482A1B7
Copy CRC B482A1B7
Accurately ripped (confidence 28) [A3EAD3D5] (AR v2)
Copy OK

Track 10

Filename G:\RRC Ripped\10-Soul Messiah.wav

Peak level 98.0 %
Extraction speed 7.8 X
Track quality 100.0 %
Test CRC C22522FB
Copy CRC C22522FB
Accurately ripped (confidence 27) [A2DA47C9] (AR v2)
Copy OK

Track 11

Filename G:\RRC Ripped\11-New Horizons.wav

Peak level 98.0 %
Extraction speed 7.1 X
Track quality 99.9 %
Test CRC AF08F3C2
Copy CRC AF08F3C2
Accurately ripped (confidence 28) [BFE609F8] (AR v2)
Copy OK

Track 12

Filename G:\RRC Ripped\12-Pandora's Lullaby.wav

Peak level 98.0 %
Extraction speed 7.0 X
Track quality 99.9 %
Test CRC E9D872B8
Copy CRC E9D872B8
Accurately ripped (confidence 25) [495BBB44] (AR v2)
Copy OK


All tracks accurately ripped

No errors occurred

End of status report

–– CUETools DB Plugin V2.1.6

[CTDB TOCID: zLJI8sy33x9yhxdxCbQWPWFjxnw-] found
Submit result: zLJI8sy33x9yhxdxCbQWPWFjxnw- has been confirmed
Track | CTDB Status
1 | (32/34) Accurately ripped
2 | (32/34) Accurately ripped
3 | (32/34) Accurately ripped
4 | (32/34) Accurately ripped
5 | (32/34) Accurately ripped
6 | (32/34) Accurately ripped
7 | (32/34) Accurately ripped
8 | (32/34) Accurately ripped
9 | (32/34) Accurately ripped
10 | (32/34) Accurately ripped
11 | (32/34) Accurately ripped
12 | (32/34) Accurately ripped


==== Log checksum 2C646BE3D240C429100298FD4DD005FB8032DD16B6FFCB2911EBD565C0762499 ====


[CUETools log; Date: 02.04.2021 12:48:37; Version: 2.1.4]
[AccurateRip ID: 0017a45c-00dcac09-9b0ca30c] found.
Track [ CRC | V2 ] Status
01 [578cc2e1|e9e19d83] (28+54/84) Accurately ripped
02 [4ab15776|7414600c] (28+54/84) Accurately ripped
03 [4ad9247d|250079ff] (27+54/83) Accurately ripped
04 [bdffea23|535d852a] (27+54/83) Accurately ripped
05 [069bf9ff|a80aae11] (27+54/83) Accurately ripped
06 [f4d6c151|051754a6] (27+53/82) Accurately ripped
07 [5f683660|6db93359] (27+53/82) Accurately ripped
08 [87a4948f|106df734] (26+54/82) Accurately ripped
09 [fd9978a8|a3ead3d5] (27+52/81) Accurately ripped
10 [7a6809ce|a2da47c9] (27+52/81) Accurately ripped
11 [25362286|bfe609f8] (27+52/81) Accurately ripped
12 [18a3547e|495bbb44] (23+49/74) Accurately ripped

Track Peak [ CRC32 ] [W/O NULL] [ LOG ]
– 98,0 [32EE7144] [D03398E2]
01 98,0 [98F82C85] [72EB4163] CRC32
02 98,0 [E0B0469F] [7556E6A7] CRC32
03 98,0 [56518594] [3674BE40] CRC32
04 98,0 [028AA3BD] [85E89A63] CRC32
05 98,0 [575019E9] [326E8D3F] CRC32
06 98,0 [D60266F5] [C232DD08] CRC32
07 98,0 [760901EA] [A19C76F8] CRC32
08 98,0 [30D143D8] [00FADED6] CRC32
09 98,0 [B482A1B7] [2383E9B4] CRC32
10 98,0 [C22522FB] [3E7D7E22] CRC32
11 98,0 [AF08F3C2] [B234D753] CRC32
12 98,0 [E9D872B8] [586D67CE] CRC32


Alphaville: Collection (1984 - 2018) [9CD, 2DVD, HDTV]

Tracklist CD08. 2010 - Catching Rays on Giant (DE, Universal, 06025 2750763 7):

01. Song For No One (03:31)
02. I Die For You Today (03:47)
03. End Of The World (03:58)
04. The Things I Didn't Do (04:40)
05. Heaven On Earth (The Things We've Got To Do) (04:44)
06. The Deep (04:23)
07. Call Me (03:46)
08. Gravitation Breakdown (04:15)
09. Carry Your Flag (04:53)
10. Call Me Down (04:30)
11. Phantoms (03:39)
12. Miracle Healing (05:04)
13. I Die For You Today (Original Demo Version) (03:34)
14. Call Me (Original Demo Version) (03:29)
15. Fallen Angel (Orchestral Demo Version) (03:35)
16. Forever Young (Factory Mix) (04:20)

Exact Audio Copy V1.0 beta 6 from 9. April 2015

EAC extraction logfile from 23. August 2015, 11:47

Alphaville / Catching Rays on Giant (Delux edition)

Used drive : PIONEER DVD-RW DVR-221L Adapter: 1 ID: 1

Read mode : Secure
Utilize accurate stream : Yes
Defeat audio cache : Yes
Make use of C2 pointers : No

Read offset correction : 6
Overread into Lead-In and Lead-Out : No
Fill up missing offset samples with silence : Yes
Delete leading and trailing silent blocks : No
Null samples used in CRC calculations : Yes
Used interface : Native Win32 interface for Win NT & 2000
Gap handling : Appended to previous track

Used output format : User Defined Encoder
Selected bitrate : 1024 kBit/s
Quality : High
Add ID3 tag : Yes
Command line compressor : C:\Program Files (x86)\Exact Audio Copy\FLAC\FLAC.EXE
Additional command line options : -6 -V -T "COMMENT=Ripped by RRC from own Collection" -T "ARTIST=%artist%" -T "TITLE=%title%" -T "ALBUM=%albumtitle%" -T "DATE=%year%" -T "TRACKNUMBER=%tracknr%" -T "GENRE=%genre%" -T "BAND=%albuminterpret%" -T "ALBUMARTIST=%albuminterpret%" -T "COMPOSER=%composer%" %haslyrics%–tag-from-file=LYRICS="%lyricsfile%"%haslyrics% -T "DISCNUMBER=%cdnumber%" -T "TOTALDISCS=%totalcds%" -T "TOTALTRACKS=%numtracks%" %hascover%–picture="%coverfile%"%hascover% %source%


TOC of the extracted CD

Track | Start | Length | Start sector | End sector
––––––––––––––––––––––––––––-
1 | 0:00.00 | 3:31.45 | 0 | 15869
2 | 3:31.45 | 3:47.12 | 15870 | 32906
3 | 7:18.57 | 3:58.48 | 32907 | 50804
4 | 11:17.30 | 4:40.32 | 50805 | 71836
5 | 15:57.62 | 4:44.51 | 71837 | 93187
6 | 20:42.38 | 4:23.15 | 93188 | 112927
7 | 25:05.53 | 3:46.55 | 112928 | 129932
8 | 28:52.33 | 4:15.08 | 129933 | 149065
9 | 33:07.41 | 4:53.29 | 149066 | 171069
10 | 38:00.70 | 4:30.66 | 171070 | 191385
11 | 42:31.61 | 3:39.02 | 191386 | 207812
12 | 46:10.63 | 5:04.21 | 207813 | 230633
13 | 51:15.09 | 3:34.48 | 230634 | 246731
14 | 54:49.57 | 3:29.39 | 246732 | 262445
15 | 58:19.21 | 3:35.39 | 262446 | 278609
16 | 61:54.60 | 4:20.42 | 278610 | 298151


Track 1

Filename G:\RRC Own CD Ripp\01-Song for No One.wav

Pre-gap length 0:00:02.00

Peak level 99.8 %
Extraction speed 2.7 X
Track quality 100.0 %
Test CRC 8A74EDCE
Copy CRC 8A74EDCE
Accurately ripped (confidence 14) [0EAC5329] (AR v2)
Copy OK

Track 2

Filename G:\RRC Own CD Ripp\02-I Die for You Today.wav

Pre-gap length 0:00:00.48

Peak level 99.8 %
Extraction speed 3.0 X
Track quality 100.0 %
Test CRC C7E36686
Copy CRC C7E36686
Accurately ripped (confidence 14) [4A0B8F83] (AR v2)
Copy OK

Track 3

Filename G:\RRC Own CD Ripp\03-End of the World.wav

Peak level 99.8 %
Extraction speed 3.2 X
Track quality 100.0 %
Test CRC 07776D8A
Copy CRC 07776D8A
Accurately ripped (confidence 14) [BA6BA2ED] (AR v2)
Copy OK

Track 4

Filename G:\RRC Own CD Ripp\04-The Things I Didn't Do.wav

Pre-gap length 0:00:00.45

Peak level 99.8 %
Extraction speed 3.5 X
Track quality 100.0 %
Test CRC FB1D7C65
Copy CRC FB1D7C65
Accurately ripped (confidence 14) [47CBA858] (AR v2)
Copy OK

Track 5

Filename G:\RRC Own CD Ripp\05-Heaven on Earth (The Things We've Got to Do).wav

Pre-gap length 0:00:01.74

Peak level 99.8 %
Extraction speed 3.9 X
Track quality 100.0 %
Test CRC C538E0F9
Copy CRC C538E0F9
Accurately ripped (confidence 14) [2B7BB5A1] (AR v2)
Copy OK

Track 6

Filename G:\RRC Own CD Ripp\06-The Deep.wav

Pre-gap length 0:00:00.44

Peak level 99.9 %
Extraction speed 4.0 X
Track quality 100.0 %
Test CRC D7827723
Copy CRC D7827723
Accurately ripped (confidence 14) [AC7439EB] (AR v2)
Copy OK

Track 7

Filename G:\RRC Own CD Ripp\07-Call Me.wav

Pre-gap length 0:00:02.17

Peak level 99.8 %
Extraction speed 3.2 X
Track quality 99.9 %
Test CRC EF1CAD26
Copy CRC EF1CAD26
Accurately ripped (confidence 14) [E8AF634F] (AR v2)
Copy OK

Track 8

Filename G:\RRC Own CD Ripp\08-Gravitation Breakdown.wav

Pre-gap length 0:00:01.45

Peak level 99.8 %
Extraction speed 4.4 X
Track quality 100.0 %
Test CRC E49B38D2
Copy CRC E49B38D2
Accurately ripped (confidence 14) [ADCF6468] (AR v2)
Copy OK

Track 9

Filename G:\RRC Own CD Ripp\09-Carry Your Flag.wav

Pre-gap length 0:00:00.66

Peak level 99.8 %
Extraction speed 4.7 X
Track quality 100.0 %
Test CRC 7674DC0C
Copy CRC 7674DC0C
Accurately ripped (confidence 14) [9FF02249] (AR v2)
Copy OK

Track 10

Filename G:\RRC Own CD Ripp\10-Call Me Down.wav

Pre-gap length 0:00:00.57

Peak level 99.8 %
Extraction speed 3.9 X
Track quality 99.9 %
Test CRC 016BF607
Copy CRC 016BF607
Accurately ripped (confidence 14) [317C6A17] (AR v2)
Copy OK

Track 11

Filename G:\RRC Own CD Ripp\11-Phantoms.wav

Pre-gap length 0:00:02.16

Peak level 99.8 %
Extraction speed 4.9 X
Track quality 100.0 %
Test CRC A2087D71
Copy CRC A2087D71
Accurately ripped (confidence 14) [28741C5E] (AR v2)
Copy OK

Track 12

Filename G:\RRC Own CD Ripp\12-Miracle Healing.wav

Pre-gap length 0:00:01.39

Peak level 99.9 %
Extraction speed 5.2 X
Track quality 100.0 %
Test CRC 7BBA7192
Copy CRC 7BBA7192
Accurately ripped (confidence 14) [FA86E5FC] (AR v2)
Copy OK

Track 13

Filename G:\RRC Own CD Ripp\13-I Die for You Today (demo).wav

Pre-gap length 0:00:00.04

Peak level 98.8 %
Extraction speed 5.1 X
Track quality 100.0 %
Test CRC F8E557C2
Copy CRC F8E557C2
Accurately ripped (confidence 14) [DFB7609F] (AR v2)
Copy OK

Track 14

Filename G:\RRC Own CD Ripp\14-Call Me (demo).wav

Pre-gap length 0:00:01.33

Peak level 98.8 %
Extraction speed 4.9 X
Track quality 100.0 %
Test CRC 70682544
Copy CRC 70682544
Accurately ripped (confidence 14) [BF9AE632] (AR v2)
Copy OK

Track 15

Filename G:\RRC Own CD Ripp\15-Fallen Angel (orchestral demo).wav

Pre-gap length 0:00:01.00

Peak level 98.8 %
Extraction speed 5.5 X
Track quality 100.0 %
Test CRC FF1F23D7
Copy CRC FF1F23D7
Accurately ripped (confidence 14) [3A2BA481] (AR v2)
Copy OK

Track 16

Filename G:\RRC Own CD Ripp\16-Forever Young 2001 (Factory mix).wav

Pre-gap length 0:00:01.43

Peak level 98.8 %
Extraction speed 5.7 X
Track quality 100.0 %
Test CRC 666E786E
Copy CRC 666E786E
Accurately ripped (confidence 14) [22A3D78E] (AR v2)
Copy OK


All tracks accurately ripped

No errors occurred

End of status report

–– CUETools DB Plugin V2.1.6

[CTDB TOCID: fuIYP5AYe_pKV7aogC_IbsTHvDo-] found
Submit result: fuIYP5AYe_pKV7aogC_IbsTHvDo- has been confirmed
Track | CTDB Status
1 | (19/20) Accurately ripped
2 | (20/20) Accurately ripped
3 | (20/20) Accurately ripped
4 | (20/20) Accurately ripped
5 | (20/20) Accurately ripped
6 | (20/20) Accurately ripped
7 | (20/20) Accurately ripped
8 | (20/20) Accurately ripped
9 | (20/20) Accurately ripped
10 | (20/20) Accurately ripped
11 | (20/20) Accurately ripped
12 | (20/20) Accurately ripped
13 | (20/20) Accurately ripped
14 | (20/20) Accurately ripped
15 | (20/20) Accurately ripped
16 | (20/20) Accurately ripped


==== Log checksum C28CA7AEA8FA7002B94EC4AF0A66F82DF293DF1CE141453497DC8817AD971246 ====


[CUETools log; Date: 02.04.2021 12:52:25; Version: 2.1.4]
[AccurateRip ID: 0026cf11-01d3a9c7-e80f8710] found.
Track [ CRC | V2 ] Status
01 [5db9e79b|0eac5329] (16+23/39) Accurately ripped
02 [9561c7e5|4a0b8f83] (16+23/39) Accurately ripped
03 [8dd09a84|ba6ba2ed] (16+23/39) Accurately ripped
04 [a9c37c43|47cba858] (16+23/39) Accurately ripped
05 [66868eea|2b7bb5a1] (16+23/39) Accurately ripped
06 [5feb87ec|ac7439eb] (16+23/39) Accurately ripped
07 [adaace6b|e8af634f] (16+23/39) Accurately ripped
08 [159caa51|adcf6468] (16+23/39) Accurately ripped
09 [b0bdb2cc|9ff02249] (16+23/39) Accurately ripped
10 [81b0ed3f|317c6a17] (16+23/39) Accurately ripped
11 [9cc8c929|28741c5e] (16+23/39) Accurately ripped
12 [926c5fb7|fa86e5fc] (16+23/39) Accurately ripped
13 [eac65c17|dfb7609f] (16+23/39) Accurately ripped
14 [1ceff636|bf9ae632] (16+23/39) Accurately ripped
15 [006067dd|3a2ba481] (16+23/39) Accurately ripped
16 [ab49ff66|22a3d78e] (14+23/37) Accurately ripped

Track Peak [ CRC32 ] [W/O NULL] [ LOG ]
– 99,9 [8F14A555] [4BAA8AAF]
01 99,8 [8A74EDCE] [885FE960] CRC32
02 99,8 [C7E36686] [0BEB5506] CRC32
03 99,8 [07776D8A] [8C14FF99] CRC32
04 99,8 [FB1D7C65] [7931E89F] CRC32
05 99,8 [C538E0F9] [0F35D5EF] CRC32
06 99,9 [D7827723] [E5D8202A] CRC32
07 99,8 [EF1CAD26] [B7177798] CRC32
08 99,8 [E49B38D2] [76DD0444] CRC32
09 99,8 [7674DC0C] [A4EF459E] CRC32
10 99,8 [016BF607] [BE1B15E7] CRC32
11 99,8 [A2087D71] [2790B3F4] CRC32
12 99,9 [7BBA7192] [FC085C6E] CRC32
13 98,8 [F8E557C2] [E13D922E] CRC32
14 98,8 [70682544] [CE239B8B] CRC32
15 98,8 [FF1F23D7] [8A8D68B6] CRC32
16 98,8 [666E786E] [E048B0EC] CRC32


Alphaville: Collection (1984 - 2018) [9CD, 2DVD, HDTV]

Tracklist CD09. 2017 - Strange Attractor (EU, Lunapark, 06025 5740425 8):

01. Giants (03:29)
02. Marionettes With Halos (04:24)
03. House Of Ghosts (05:08)
04. Around The Universe (04:01)
05. Enigma (05:59)
06. Mafia Island (06:24)
07. A Handful Of Darkness (07:57)
08. Sexyland (03:52)
09. Rendezvoyeur (04:16)
10. Nevermore (04:49)
11. Fever! (03:47)
12. Heartbreak City (03:48)
13. Beyond The Laughing Sky (05:39)

Exact Audio Copy V1.0 beta 6 from 9. April 2015

EAC extraction logfile from 25. April 2017, 20:11

Alphaville / Strange Attractor

Used drive : PIONEER DVD-RW DVR-221L Adapter: 1 ID: 2

Read mode : Secure
Utilize accurate stream : Yes
Defeat audio cache : Yes
Make use of C2 pointers : No

Read offset correction : 6
Overread into Lead-In and Lead-Out : No
Fill up missing offset samples with silence : Yes
Delete leading and trailing silent blocks : No
Null samples used in CRC calculations : Yes
Used interface : Native Win32 interface for Win NT & 2000
Gap handling : Appended to previous track

Used output format : User Defined Encoder
Selected bitrate : 1024 kBit/s
Quality : High
Add ID3 tag : Yes
Command line compressor : C:\Program Files (x86)\Exact Audio Copy\FLAC\FLAC.EXE
Additional command line options : -6 -V -T "COMMENT=Ripped by RRCLtd (NTO)" -T "ARTIST=%artist%" -T "TITLE=%title%" -T "ALBUM=%albumtitle%" -T "DATE=%year%" -T "TRACKNUMBER=%tracknr%" -T "GENRE=%genre%" -T "COMMENT=%comment%" -T "BAND=%albuminterpret%" -T "ALBUMARTIST=%albuminterpret%" -T "COMPOSER=%composer%" %haslyrics%–tag-from-file=LYRICS="%lyricsfile%"%haslyrics% -T "DISCNUMBER=%cdnumber%" -T "TOTALDISCS=%totalcds%" -T "TOTALTRACKS=%numtracks%" %hascover%–picture="%coverfile%"%hascover% %source% -o %dest%


TOC of the extracted CD

Track | Start | Length | Start sector | End sector
––––––––––––––––––––––––––––-
1 | 0:00.00 | 3:29.21 | 0 | 15695
2 | 3:29.21 | 4:23.11 | 15696 | 35431
3 | 7:52.32 | 5:07.50 | 35432 | 58506
4 | 13:00.07 | 4:00.42 | 58507 | 76548
5 | 17:00.49 | 5:59.01 | 76549 | 103474
6 | 22:59.50 | 6:23.38 | 103475 | 132237
7 | 29:23.13 | 7:57.25 | 132238 | 168037
8 | 37:20.38 | 3:52.02 | 168038 | 185439
9 | 41:12.40 | 4:16.67 | 185440 | 204706
10 | 45:29.32 | 4:49.35 | 204707 | 226416
11 | 50:18.67 | 3:47.71 | 226417 | 243512
12 | 54:06.63 | 3:47.55 | 243513 | 260592
13 | 57:54.43 | 5:39.10 | 260593 | 286027


Track 1

Filename G:\RRC's Rip\01-Giants.wav

Pre-gap length 0:00:02.00

Peak level 99.9 %
Extraction speed 4.5 X
Track quality 100.0 %
Test CRC 51B52DD3
Copy CRC 51B52DD3
Track not present in AccurateRip database
Copy OK

Track 2

Filename G:\RRC's Rip\02-Marionettes With Halos.wav

Pre-gap length 0:00:01.73

Peak level 99.8 %
Extraction speed 5.0 X
Track quality 100.0 %
Test CRC 9F78B088
Copy CRC 9F78B088
Track not present in AccurateRip database
Copy OK

Track 3

Filename G:\RRC's Rip\03-House Of Ghosts.wav

Pre-gap length 0:00:02.48

Peak level 99.9 %
Extraction speed 5.3 X
Track quality 100.0 %
Test CRC 074726C8
Copy CRC 074726C8
Track not present in AccurateRip database
Copy OK

Track 4

Filename G:\RRC's Rip\04-Around The Universe.wav

Pre-gap length 0:00:01.73

Peak level 99.9 %
Extraction speed 5.9 X
Track quality 100.0 %
Test CRC F28433B2
Copy CRC F28433B2
Track not present in AccurateRip database
Copy OK

Track 5

Filename G:\RRC's Rip\05-Enigma.wav

Pre-gap length 0:00:01.73

Peak level 99.9 %
Extraction speed 6.7 X
Track quality 100.0 %
Test CRC ED90108E
Copy CRC ED90108E
Track not present in AccurateRip database
Copy OK

Track 6

Filename G:\RRC's Rip\06-Mafia Island.wav

Peak level 99.8 %
Extraction speed 7.3 X
Track quality 100.0 %
Test CRC 01316365
Copy CRC 01316365
Track not present in AccurateRip database
Copy OK

Track 7

Filename G:\RRC's Rip\07-A Handful Of Darkness.wav

Pre-gap length 0:00:01.73

Peak level 99.8 %
Extraction speed 8.0 X
Track quality 100.0 %
Test CRC 979994BD
Copy CRC 979994BD
Track not present in AccurateRip database
Copy OK

Track 8

Filename G:\RRC's Rip\08-Sexyland.wav

Pre-gap length 0:00:08.44

Peak level 99.9 %
Extraction speed 7.7 X
Track quality 100.0 %
Test CRC 375AE42E
Copy CRC 375AE42E
Track not present in AccurateRip database
Copy OK

Track 9

Filename G:\RRC's Rip\09-Rendezvoyeur.wav

Pre-gap length 0:00:01.68

Peak level 99.8 %
Extraction speed 8.1 X
Track quality 100.0 %
Test CRC 388B9D02
Copy CRC 388B9D02
Track not present in AccurateRip database
Copy OK

Track 10

Filename G:\RRC's Rip\10-Nevermore.wav

Pre-gap length 0:00:01.68

Peak level 100.0 %
Extraction speed 7.2 X
Track quality 99.9 %
Test CRC 60B0C624
Copy CRC 60B0C624
Track not present in AccurateRip database
Copy OK

Track 11

Filename G:\RRC's Rip\11-Fever!.wav

Peak level 99.9 %
Extraction speed 8.5 X
Track quality 100.0 %
Test CRC CD2527BD
Copy CRC CD2527BD
Track not present in AccurateRip database
Copy OK

Track 12

Filename G:\RRC's Rip\12-Heartbreak City.wav

Pre-gap length 0:00:01.72

Peak level 99.9 %
Extraction speed 7.1 X
Track quality 99.9 %
Test CRC 4288D80C
Copy CRC 4288D80C
Track not present in AccurateRip database
Copy OK

Track 13

Filename G:\RRC's Rip\13-Beyond The Laughing Sky.wav

Pre-gap length 0:00:01.73

Peak level 99.8 %
Extraction speed 9.5 X
Track quality 100.0 %
Test CRC C67EF3A6
Copy CRC C67EF3A6
Track not present in AccurateRip database
Copy OK


None of the tracks are present in the AccurateRip database

No errors occurred

End of status report

–– CUETools DB Plugin V2.1.6

[CTDB TOCID: GAZteidGnjpzhfQOh8CBUZKHGz0-] found
Submit result: GAZteidGnjpzhfQOh8CBUZKHGz0- has been confirmed
Track | CTDB Status
1 | (18/18) Accurately ripped
2 | (18/18) Accurately ripped
3 | (18/18) Accurately ripped
4 | (18/18) Accurately ripped
5 | (18/18) Accurately ripped
6 | (18/18) Accurately ripped
7 | (18/18) Accurately ripped
8 | (18/18) Accurately ripped
9 | (18/18) Accurately ripped
10 | (18/18) Accurately ripped
11 | (18/18) Accurately ripped
12 | (18/18) Accurately ripped
13 | (18/18) Accurately ripped


==== Log checksum E30247FE1DD43285D4A2B69A856BC45DD8C8C98329324182C1F4F78F3B2BD28D ====


[CUETools log; Date: 02.04.2021 12:56:13; Version: 2.1.4]
[AccurateRip ID: 001e7759-0133b60c-9d0ee50d] found.
Track [ CRC | V2 ] Status
01 [a0e62fa7|72ed77b5] (03+43/46) Accurately ripped
02 [ecbdada4|d11df974] (03+43/46) Accurately ripped
03 [59e4a069|295e024e] (03+43/46) Accurately ripped
04 [ce06731b|d14650f6] (03+43/46) Accurately ripped
05 [ec4c034a|81885e3a] (03+43/46) Accurately ripped
06 [f97ab27e|55364fed] (03+43/46) Accurately ripped
07 [f8e57f10|bbba5315] (03+43/46) Accurately ripped
08 [eee8f206|e04be8fe] (03+43/46) Accurately ripped
09 [4257981c|c6b50dda] (03+43/46) Accurately ripped
10 [434c4107|f5bb2f8b] (03+43/46) Accurately ripped
11 [1d388f59|f07d6b7c] (03+43/46) Accurately ripped
12 [d0c46814|b5717fc8] (03+43/46) Accurately ripped
13 [328d6065|a313dc27] (03+43/46) Accurately ripped

Track Peak [ CRC32 ] [W/O NULL] [ LOG ]
– 100,0 [534BD1D4] [F303E58D]
01 99,9 [51B52DD3] [051A92C3] CRC32
02 99,8 [9F78B088] [9974FFC9] CRC32
03 99,9 [074726C8] [CDEF18BB] CRC32
04 99,9 [F28433B2] [ADF08246] CRC32
05 99,9 [ED90108E] [C2F61F7C] CRC32
06 99,8 [01316365] [3B0428E3] CRC32
07 99,8 [979994BD] [BC6414EF] CRC32
08 99,9 [375AE42E] [DA68762F] CRC32
09 99,8 [388B9D02] [1626F941] CRC32
10 100,0 [60B0C624] [0A6E8352] CRC32
11 99,9 [CD2527BD] [EC94532B] CRC32
12 99,9 [4288D80C] [AAE5A1EC] CRC32
13 99,8 [C67EF3A6] [B900EF2A] CRC32


Alphaville: Collection (1984 - 2018) [9CD, 2DVD, HDTV]

Tracklist DVD1. 1989 - The Breathtaking Blue Songlines:

01. FOR A MILLION
02. ROMEOS
03. MIDDLE OF THE RIDDLE
04. HEAVEN OR HELL
05. ARIANA
06. SHE FADES AWAY
07. SUMMER RAIN
08. MYSTERIES OF LOVE
09. PATRICIA'S PARK
10. ANYWAY (End Title Credits)
11. FOREVER YOUNG (Bonus)

Title: DVD1. 1989 - The Breathtaking Blue Songlines
Size: 3.49 Gb ( 3 659 680,00 KBytes ) - DVD-5
Enabled regions: 1, 2, 3, 4, 5, 6, 7, 8

VTS_01 :
Play Length: 00:49:37
Video: PAL 4:3 (704x576) VBR
Audio:
Not specified (Dolby AC3, 2 ch)

VTS_02 :
Play Length: 00:03:39
Video: PAL 4:3 (720x576) VBR
Audio:
Not specified (Dolby AC3, 2 ch)


Alphaville: Collection (1984 - 2018) [9CD, 2DVD, HDTV]

Alphaville: Collection (1984 - 2018) [9CD, 2DVD, HDTV]

Alphaville: Collection (1984 - 2018) [9CD, 2DVD, HDTV]

* * * * *

Alphaville: Collection (1984 - 2018) [9CD, 2DVD, HDTV]

Tracklist DVD2. 2010 - Catching Rays On Giant (Deluxe Edition) Bonus DVD:

01 Audiovision (documentation)
02 Audiovision (3D documentation)
03 I Die For You Today (Music Video)

Title: DVD2. 2010 - Catching Rays On Giant (Deluxe Edition) Bonus DVD
Size: 4.02 Gb ( 4 214 490,00 KBytes ) - DVD-5
Enabled regions: 1, 2, 3, 4, 5, 6, 7, 8

VTS_01 :
Play Length: 00:00:20
Video: PAL 16:9 (720x576) VBR, Auto Letterboxed

VTS_02 :
Play Length: 01:10:21
Video: PAL 16:9 (720x576) VBR, Auto Letterboxed
Audio:
Deutsch (Dolby AC3, 2 ch)


Alphaville: Collection (1984 - 2018) [9CD, 2DVD, HDTV]

Alphaville: Collection (1984 - 2018) [9CD, 2DVD, HDTV]

Alphaville: Collection (1984 - 2018) [9CD, 2DVD, HDTV]

* * * * *

Alphaville: Collection (1984 - 2018) [9CD, 2DVD, HDTV]

Tracklist HDTV. 2018 - BR-Radltour Festival:

01. Big In Japan
02. Sounds Like A Melody
03. Forever Young

General
ID : 1 (0x1)
Complete name : F:\Mix\Alphaville\Alphaville Collection\HDTV. 2018 - BR-Radltour Festival\Alphaville - BR-Radltour Festival 2018.ts
Format : MPEG-TS
File size : 1.98 GiB
Duration : 18mn 58s
Overall bit rate mode : Variable
Overall bit rate : 14.9 Mbps

Video
ID : 5201 (0x1451)
Menu ID : 1 (0x1)
Format : AVC
Format/Info : Advanced Video Codec
Format profile : High@L4.0
Format settings, CABAC : Yes
Format settings, ReFrames : 4 frames
Codec ID : 27
Duration : 18mn 58s
Bit rate : 13.7 Mbps
Width : 1 280 pixels
Height : 720 pixels
Display aspect ratio : 16:9
Frame rate : 50.000 fps
Color space : YUV
Chroma subsampling : 4:2:0
Bit depth : 8 bits
Scan type : Progressive
Bits/(Pixel*Frame) : 0.298
Stream size : 1.82 GiB (92%)

Audio
ID : 5206 (0x1456)
Menu ID : 1 (0x1)
Format : AC-3
Format/Info : Audio Coding 3
Mode extension : CM (complete main)
Format settings, Endianness : Big
Codec ID : 6
Duration : 18mn 58s
Bit rate mode : Constant
Bit rate : 448 Kbps
Channel(s) : 2 channels
Channel positions : Front: L R
Sampling rate : 48.0 KHz
Bit depth : 16 bits
Compression mode : Lossy
Stream size : 60.8 MiB (3%)
Language : German

Text
ID : 5204 (0x1454)-100
Menu ID : 1 (0x1)
Format : Teletext
Language : German

Menu
ID : 256 (0x100)
Menu ID : 1 (0x1)
Duration : 18mn 58s
List : 5201 (0x1451) (AVC) / 5206 (0x1456) (AC-3, German) / 5204 (0x1454) ()
Language : / German



Alphaville: Collection (1984 - 2018) [9CD, 2DVD, HDTV]

Alphaville: Collection (1984 - 2018) [9CD, 2DVD, HDTV]

Alphaville: Collection (1984 - 2018) [9CD, 2DVD, HDTV]

All thanks go to the original releasers

Alphaville in my Blog

Download Alphaville: Collection (1984 - 2018):