Subcategories

Amici Voices - Bach: Cantatas Nos. 106 & 182 (2019)

Posted By: ciklon5
Amici Voices - Bach: Cantatas Nos. 106 & 182 (2019)

Amici Voices - Bach: Cantatas Nos. 106 & 182 (2019)
FLAC (image + .cue, log, artwork) | 1:01:46 | 276 Mb
Genre: Classical / Label: Hyperion

Bach may only have been in his early twenties when he wrote it, but Cantata No 106 (the ‘Actus tragicus’) is a profound contemplation of things final; the motet Komm, Jesu, komm occupies similar eschatalogical territory. This is an inspired programme of some of the most moving vocal music ever written.



Track List:
1 Sonatina [2'43]
2 Coro Gottes Zeit ist die allerbeste Zeit [2'02]
3 Arioso Ach, Herr, lehre uns bedenken HIROSHI AMAKO [2'00]
4 Aria Bestelle dein Haus MICHAEL CRADDOCK [1'07]
5 Coro ed Arioso Es ist der alte Bund BETHANY PARTRIDGE [3'24]
6 Aria In deine Hände befehl ich meinen Geist HELEN CHARLSTON [2'17]
7 Arioso con Choral Heute wirst du mit mir im Paradies sein MICHAEL CRADDOCK [3'40]
8 Coro Glorie, Lob, Ehr und Herrlichkeit [3'00]
9 O Gott, du frommer Gott BWV767 Partita VIII TERENCE CHARLSTON organ [2'35]
10 Choral Komm, Jesu, komm, mein Leib ist müde [2'55]
11 Komm, komm, ich will mich dir ergeben [4'54]
12 Aria Drum schließ ich mich in deine Hände [1'29]
13 Sonata [1'46]
14 Coro Himmelskönig, sei willkommen [3'24]
15 Recitativo Siehe, ich komme HENRY HAWKESWORTH [0'38]
16 Aria Starkes Lieben HENRY HAWKESWORTH [2'36]
17 Aria Leget euch dem Heiland unter HELEN CHARLSTON [9'56]
18 Aria Jesu, lass durch Wohl und Weh HIROSHI AMAKO [3'26]
19 Choral Jesu, deine Passion [3'32]
20 Coro So lasset uns gehen in Salem der Freuden! [4'13]

Exact Audio Copy V1.3 from 2. September 2016

EAC extraction logfile from 14. March 2019, 16:41

Amici Voices / Bach - Cantatas BWV 106 & 182

Used drive : ATAPI iHES108 2 Adapter: 1 ID: 0

Read mode : Secure
Utilize accurate stream : Yes
Defeat audio cache : Yes
Make use of C2 pointers : No

Read offset correction : 6
Overread into Lead-In and Lead-Out : No
Fill up missing offset samples with silence : Yes
Delete leading and trailing silent blocks : No
Null samples used in CRC calculations : Yes
Used interface : Native Win32 interface for Win NT & 2000

Used output format : User Defined Encoder
Selected bitrate : 768 kBit/s
Quality : High
Add ID3 tag : No
Command line compressor : C:\Program Files (x86)\Exact Audio Copy 1.3\Flac\flac.exe
Additional command line options : -8 -V -T "ARTIST=%artist%" -T "TITLE=%title%" -T "ALBUM=%albumtitle%" -T "DATE=%year%" -T "TRACKNUMBER=%tracknr%" -T "TOTALTRACKS=%numtracks%" -T "GENRE=%genre%" -T "ALBUMARTIST=%albumartist%" -T "ALBUM ARTIST=%albumartist%" -T "COMMENT=EAC Secure Mode, Test & Copy, AccurateRip, FLAC -8" %source%


TOC of the extracted CD

Track | Start | Length | Start sector | End sector
––––––––––––––––––––––––––––-
1 | 0:00.00 | 2:43.00 | 0 | 12224
2 | 2:43.00 | 2:02.25 | 12225 | 21399
3 | 4:45.25 | 2:00.65 | 21400 | 30464
4 | 6:46.15 | 1:07.43 | 30465 | 35532
5 | 7:53.58 | 3:25.09 | 35533 | 50916
6 | 11:18.67 | 2:16.08 | 50917 | 61124
7 | 13:35.00 | 3:41.72 | 61125 | 77771
8 | 17:16.72 | 3:00.55 | 77772 | 91326
9 | 20:17.52 | 2:35.25 | 91327 | 102976
10 | 22:53.02 | 2:55.35 | 102977 | 116136
11 | 25:48.37 | 4:54.00 | 116137 | 138186
12 | 30:42.37 | 1:29.30 | 138187 | 144891
13 | 32:11.67 | 1:47.00 | 144892 | 152916
14 | 33:58.67 | 3:24.35 | 152917 | 168251
15 | 37:23.27 | 0:38.20 | 168252 | 171121
16 | 38:01.47 | 2:36.30 | 171122 | 182851
17 | 40:38.02 | 9:56.40 | 182852 | 227591
18 | 50:34.42 | 3:26.27 | 227592 | 243068
19 | 54:00.69 | 3:32.00 | 243069 | 258968
20 | 57:32.69 | 4:13.08 | 258969 | 277951


Range status and errors

Selected range

Filename C:\Amici Voices - Bach - Cantatas BWV 106 & 182.wav

Peak level 98.4 %
Extraction speed 7.1 X
Range quality 100.0 %
Test CRC A20EE1F6
Copy CRC A20EE1F6
Copy OK

No errors occurred


AccurateRip summary

Track 1 not present in database
Track 2 not present in database
Track 3 not present in database
Track 4 not present in database
Track 5 not present in database
Track 6 not present in database
Track 7 not present in database
Track 8 not present in database
Track 9 not present in database
Track 10 not present in database
Track 11 not present in database
Track 12 not present in database
Track 13 not present in database
Track 14 not present in database
Track 15 not present in database
Track 16 not present in database
Track 17 not present in database
Track 18 not present in database
Track 19 not present in database
Track 20 not present in database

None of the tracks are present in the AccurateRip database

End of status report

–– CUETools DB Plugin V2.1.6

[CTDB TOCID: el9L9azJ1sSs7OmWMiUeZDk5BrQ-] found
Submit result: el9L9azJ1sSs7OmWMiUeZDk5BrQ- has been confirmed
Track | CTDB Status
1 | (1/1) Accurately ripped
2 | (1/1) Accurately ripped
3 | (1/1) Accurately ripped
4 | (1/1) Accurately ripped
5 | (1/1) Accurately ripped
6 | (1/1) Accurately ripped
7 | (1/1) Accurately ripped
8 | (1/1) Accurately ripped
9 | (1/1) Accurately ripped
10 | (1/1) Accurately ripped
11 | (1/1) Accurately ripped
12 | (1/1) Accurately ripped
13 | (1/1) Accurately ripped
14 | (1/1) Accurately ripped
15 | (1/1) Accurately ripped
16 | (1/1) Accurately ripped
17 | (1/1) Accurately ripped
18 | (1/1) Accurately ripped
19 | (1/1) Accurately ripped
20 | (1/1) Accurately ripped


==== Log checksum BA083B9A18CA6AD7CF94ED89422E86F298C69AFC3B5842FDEC2FB727400DABE1 ====