Subcategories

Ana Quintans, Marcello di Lisa, Concerto de'Cavalieri - Albinoni: Opera Arias and Instrumental Music (2015)

Posted By: ArlegZ
Ana Quintans, Marcello di Lisa, Concerto de'Cavalieri - Albinoni: Opera Arias and Instrumental Music (2015)

Ana Quintans, Marcello di Lisa, Concerto de'Cavalieri - Albinoni: Opera Arias and Instrumental Music (2015)
EAC | FLAC | Image (Cue & Log) ~ 345 Mb | Total time: 55:42 | Scans included
Classical | Label: Deutsche Harmonia Mundi | # 88875081922 | Recorded: 2013

The Baroque Project, Vol. IV. Tomasi Albinoni. Opera Arias and Instrumental Music. Ana Quintans, soprano. Concerto de’Cavalieri. Marcello Di Lisa, conductor. Containing nine world premiere recordings, the fourth volume of The Baroque Project focuses once again on Venice, this time with the music of Tomaso Albinoni. Concertos and rare arias from Albinoni’s forgotten operas are performed with incredible energy and imagination by Marcello Di Lisa and his Concerto de’Cavalieri on period instruments. The featured soloist is the Portuguese soprano Ana Quintans, widely considered one of the leading baroque singers of our time.

Performer:
Ana Quintans, soprano
Concerto de'Cavalieri
Marcello di Lisa, conductor

Track List:
Zenobia Regina de' Palmireni: Sinfonia
01. I. Allegro
02. II. Grave - Presto - Adagio
03. III. Allegro
04. La statira: Vien con nuova e orribil guerra
05. L' incostanza schernita: Quel sembiante e quel bel volto
Concerto a cinque in A minor, Op. 5, No. 5
06. I. Allegro
07. II. Adagio
08. III. Allegro
09. L'Eraclea: Ristoro degli afflitti
10. L'Eraclea: Se premio alla costanza
11. L'Eraclea: Il mio crin su l'alto soglio
12. Le gare generose: La mia gloria e l'amor mio
13. Le gare generose: La mia sorte vo' conoscere
14. Le gare generose: Vedrem se possa mio brando invitto
Sinfonia in G minor, T.Si 7
15. I. Allegro
16. II. Adagio
17. III. Allegro
18. Ardelinda: Se avessi più d'un core
19. Ardelinda: Doppo tetra e tenebrosa


Exact Audio Copy V1.3 from 2. September 2016

EAC extraction logfile from 16. July 2019, 17:33

Anna Quintans, Marcello di Lisa, Concerto de' Cavalieri / Albinoni - Opera Arias and Instrumental Music

Used drive : HL-DT-STDVDRAM GH24NS95 Adapter: 1 ID: 0

Read mode : Secure
Utilize accurate stream : Yes
Defeat audio cache : Yes
Make use of C2 pointers : No

Read offset correction : 6
Overread into Lead-In and Lead-Out : No
Fill up missing offset samples with silence : Yes
Delete leading and trailing silent blocks : No
Null samples used in CRC calculations : Yes
Used interface : Native Win32 interface for Win NT & 2000

Used output format : User Defined Encoder
Selected bitrate : 128 kBit/s
Quality : High
Add ID3 tag : No
Command line compressor : C:\Program Files\Exact Audio Copy\FLAC\FLAC.EXE
Additional command line options : -V -8 -T "Date=%year%" -T "Genre=%genre%" %source%


TOC of the extracted CD

Track | Start | Length | Start sector | End sector
––––––––––––––––––––––––––––-
1 | 0:00.00 | 1:08.27 | 0 | 5126
2 | 1:08.27 | 1:52.46 | 5127 | 13572
3 | 3:00.73 | 0:48.15 | 13573 | 17187
4 | 3:49.13 | 4:44.41 | 17188 | 38528
5 | 8:33.54 | 8:07.69 | 38529 | 75122
6 | 16:41.48 | 1:45.02 | 75123 | 82999
7 | 18:26.50 | 2:38.47 | 83000 | 94896
8 | 21:05.22 | 1:37.08 | 94897 | 102179
9 | 22:42.30 | 2:30.36 | 102180 | 113465
10 | 25:12.66 | 2:45.20 | 113466 | 125860
11 | 27:58.11 | 1:58.32 | 125861 | 134742
12 | 29:56.43 | 3:10.18 | 134743 | 149010
13 | 33:06.61 | 5:06.06 | 149011 | 171966
14 | 38:12.67 | 2:53.67 | 171967 | 185008
15 | 41:06.59 | 1:56.64 | 185009 | 193772
16 | 43:03.48 | 1:00.63 | 193773 | 198335
17 | 44:04.36 | 1:47.22 | 198336 | 206382
18 | 45:51.58 | 5:52.23 | 206383 | 232805
19 | 51:44.06 | 3:57.73 | 232806 | 250653


Range status and errors

Selected range

Filename C:\Program Files\Exact Audio Copy\Flac\Albinoni - Opera Arias and Instrumental Music.wav

Peak level 100.0 %
Extraction speed 7.7 X
Range quality 100.0 %
Test CRC D173683C
Copy CRC D173683C
Copy OK

No errors occurred

End of status report

==== Log checksum 5FEDC154CC1F22B824AC6F03D5AE2808AA1F9636AF1DAC226797DCAB47EE955B ====

Ana Quintans, Marcello di Lisa, Concerto de'Cavalieri - Albinoni: Opera Arias and Instrumental Music (2015)