Subcategories

André Rieu - Christmas In London (2016) [BDRip 720p]

Posted By: v3122
André Rieu - Christmas In London (2016) [BDRip 720p]

André Rieu - Christmas In London (2016)
MKV: MPEG4 Video (H264) 1280x720 29.97fps | DTS 6ch, 1 509 Kbps
Classic, Neoclassic | 01:27:09 | ~ 4.61 Gb

Live performance by Dutch violinist and composer André Rieu recorded in London in 2015. Rieu is joined on stage by the Johann Strauss Orchestra to play a selection of festive songs including 'White Christmas', 'We Wish You a Merry Christmas' and 'Jingle Bells'…

~ amazon
André Rieu - Christmas In London (2016):

Tracklist:

Introduction: Winter Wonderland, Talk Andre
01. Seventy – Six Trombones
02. Skater’s Waltz, ARV_11
03. Concerto de Aranjuez
04. Circus Renz, ARV_09 / Wooden Heart
05. The Pearl Fishers’ Duet
06. The Holy City, ARV_11
07. Sleigh Ride
08. O Holy Night, ARV_11
09. Hallelujah, ARV_10
10. Snowwaltz
11. This land is mine
12. Radetzkymarch, ARV_15
13. White Christmas, ARV_11
14. Jingle Bells, ARV_15
15. Hallelujah
16. Amazing Grace, ARV_15
17. Adieu, little captain of my heart
18. We wish you a merry Christmas, ARV_15
19. We’ll meet again
Post-script: We wish you a merry Christmas, ARV_1 -Reactions Audience – Christmas Greetings Andre

General
Unique ID : 245647642686096725439902135493369348346 (0xB8CE03DC656CC2069494E943AD2940FA)
Complete name : G:\UP\Mix\Andre Rieu - Christmas In London 2016\Andre Rieu - Christmas In London 2016.mkv
Format : Matroska
Format version : Version 4 / Version 2
File size : 4.37 GiB
Duration : 1h 27mn
Overall bit rate : 7 183 Kbps
Encoded date : UTC 2016-12-08 15:46:16
Writing application : mkvmerge v9.4.2 ('So High') 64bit
Writing library : libebml v1.3.4 + libmatroska v1.4.5
DURATION : 01:26:39.660000000
NUMBER_OF_FRAMES : 231
NUMBER_OF_BYTES : 10202
_STATISTICS_WRITING_APP : mkvmerge v9.4.2 ('So High') 64bit
_STATISTICS_WRITING_DATE_UTC : 2016-12-08 15:46:16
_STATISTICS_TAGS : BPS DURATION NUMBER_OF_FRAMES NUMBER_OF_BYTES

Video
ID : 1
Format : AVC
Format/Info : Advanced Video Codec
Format profile : High@L4.1
Format settings, CABAC : Yes
Format settings, ReFrames : 5 frames
Codec ID : V_MPEG4/ISO/AVC
Duration : 1h 27mn
Bit rate : 5 670 Kbps
Width : 1 280 pixels
Height : 720 pixels
Display aspect ratio : 16:9
Frame rate mode : Constant
Frame rate : 29.970 fps
Color space : YUV
Chroma subsampling : 4:2:0
Bit depth : 8 bits
Scan type : Progressive
Bits/(Pixel*Frame) : 0.205
Stream size : 3.37 GiB (77%)
Title : English
Writing library : x264 core 148 r2744 b97ae06
Encoding settings : cabac=1 / ref=5 / deblock=1:0:0 / analyse=0x3:0x113 / me=hex / subme=8 / psy=1 / psy_rd=1.00:0.00 / mixed_ref=1 / me_range=16 / chroma_me=1 / trellis=2 / 8x8dct=1 / cqm=0 / deadzone=21,11 / fast_pskip=1 / chroma_qp_offset=-2 / threads=12 / lookahead_threads=2 / sliced_threads=0 / nr=0 / decimate=1 / interlaced=0 / bluray_compat=0 / constrained_intra=0 / bframes=3 / b_pyramid=2 / b_adapt=1 / b_bias=0 / direct=3 / weightb=1 / open_gop=0 / weightp=2 / keyint=240 / keyint_min=24 / scenecut=40 / intra_refresh=0 / rc_lookahead=50 / rc=2pass / mbtree=1 / bitrate=5670 / ratetol=1.0 / qcomp=0.60 / qpmin=0 / qpmax=69 / qpstep=4 / cplxblur=20.0 / qblur=0.5 / ip_ratio=1.40 / aq=1:1.00
Language : English
Default : Yes
Forced : No
DURATION : 01:27:09.190000000
NUMBER_OF_FRAMES : 156719
NUMBER_OF_BYTES : 3706731303
_STATISTICS_WRITING_APP : mkvmerge v9.4.2 ('So High') 64bit
_STATISTICS_WRITING_DATE_UTC : 2016-12-08 15:46:16
_STATISTICS_TAGS : BPS DURATION NUMBER_OF_FRAMES NUMBER_OF_BYTES

Audio
ID : 2
Format : DTS
Format/Info : Digital Theater Systems
Mode : 16
Format settings, Endianness : Big
Codec ID : A_DTS
Duration : 1h 27mn
Bit rate mode : Constant
Bit rate : 1 509 Kbps
Channel(s) : 6 channels
Channel positions : Front: L C R, Side: L R, LFE
Sampling rate : 48.0 KHz
Bit depth : 24 bits
Compression mode : Lossy
Stream size : 941 MiB (21%)
Title : English
Language : English
Default : Yes
Forced : No

Text
ID : 3
Format : UTF-8
Codec ID : S_TEXT/UTF8
Codec ID/Info : UTF-8 Plain Text
Title : Dutch
Language : Dutch
Default : Yes
Forced : No


André Rieu - Christmas In London (2016) [BDRip 720p]

André Rieu - Christmas In London (2016) [BDRip 720p]

André Rieu - Christmas In London (2016) [BDRip 720p]

André Rieu - Christmas In London (2016) [BDRip 720p]

André Rieu - Christmas In London (2016) [BDRip 720p]

André Rieu - Christmas In London (2016) [BDRip 720p]

André Rieu - Christmas In London (2016) [BDRip 720p]

All thanks go to meloman67

Download André Rieu - Christmas In London (2016):