Subcategories

Andre Rieu, Johann Strauss Orchestra - Falling in Love in Maastricht (2016) [Blu-Ray]

Posted By: Vilboa
Andre Rieu, Johann Strauss Orchestra - Falling in Love in Maastricht (2016) [Blu-Ray]

André Rieu, Johann Strauss Orchestra - Falling in Love in Maastricht (2016) [Blu-Ray]
BluRay | BDMV | MPEG-4 AVC Video / 29000 kbps / 1080i / 29,970 fps | 151 min | 41,2 Gb
Audio1: LPCM Audio / 2.0 / 24-bit | Audio2: DTS-HD Master Audio / 5.1 / 48 kHz / 5168 kbps / 24-bit

BluRay-rip | AVC | MKV 1920x1080 / 6215 kbps / 29,970 fps | 151 min | 8,24 Gb
Audio: DTS / 6ch / 48.0 KHz / 24 bits
Classical | Universal Music | Sub: French, Spanish, English, German, Portuguese, Dutch

André Rieu Falling In Love In Maastricht DVD. He's known to millions as ‘The King of Waltz’, André Rieu is one of the world’s most popular music artists. His legendary annual Maastricht concert is the most eagerly anticipated cinema event of the year, last year setting new box-office records in several countries.Set against the stunning medieval backdrop of the town square in André’s Dutch hometown, the spectacular Maastricht concert features the maestro in his element, along with his world-famous 60-piece Johann Strauss Orchestra.

Cast:
Donij van Doorn
Mirusia Louwerse
Carmen Monarcha
Lou Bega
The Platin Tenors:
Gary Bennett
Béla Mavrák
Eric Redett
Johann Strauss Orchestra
André Rieu, conductor & violin

Track List:
1. Seventy – Six Trombones
2. Dark Eyes
3. Those Were The Days (Dorogoi Dlinnoyu)
4. Skater’s Waltz, ARV_11
5. Maria Mari!
6. Torna a Soriento
7. E lucevan le stelle
8. Salomé
9. Sabre Dance
10. The Red Rose Café
11. My Fair Lady
12. On My Lips Every Kiss Is Like Wine
13. Trumpet Voluntary
14. Lara’s Theme (from Dr. Zhivago)
15. Light Cavalry
16. O mio babbino caro, ARV_15
17. Poliushko Polie
18. Somewhere Over The Rainbow
19. The Beautiful Blue Danube, ARV_15
20. Boléro
21. Radetzky March, ARV_15
22. Strauss & Co, ARV_15
23. Libiamo, ARV_10
24. Auld Lang Syne, ARV_16
25. Maastricht Anthem, ARV_09
26. Maastricht, City Of Jolly Singers
27. Mambo Nr. 5
28. Tutti Frutti
29. Can’t Help Falling In Love
30. Beer Barrel Polka
31. Adieu, little captain of my heart
32. Marina


Disc Title: RIEU FALLING IN LOVE
Disc Size: 44 245 384 182 bytes
Protection: AACS
BD-Java: No
Playlist: 00003.MPLS
Size: 43 771 619 328 bytes
Length: 2:31:45.563
Total Bitrate: 38,46 Mbps
Video: MPEG-4 AVC Video / 29000 kbps / 1080i / 29,970 fps / 16:9 / High Profile 4.1
Audio: Undetermined / LPCM Audio / 2.0 / 48 kHz / 2304 kbps / 24-bit
Audio: Undetermined / DTS-HD Master Audio / 5.1 / 48 kHz / 5168 kbps / 24-bit (DTS Core: 5.1 / 48 kHz / 1509 kbps / 24-bit)
Subtitle: French / 4,906 kbps
Subtitle: Spanish / 4,633 kbps
Subtitle: English / 0,474 kbps
Subtitle: German / 5,201 kbps
Subtitle: Portuguese / 4,744 kbps
Subtitle: Dutch / 4,457 kbps


General
Unique ID : 203944722284342884725634379481614307403 (0x996E5323C7C7DC68AFF11D13CB1ED04B)
Complete name : C:\Falling_in_Love.mkv
Format : Matroska
Format version : Version 2
File size : 8.25 GiB
Duration : 2h 31mn
Overall bit rate : 7 782 Kbps
Movie name : RIEU_Falling_in_Love_t00
Encoded date : UTC 2017-11-05 13:39:21
Writing application : DVDFab 9.1.6.8
Writing library : libebml v0.7.8 + libmatroska v0.8.1

Video
ID : 1
Format : AVC
Format/Info : Advanced Video Codec
Format profile : High@L4.1
Format settings, CABAC : Yes
Format settings, ReFrames : 2 frames
Codec ID : V_MPEG4/ISO/AVC
Duration : 2h 31mn
Bit rate : 6 215 Kbps
Width : 1 920 pixels
Height : 1 080 pixels
Display aspect ratio : 16:9
Frame rate mode : Constant
Frame rate : 29.970 fps
Color space : YUV
Chroma subsampling : 4:2:0
Bit depth : 8 bits
Scan type : Progressive
Bits/(Pixel*Frame) : 0.100
Stream size : 6.49 GiB (79%)
Writing library : x264 core 142
Encoding settings : cabac=1 / ref=1 / deblock=1:-1:-1 / analyse=0x3:0 / me=hex / subme=5 / psy=0 / mixed_ref=0 / me_range=16 / chroma_me=1 / trellis=0 / 8x8dct=1 / cqm=0 / deadzone=21,11 / fast_pskip=1 / chroma_qp_offset=0 / threads=8 / lookahead_threads=2 / sliced_threads=0 / nr=0 / decimate=1 / interlaced=0 / bluray_compat=0 / constrained_intra=0 / bframes=2 / b_pyramid=0 / b_adapt=1 / b_bias=0 / direct=1 / weightb=1 / open_gop=0 / weightp=0 / keyint=24 / keyint_min=13 / scenecut=40 / intra_refresh=0 / rc=abr / mbtree=0 / bitrate=6215 / ratetol=1.0 / qcomp=0.60 / qpmin=0 / qpmax=69 / qpstep=4 / ip_ratio=1.40 / pb_ratio=1.30 / aq=1:1.00
Default : Yes
Forced : No
Color primaries : BT.709
Transfer characteristics : BT.709
Matrix coefficients : BT.709
Color range : Limited

Audio
ID : 2
Format : DTS
Format/Info : Digital Theater Systems
Mode : 16
Format settings, Endianness : Big
Codec ID : A_DTS
Duration : 2h 31mn
Bit rate mode : Constant
Bit rate : 1 509 Kbps
Channel(s) : 6 channels
Channel positions : Front: L C R, Side: L R, LFE
Sampling rate : 48.0 KHz
Bit depth : 24 bits
Compression mode : Lossy
Stream size : 1.60 GiB (19%)
Default : Yes
Forced : No

Text #1
ID : 3
Format : VobSub
Codec ID : S_VOBSUB
Codec ID/Info : The same subtitle format used on DVDs
Language : French
Default : Yes
Forced : No

Text #2
ID : 4
Format : VobSub
Codec ID : S_VOBSUB
Codec ID/Info : The same subtitle format used on DVDs
Language : Spanish
Default : No
Forced : No

Text #3
ID : 5
Format : VobSub
Codec ID : S_VOBSUB
Codec ID/Info : The same subtitle format used on DVDs
Language : English
Default : No
Forced : No

Text #4
ID : 6
Format : VobSub
Codec ID : S_VOBSUB
Codec ID/Info : The same subtitle format used on DVDs
Language : German
Default : No
Forced : No

Text #5
ID : 7
Format : VobSub
Codec ID : S_VOBSUB
Codec ID/Info : The same subtitle format used on DVDs
Language : Portuguese
Default : No
Forced : No

Text #6
ID : 8
Format : VobSub
Codec ID : S_VOBSUB
Codec ID/Info : The same subtitle format used on DVDs
Language : Dutch
Default : No
Forced : No

Menu
00:00:00.000 : en:Chapter 01
00:05:17.450 : en:Chapter 02
00:09:18.424 : en:Chapter 03
00:13:20.232 : en:Chapter 04
00:20:46.178 : en:Chapter 05
00:26:10.936 : en:Chapter 06
00:33:01.279 : en:Chapter 07
00:39:18.356 : en:Chapter 08
00:42:31.515 : en:Chapter 09
00:45:28.826 : en:Chapter 10
00:50:27.357 : en:Chapter 11
01:01:03.760 : en:Chapter 12
01:09:22.525 : en:Chapter 13
01:10:59.121 : en:Chapter 14
01:14:13.048 : en:Chapter 15
01:17:22.404 : en:Chapter 16
01:23:42.584 : en:Chapter 17
01:29:24.992 : en:Chapter 18
01:35:54.448 : en:Chapter 19
01:46:58.945 : en:Chapter 20
01:54:27.527 : en:Chapter 21
01:56:35.355 : en:Chapter 22
02:00:31.691 : en:Chapter 23
02:04:53.419 : en:Chapter 24
02:07:45.958 : en:Chapter 25
02:09:44.676 : en:Chapter 26
02:12:32.778 : en:Chapter 27
02:16:10.862 : en:Chapter 28
02:20:00.258 : en:Chapter 29
02:23:06.377 : en:Chapter 30
02:25:27.718 : en:Chapter 31
02:29:48.846 : en:Chapter 32

All screenshots taken from BDRip

Andre Rieu, Johann Strauss Orchestra - Falling in Love in Maastricht (2016) [Blu-Ray]