Subcategories

Andrea Bocelli - Cieli Di Toscana (2001)

Posted By: popsakov
Andrea Bocelli - Cieli Di Toscana (2001)

Andrea Bocelli - Cieli Di Toscana (2001) {Special Edition}
EAC Rip | FLAC (Img) + Cue + Log ~ 393 Mb | MP3 CBR320 ~ 157 Mb
Full Scans (JPG, 600 dpi) ~ 191 Mb | RAR 5% Recovery
Pop, Classical Crossover, Vocal | Sugar Music / Polydor #589 245-2

Cieli di Toscana (Tuscan Skies) is Andrea Bocelli's eighth studio album, released in 2001. Cieli di Toscana sold millions of copies in a few weeks after its release, and quickly become the biggest selling album in the world in 2001, No. 1 on the CNN Worldbeat Global Album Chart.

In the United States, the album peaked at No. 11 on the Billboard 200 chart, with 85,000 units sold in its first week, and blew through 177,000 copies over Christmas week of 2001, Bocelli's best sales week in America, at the time. That record stood for the following 8 years, until My Christmas, Bocelli's first Holiday album, was released in late 2009 and achieved better sales weeks.

The album topped the charts in Sweden and the Netherlands, and reached the top 3 in at least 8 other countries, including the UK, where it spent two weeks at No. 3 on the albums chart, Bocelli's highest chart position in the country to date, and the highest chart position ever for a foreign-language pop album.
~ Wiki

***************

Andrea Bocelli - Cieli Di Toscana (2001)

Andrea Bocelli - Cieli Di Toscana (2001)

Track List:

01. Melodramma [0:04:09.61]
02. Mille Luna Mille Onde [0:04:00.68]
03. E Sara' A Settembre (Someone Like You) [0:05:05.70]
04. Chiara [0:04:03.67]
05. Mascagni [0:04:12.34]
06. Resta Qui [0:04:10.29]
07. Il Mistero Dell'Amore [0:04:29.68]
08. Se La Gente Usasse Il Cuore [0:05:00.30]
09. Si Voltò [0:04:07.07]
10. L'Abitudine (featuring Helena) [0:04:22.70]
11. L'Incontro (introduction poem recited by Bono) [0:04:52.48]
12. E Mi Manchi Tu [0:05:03.07]
13. Il Diavolo E L'Angelo [0:04:03.64]
14. L'Ultimo Re [0:03:48.22]

Bonus Track
15. Tornerà La Neve [0:04:05.47]
16. DATA - Melodramma video [0:05:05.24]

Exact Audio Copy V1.3 from 2. September 2016

EAC extraction logfile from 15. September 2017, 20:20

Andrea Bocelli / Cieli Di Toscana

Used drive : ATAPI iHAS124 D Adapter: 0 ID: 2

Read mode : Secure
Utilize accurate stream : Yes
Defeat audio cache : Yes
Make use of C2 pointers : No

Read offset correction : 6
Overread into Lead-In and Lead-Out : No
Fill up missing offset samples with silence : Yes
Delete leading and trailing silent blocks : No
Null samples used in CRC calculations : Yes
Used interface : Installed external ASPI interface

Used output format : User Defined Encoder
Selected bitrate : 1024 kBit/s
Quality : High
Add ID3 tag : No
Command line compressor : C:\Program Files (x86)\Exact Audio Copy\Flac\flac.exe
Additional command line options : -6 -V -T "ARTIST=%artist%" -T "TITLE=%title%" -T "ALBUM=%albumtitle%" -T "DATE=%year%" -T "TRACKNUMBER=%tracknr%" -T "GENRE=%genre%" -T "COMMENT=%comment%" -T "BAND=%albuminterpret%" -T "ALBUMARTIST=%albuminterpret%" -T "COMPOSER=%composer%" %haslyrics%–tag-from-file=LYRICS="%lyricsfile%"%haslyrics% -T "DISCNUMBER=%cdnumber%" -T "TOTALDISCS=%totalcds%" -T "TOTALTRACKS=%numtracks%" %hascover%–picture="%coverfile%"%hascover% %source% -o %dest%


TOC of the extracted CD

Track | Start | Length | Start sector | End sector
––––––––––––––––––––––––––––-
1 | 0:00.00 | 4:09.61 | 0 | 18735
2 | 4:09.61 | 4:00.68 | 18736 | 36803
3 | 8:10.54 | 5:05.70 | 36804 | 59748
4 | 13:16.49 | 4:03.67 | 59749 | 78040
5 | 17:20.41 | 4:12.34 | 78041 | 96974
6 | 21:33.00 | 4:10.29 | 96975 | 115753
7 | 25:43.29 | 4:29.68 | 115754 | 135996
8 | 30:13.22 | 5:00.30 | 135997 | 158526
9 | 35:13.52 | 4:07.07 | 158527 | 177058
10 | 39:20.59 | 4:22.70 | 177059 | 196778
11 | 43:43.54 | 4:52.48 | 196779 | 218726
12 | 48:36.27 | 5:03.07 | 218727 | 241458
13 | 53:39.34 | 4:03.64 | 241459 | 259747
14 | 57:43.23 | 3:48.22 | 259748 | 276869
15 | 61:31.45 | 4:05.47 | 276870 | 295291
16 | 68:09.17 | 5:05.24 | 306692 | 329590


Range status and errors

Selected range

Filename C:\mm\Andrea Bocelli\2001 - Cieli Di Toscana [589 245-2]\Andrea Bocelli - Cieli Di Toscana.wav

Peak level 100.0 %
Extraction speed 9.1 X
Range quality 99.9 %
Test CRC 3C68B563
Copy CRC 3C68B563
Copy OK

No errors occurred


AccurateRip summary

Track 1 accurately ripped (confidence 49) [A7EDC600] (AR v2)
Track 2 accurately ripped (confidence 49) [6A94CD93] (AR v2)
Track 3 accurately ripped (confidence 49) [7B88C1C3] (AR v2)
Track 4 accurately ripped (confidence 49) [69354630] (AR v2)
Track 5 accurately ripped (confidence 49) [CB7A2AFF] (AR v2)
Track 6 accurately ripped (confidence 49) [AE60124A] (AR v2)
Track 7 accurately ripped (confidence 48) [A7AE8221] (AR v2)
Track 8 accurately ripped (confidence 48) [17EE9DBC] (AR v2)
Track 9 accurately ripped (confidence 49) [9F69BE73] (AR v2)
Track 10 accurately ripped (confidence 49) [91730BAB] (AR v2)
Track 11 accurately ripped (confidence 49) [98EE451F] (AR v2)
Track 12 accurately ripped (confidence 48) [B5678858] (AR v2)
Track 13 accurately ripped (confidence 49) [31930C41] (AR v2)
Track 14 accurately ripped (confidence 49) [32933EED] (AR v2)
Track 15 accurately ripped (confidence 48) [01591A65] (AR v2)

All tracks accurately ripped

End of status report

–– CUETools DB Plugin V2.1.6

[CTDB TOCID: zwd940Ke9pGxx_s4vqN_QOkd5as-] found
Submit result: zwd940Ke9pGxx_s4vqN_QOkd5as- has been confirmed
Track | CTDB Status
1 | (68/69) Accurately ripped, or (1/69) differs in 25872 samples @00:03:70-00:04:17
2 | (69/69) Accurately ripped
3 | (55/69) Accurately ripped
4 | (69/69) Accurately ripped
5 | (69/69) Accurately ripped
6 | (69/69) Accurately ripped
7 | (69/69) Accurately ripped
8 | (69/69) Accurately ripped
9 | (68/69) Accurately ripped
10 | (68/69) Accurately ripped
11 | (55/69) Accurately ripped
12 | (69/69) Accurately ripped
13 | (69/69) Accurately ripped
14 | (69/69) Accurately ripped
15 | (69/69) Accurately ripped

foobar2000 1.2.6 / Dynamic Range Meter 1.1.1
log date: 2017-09-17 11:29:19

––––––––––––––––––––––––––––––––––––––––
Analyzed: Andrea Bocelli / Cieli Di Toscana
––––––––––––––––––––––––––––––––––––––––

DR Peak RMS Duration Track
––––––––––––––––––––––––––––––––––––––––
DR8 0.00 dB -11.36 dB 4:10 01-Melodramma
DR7 0.00 dB -9.24 dB 4:01 02-Mille Luna Mille Onde
DR10 -0.10 dB -13.89 dB 5:06 03-E Sara' A Settembre (Someone Like You)
DR11 -0.30 dB -14.93 dB 4:04 04-Chiara
DR9 0.00 dB -12.26 dB 4:12 05-Mascagni
DR10 -0.30 dB -14.99 dB 4:10 06-Resta Qui
DR9 0.00 dB -10.71 dB 4:30 07-Il Mistero Dell'Amore
DR8 -0.30 dB -13.00 dB 5:00 08-Se La Gente Usasse Il Cuore
DR11 -0.83 dB -15.69 dB 4:07 09-Si Volto
DR9 0.00 dB -11.63 dB 4:23 10-L'Abitudine (featuring Helena)
DR9 -0.10 dB -12.79 dB 4:53 11-L'Incontro (introduction poem recited by Bono)
DR9 -0.30 dB -14.45 dB 5:03 12-E Mi Manchi Tu
DR9 -0.10 dB -11.14 dB 4:04 13-Il Diavolo E L'Angelo
DR8 -0.10 dB -13.11 dB 3:48 14-L'Ultimo Re
DR10 -0.30 dB -14.28 dB 4:06 15-Tornera La Neve
––––––––––––––––––––––––––––––––––––––––

Number of tracks: 15
Official DR value: DR9

Samplerate: 44100 Hz
Channels: 2
Bits per sample: 16
Bitrate: 799 kbps
Codec: FLAC
================================================================================

[CUETools log; Date: 17.09.2017 11:29:32; Version: 2.1.5]
CD-Extra data track length 05:05:24.
[CTDB TOCID: zwd940Ke9pGxx_s4vqN_QOkd5as-] found.
Track | CTDB Status
1 | (69/70) Accurately ripped, or (1/70) differs in 25872 samples @00:03:70-00:04:17
2 | (70/70) Accurately ripped
3 | (56/70) Accurately ripped
4 | (70/70) Accurately ripped
5 | (70/70) Accurately ripped
6 | (70/70) Accurately ripped
7 | (70/70) Accurately ripped
8 | (70/70) Accurately ripped
9 | (69/70) Accurately ripped
10 | (69/70) Accurately ripped
11 | (56/70) Accurately ripped
12 | (70/70) Accurately ripped
13 | (70/70) Accurately ripped
14 | (70/70) Accurately ripped
15 | (70/70) Accurately ripped
[AccurateRip ID: 0024a230-01a2ca01-dd112a10] found.
Track [ CRC | V2 ] Status
01 [38cda596|a7edc600] (24+49/73) Accurately ripped
02 [c76bac12|6a94cd93] (24+49/73) Accurately ripped
03 [2a50b814|7b88c1c3] (23+49/72) Accurately ripped
04 [1b010a97|69354630] (24+49/73) Accurately ripped
05 [42b62a08|cb7a2aff] (24+49/73) Accurately ripped
06 [48a50891|ae60124a] (23+49/72) Accurately ripped
07 [66e1f82d|a7ae8221] (24+48/72) Accurately ripped
08 [1070fd45|17ee9dbc] (24+48/72) Accurately ripped
09 [4722770f|9f69be73] (24+49/73) Accurately ripped
10 [09175917|91730bab] (24+49/73) Accurately ripped
11 [fb1d8c4b|98ee451f] (24+49/73) Accurately ripped
12 [81a3ac2f|b5678858] (24+48/72) Accurately ripped
13 [ec5c14df|31930c41] (24+49/73) Accurately ripped
14 [8b9b35e7|32933eed] (24+49/73) Accurately ripped
15 [2f62f9f6|01591a65] (24+48/72) Accurately ripped
Offsetted by 502:
01 [674ab338] (00/73) No match (V2 was not tested)
02 [365304aa] (00/73) No match (V2 was not tested)
03 [36754054] (00/72) No match (V2 was not tested)
04 [0dcec547] (00/73) No match (V2 was not tested)
05 [2ffc82f4] (00/73) No match (V2 was not tested)
06 [0f4cb3a3] (00/72) No match (V2 was not tested)
07 [929de825] (00/72) No match (V2 was not tested)
08 [8ff90775] (00/72) No match (V2 was not tested)
09 [430b5769] (00/73) No match (V2 was not tested)
10 [e832961b] (00/73) No match (V2 was not tested)
11 [936e9343] (00/73) No match (V2 was not tested)
12 [721dbc7b] (00/72) No match (V2 was not tested)
13 [1fe1f9dd] (00/73) No match (V2 was not tested)
14 [1315389f] (00/73) No match (V2 was not tested)
15 [aab0a1da] (00/72) No match (V2 was not tested)

Track Peak [ CRC32 ] [W/O NULL] [ LOG ]
– 100,0 [3C68B563] [B9CE603C] CRC32
01 100,0 [3F7704F5] [079553BC]
02 100,0 [6BDD77BC] [F567100D]
03 98,8 [F29126ED] [2B6432F7]
04 96,6 [A540536C] [421368C4]
05 100,0 [1FCD0CD5] [4EC2D0C2]
06 96,6 [411C794A] [15EB9DF0]
07 100,0 [19B41250] [3A13046B]
08 96,6 [2A3629E1] [5FCE768F]
09 90,8 [78055BA2] [09CA8078]
10 100,0 [B4025E28] [7BC1AEDB]
11 98,8 [0C0D061E] [FB266C9A]
12 96,6 [B19DD312] [FAAECB7E]
13 98,8 [0A2F6194] [2B40BA77]
14 98,8 [D82B8682] [E1E43089]
15 96,6 [DF18F28B] [7F049FCC]

Andrea Bocelli - Cieli Di Toscana (2001)

All thanks go to sergych

>>> Andrea Bocelli in my Blog <<<

Download from icerbox.com: