Andrea Bocelli - Romanza (1996) [20th Anniversary Edition, 2016]

Posted By: Andi_Deris
Andrea Bocelli - Romanza (1996) [20th Anniversary Edition, 2016]

Andrea Bocelli - Romanza (1996) [20th Anniversary Edition, 2016]
EAC Rip | FLAC: Image+Cue+Log | 471 Mb | MP3 CBR 320 kbps | 187 Mb | Scans | Time: 01:19:19
Sugar S.r.l./Decca | 5724542
Classical Crossover, Operatic Pop, Vocal, Easy Listening

Andrea Bocelli's Romanza is the bestselling classical crossover album of all time, having sold well over 17 million copies globally. To mark 20 years since the album's original release, and the success of 'Con Te Partiro' and 'Time To Say Goodbye' a 20th Anniversary Edition will be released. The original album has been remastered and will now include four bonus tracks.

Andrea Bocelli - Romanza (1996) [20th Anniversary Edition, 2016]




Track Listing

01. Con Te Partirò (04:14)
02. Vivere (feat. Gerardina Trovato) (04:05)
03. Per Amore (04:44)
04. Il Mare Calmo Della Sera (04:41)
05. Caruso (05:20)
06. Macchine Da Guerra (04:12)
07. Le Tue Parole (04:01)
08. Vivo Per Lei (feat. Giorgia) (04:27)
09. Romanza (03:46)
10. La Luna Che Non C'è (04:34)
11. Rapsodia (05:31)
12. Voglio Restare Così (03:55)
13. E Chiove (04:26)
14. Miserere Live (feat. John Miles) (bonus track) (04:20)
15. Time To Say Goodbye (Con Te Partiro) (feat. Sarah Brightman) (04:07)

Bonus Tracks
16. Con Te Partirò (Orchestra 2016 Version) (04:16)
17. Con Te Partirò (Piano & Voice 2016 Version) (04:04)
18. Il Mare Calmo Della Sera (2016 Version) (04:36)

Produced by Mauro Malavasi, Michele Torpedine, Beppe Vessicchio, Celso Valli, Frank Peterson

Notes

© 1997-2016 Sugar Srl ℗ 1997, 2015-2016 Sugar Srl

Exact Audio Copy V1.1 from 23. June 2015

EAC extraction logfile from 20. November 2016, 13:28

Andrea Bocelli / Romanza 20Th Anniversary Edition

Used drive : Pioneer BDR-209DBK Adapter: 0 ID: 0

Read mode : Secure
Utilize accurate stream : Yes
Defeat audio cache : Yes
Make use of C2 pointers : No

Read offset correction : 6
Overread into Lead-In and Lead-Out : No
Fill up missing offset samples with silence : Yes
Delete leading and trailing silent blocks : No
Null samples used in CRC calculations : Yes
Used interface : Installed external ASPI interface

Used output format : Internal WAV Routines
Sample format : 44.100 Hz; 16 Bit; Stereo


TOC of the extracted CD

Track | Start | Length | Start sector | End sector
––––––––––––––––––––––––––––-
1 | 0:00.00 | 4:13.41 | 0 | 19015
2 | 4:13.41 | 4:04.33 | 19016 | 37348
3 | 8:17.74 | 4:44.23 | 37349 | 58671
4 | 13:02.22 | 4:41.23 | 58672 | 79769
5 | 17:43.45 | 5:20.05 | 79770 | 103774
6 | 23:03.50 | 4:11.66 | 103775 | 122665
7 | 27:15.41 | 4:00.38 | 122666 | 140703
8 | 31:16.04 | 4:26.63 | 140704 | 160716
9 | 35:42.67 | 3:45.59 | 160717 | 177650
10 | 39:28.51 | 4:33.72 | 177651 | 198197
11 | 44:02.48 | 5:30.67 | 198198 | 223014
12 | 49:33.40 | 3:54.67 | 223015 | 240631
13 | 53:28.32 | 4:25.57 | 240632 | 260563
14 | 57:54.14 | 4:19.41 | 260564 | 280029
15 | 62:13.55 | 4:07.23 | 280030 | 298577
16 | 66:21.03 | 4:16.05 | 298578 | 317782
17 | 70:37.08 | 4:03.73 | 317783 | 336080
18 | 74:41.06 | 4:36.20 | 336081 | 356800


Range status and errors

Selected range

Filename H:\Spotnet\Andrea Bocelli - Romanza 20Th (EAC)\Andrea Bocelli - Romanza 20Th Anniversary Edition.wav

Peak level 99.2 %
Extraction speed 8.7 X
Range quality 100.0 %
Test CRC 9B58FF6F
Copy CRC 9B58FF6F
Copy OK

No errors occurred


AccurateRip summary

Track 1 not present in database
Track 2 not present in database
Track 3 not present in database
Track 4 not present in database
Track 5 not present in database
Track 6 not present in database
Track 7 not present in database
Track 8 not present in database
Track 9 not present in database
Track 10 not present in database
Track 11 not present in database
Track 12 not present in database
Track 13 not present in database
Track 14 not present in database
Track 15 not present in database
Track 16 not present in database
Track 17 not present in database
Track 18 not present in database

None of the tracks are present in the AccurateRip database

End of status report


Many thanks to the original uploader
–––––––––
Nitroflare