Subcategories

Andrea Bocelli - Sogno (1999) {2015, Reissue, Remastered}

Posted By: popsakov
Andrea Bocelli - Sogno (1999) {2015, Reissue, Remastered}

Andrea Bocelli - Sogno (1999) {2015, Reissue, Remastered}
EAC Rip | FLAC (Img) + Cue + Log ~ 388 Mb | MP3 CBR320 ~ 146 Mb
Scans (JPG, 600 dpi) ~ 117 Mb | RAR 5% Recovery
Classical Crossover, Pop, Vocal | Polydor / Sugar S.r.l. / Universal Music #0602547307965

Sogno consists entirely of new compositions, much of which are deliberately skewed toward the pop audience whom Andrea Bocelli was well on his way to earning in the spring of 1999. In other words, it's an album that seems to be a progression, at least on the surface, but it's also a consolidation of the crossover audience that he wooed over the course of the late '90s. Sogno pulls off that trick, balancing Bocelli's opera background with modern pop and Italian music. That stance alone – finding a middle ground between classical and modern pop music – will alienate the purists (who, truth be told, haven't been all that thrilled with Bocelli in the first place), but this doesn't discredit the music. True, there are moments on Sogno that don't work as well as others, but overall it flows nicely and maintains a fine balance between pieces that suggest opera without actually being opera, and adult contemporary songs such as "Nel Cuore Lei" (a duet with Eros Ramazzotti) or the Celine Dion duet "The Prayer," which was originally featured on the soundtrack for The Quest for Camelot. The most interesting moments are songs like "Come Un Fiume Tu," a collaboration with Ennio Morricone that manages to not only find a middle ground between those two extremes, but to push forward, as well. Songs like these keep Sogno fascinating, but it's the adult contemporary-flavored numbers that stand to bring in a larger, pop-oriented audience, who will then likely explore the rest of Bocelli's catalog. For skeptics, however, the very presence of pop-leaning numbers will confirm their doubts.
~ Stephen Thomas Erlewine, All Music

***************

Andrea Bocelli - Sogno (1999) {2015, Reissue, Remastered}

Andrea Bocelli - Sogno (1999) {2015, Reissue, Remastered}

Track List:

01. Canto Della Terra [0:04:03.43]
02. Andrea Bocelli with Celine Dion / The Prayer [0:04:29.31]
03. Sogno [0:04:05.29]
04. Andrea Bocelli with Dulce Pontes / 'O Mare E Tu [0:04:36.11]
05. A Volte Il Cuore [0:04:43.59]
06. Cantico [0:04:03.72]
07. Mai Piu' Costi' Lontano [0:04:19.43]
08. Immenso [0:04:49.30]
09. Andrea Bocelli with Eros Ramazzotti / Nel Cuore Lei [0:03:46.06]
10. Tremo E T'Amo [0:04:50.49]
11. I Love Rossini [0:03:57.65]
12. Un Canto [0:04:33.23]
13. Come Un Fiume Tu [0:04:46.66]
14. A Mio Padre (6 Maggio 1992) [0:03:57.36]

Exact Audio Copy V1.3 from 2. September 2016

EAC extraction logfile from 13. April 2017, 22:24

Andrea Bocelli / Sogno

Used drive : PLEXTOR DVDR PX-716A Adapter: 1 ID: 0

Read mode : Secure
Utilize accurate stream : Yes
Defeat audio cache : Yes
Make use of C2 pointers : No

Read offset correction : 30
Overread into Lead-In and Lead-Out : No
Fill up missing offset samples with silence : Yes
Delete leading and trailing silent blocks : No
Null samples used in CRC calculations : Yes
Used interface : Native Win32 interface for Win NT & 2000

Used output format : User Defined Encoder
Selected bitrate : 1024 kBit/s
Quality : High
Add ID3 tag : No
Command line compressor : C:\Program Files (x86)\Exact Audio Copy\FLAC\FLAC.EXE
Additional command line options : -6 -V -T "ARTIST=%artist%" -T "TITLE=%title%" -T "ALBUM=%albumtitle%" -T "DATE=%year%" -T "TRACKNUMBER=%tracknr%" -T "GENRE=%genre%" -T "COMMENT=%comment%" -T "BAND=%albuminterpret%" -T "ALBUMARTIST=%albuminterpret%" -T "COMPOSER=%composer%" %haslyrics%–tag-from-file=LYRICS="%lyricsfile%"%haslyrics% -T "DISCNUMBER=%cdnumber%" -T "TOTALDISCS=%totalcds%" -T "TOTALTRACKS=%numtracks%" %hascover%–picture="%coverfile%"%hascover% %source% -o %dest%


TOC of the extracted CD

Track | Start | Length | Start sector | End sector
––––––––––––––––––––––––––––-
1 | 0:00.00 | 4:03.43 | 0 | 18267
2 | 4:03.43 | 4:29.31 | 18268 | 38473
3 | 8:32.74 | 4:05.29 | 38474 | 56877
4 | 12:38.28 | 4:36.11 | 56878 | 77588
5 | 17:14.39 | 4:43.59 | 77589 | 98872
6 | 21:58.23 | 4:03.72 | 98873 | 117169
7 | 26:02.20 | 4:19.43 | 117170 | 136637
8 | 30:21.63 | 4:49.30 | 136638 | 158342
9 | 35:11.18 | 3:46.06 | 158343 | 175298
10 | 38:57.24 | 4:50.49 | 175299 | 197097
11 | 43:47.73 | 3:57.65 | 197098 | 214937
12 | 47:45.63 | 4:33.23 | 214938 | 235435
13 | 52:19.11 | 4:46.66 | 235436 | 256951
14 | 57:06.02 | 3:57.36 | 256952 | 274762


Range status and errors

Selected range

Filename C:\mm\Andrea Bocelli\1999(2015) - Sogno [0602547307965]\Andrea Bocelli - Sogno.wav

Peak level 98.8 %
Extraction speed 13.2 X
Range quality 100.0 %
Test CRC 0302E4C5
Copy CRC 0302E4C5
Copy OK

No errors occurred


AccurateRip summary

Track 1 accurately ripped (confidence 1) [F29C0772] (AR v2)
Track 2 accurately ripped (confidence 1) [014CABC6] (AR v2)
Track 3 accurately ripped (confidence 1) [678371A6] (AR v2)
Track 4 accurately ripped (confidence 1) [D99E1EAB] (AR v2)
Track 5 accurately ripped (confidence 1) [A3654176] (AR v2)
Track 6 accurately ripped (confidence 1) [AED8E423] (AR v2)
Track 7 accurately ripped (confidence 1) [985A6F02] (AR v2)
Track 8 accurately ripped (confidence 1) [996795A4] (AR v2)
Track 9 accurately ripped (confidence 1) [618046A4] (AR v2)
Track 10 accurately ripped (confidence 1) [0A9E4D76] (AR v2)
Track 11 accurately ripped (confidence 1) [D9145550] (AR v2)
Track 12 accurately ripped (confidence 1) [D63F77AE] (AR v2)
Track 13 accurately ripped (confidence 1) [CA37B53A] (AR v2)
Track 14 accurately ripped (confidence 1) [2BF48FFC] (AR v2)

All tracks accurately ripped

End of status report

–– CUETools DB Plugin V2.1.6

[CTDB TOCID: bBkYjTHL8BOcwQoqVG3wtcBYFOs-] found
Submit result: bBkYjTHL8BOcwQoqVG3wtcBYFOs- has been confirmed
Track | CTDB Status
1 | (8/8) Accurately ripped
2 | (8/8) Accurately ripped
3 | (8/8) Accurately ripped
4 | (8/8) Accurately ripped
5 | (8/8) Accurately ripped
6 | (8/8) Accurately ripped
7 | (8/8) Accurately ripped
8 | (8/8) Accurately ripped
9 | (8/8) Accurately ripped
10 | (8/8) Accurately ripped
11 | (8/8) Accurately ripped
12 | (8/8) Accurately ripped
13 | (8/8) Accurately ripped
14 | (8/8) Accurately ripped

foobar2000 1.2.6 / Dynamic Range Meter 1.1.1
log date: 2017-04-14 21:50:53

––––––––––––––––––––––––––––––––––––––––
Analyzed: Andrea Bocelli with Celine Dion / Sogno (1)
Andrea Bocelli with Dulce Pontes / Sogno (2)
Andrea Bocelli with Eros Ramazzotti / Sogno (3)
––––––––––––––––––––––––––––––––––––––––

DR Peak RMS Duration Track
––––––––––––––––––––––––––––––––––––––––
DR8 -0.21 dB -12.01 dB 4:29 02-The Prayer
DR8 -0.10 dB -10.45 dB 4:36 04-'O Mare E Tu
DR8 -0.10 dB -10.65 dB 3:46 09-Nel Cuore Lei
––––––––––––––––––––––––––––––––––––––––

Number of tracks: 3
Official DR value: DR8

Samplerate: 44100 Hz
Channels: 2
Bits per sample: 16
Bitrate: 847 kbps
Codec: FLAC
================================================================================

––––––––––––––––––––––––––––––––––––––––
Analyzed: Andrea Bocelli / Sogno
––––––––––––––––––––––––––––––––––––––––

DR Peak RMS Duration Track
––––––––––––––––––––––––––––––––––––––––
DR7 -0.20 dB -10.07 dB 4:04 01-Canto Della Terra
DR8 -0.20 dB -10.18 dB 4:05 03-Sogno
DR8 -0.16 dB -10.03 dB 4:44 05-A Volte Il Cuore
DR7 -0.19 dB -9.78 dB 4:04 06-Cantico
DR7 -0.20 dB -9.52 dB 4:20 07-Mai Piu' Costi' Lontano
DR7 -0.17 dB -10.55 dB 4:49 08-Immenso
DR7 -0.18 dB -9.69 dB 4:51 10-Tremo E T'Amo
DR7 -0.19 dB -10.24 dB 3:58 11-I Love Rossini
DR7 -0.20 dB -9.54 dB 4:33 12-Un Canto
DR6 -0.19 dB -9.63 dB 4:47 13-Come Un Fiume Tu
DR10 -0.21 dB -12.17 dB 3:57 14-A Mio Padre (6 Maggio 1992)
––––––––––––––––––––––––––––––––––––––––

Number of tracks: 11
Official DR value: DR7

Samplerate: 44100 Hz
Channels: 2
Bits per sample: 16
Bitrate: 847 kbps
Codec: FLAC
================================================================================

[CUETools log; Date: 14.04.2017 21:51:27; Version: 2.1.5]
[CTDB TOCID: bBkYjTHL8BOcwQoqVG3wtcBYFOs-] found.
Track | CTDB Status
1 | (9/9) Accurately ripped
2 | (9/9) Accurately ripped
3 | (9/9) Accurately ripped
4 | (9/9) Accurately ripped
5 | (9/9) Accurately ripped
6 | (9/9) Accurately ripped
7 | (9/9) Accurately ripped
8 | (9/9) Accurately ripped
9 | (9/9) Accurately ripped
10 | (9/9) Accurately ripped
11 | (9/9) Accurately ripped
12 | (9/9) Accurately ripped
13 | (9/9) Accurately ripped
14 | (9/9) Accurately ripped
[AccurateRip ID: 001f620f-014f5eb0-ae0e4f0e] found.
Track [ CRC | V2 ] Status
01 [0a0f2141|f29c0772] (0+1/1) Accurately ripped
02 [30e1905e|014cabc6] (0+1/1) Accurately ripped
03 [70b96d7d|678371a6] (0+1/1) Accurately ripped
04 [d4afe2dc|d99e1eab] (0+1/1) Accurately ripped
05 [5f7da54b|a3654176] (0+1/1) Accurately ripped
06 [ac3d1010|aed8e423] (0+1/1) Accurately ripped
07 [3dcfd0ad|985a6f02] (0+1/1) Accurately ripped
08 [6f9d61e9|996795a4] (0+1/1) Accurately ripped
09 [14466c9f|618046a4] (0+1/1) Accurately ripped
10 [011db5b8|0a9e4d76] (0+1/1) Accurately ripped
11 [e0c7686f|d9145550] (0+1/1) Accurately ripped
12 [24d551ab|d63f77ae] (0+1/1) Accurately ripped
13 [dc1c9b18|ca37b53a] (0+1/1) Accurately ripped
14 [f766d505|2bf48ffc] (0+1/1) Accurately ripped

Track Peak [ CRC32 ] [W/O NULL] [ LOG ]
– 98,8 [0302E4C5] [5E8122B6] CRC32
01 97,7 [07CA0102] [6FC83723]
02 97,6 [65829D97] [F244E866]
03 97,7 [54419F56] [E5597709]
04 98,8 [061A9B6C] [5EB47584]
05 98,1 [7A90FE71] [523424C2]
06 97,7 [A94C494C] [6B447D12]
07 97,7 [55236482] [72680084]
08 98,0 [B9A8BA6C] [F832528E]
09 98,8 [F1C93DBD] [88F4EDD0]
10 97,9 [BA46EB8F] [01BAE955]
11 97,8 [1E4987E7] [DD32C902]
12 97,7 [15ACC24A] [92348DEE]
13 97,7 [182AE28D] [25FDD492]
14 97,6 [EBB110D3] [047A3B72]

Andrea Bocelli - Sogno (1999) {2015, Reissue, Remastered}

All thanks go to sergych

> Andrea Bocelli in my blog <