Subcategories

Andrea Marcon, La Cetra, Vokalensemble Basel - Antonio Caldara: La concordia de' pianeti (2014)

Posted By: ArlegZ
Andrea Marcon, La Cetra, Vokalensemble Basel - Antonio Caldara: La concordia de' pianeti (2014)

Andrea Marcon, La Cetra, Vokalensemble Basel - Antonio Caldara: La concordia de' pianeti (2014)
EAC | FLAC | Image (Cue & Log) ~ 556 Mb | Total time: 58:14+49:53 | Scans included
Classical | Label: Archiv Produktion | # 002156402 | Recorded: 2014

This release marks the world-premiere recording and rediscovery of Antonio Caldara’s La Concordia de’ pianeti, a musical serenade of operatic magnitude composed for the court of Austrian Emperor Karl VI, featuring the creme de la creme of the day’s singers, including the legendary castrato Carestini (Franco Fagioli’s part).
Unearthed and edited by Andrea Marcon, the piece offers a series of virtuosic arias, breath-taking cantilenas and ethereal duets performed by some of the finest singers of today.
Franco Fagioli and Daniel Behle, two of today’s hottest vocalists, lead a distinctive cast of early music “shining stars”, including soprano Veronica Cangemi in a welcome return to Deutsche Grammophon / Archiv. The dynamic La Cetra Barockorchester, one of the most coveted period ensembles active today, lends an idiomatic touch to the program.
This is a major new release under the Archiv imprint featuring a world-class cast of singers. The opera is new to the repertoire and the catalogue altogether and has been recorded both in studio conditions and live performances in Dortmund.

Performer:
Apollo: Franco Fagioli, Countertenor
Mercurio: Daniel Behle, Tenor
Venere: Delphine Galou, Contralto
Diana: Veronica Cangemi, Soprano
Marte: Carlos Mena, Countertenor
Giove: Ruxandra Donose, Mezzo-Soprano
Vokalensemble Basel
La Cetra
Conductor - Andrea Marcon

Tracklist:
CD1:
01. Introduzione
02. Coro - Oggi brillate
03. Recit. Venere e Mercurio - Qual fia costei?
04. Aria di Mercurio - Tal se gemma
05. Recit. Diana, Mercurio e Venere - Di Mercurio costume
06. Aria di Venere - Non si turba e non si duole
07. Recit. Giove, Venere, Diana e Mercurio - Ben sovente
08. Aria di Diana - Ad essa io cedero
09. Recitativo Saturno e Giove - Mercurio non risponde?
10. Aria di Saturno - Di quel bel nome al suono
11. Recitativo Marte, Apollo, Diana e Venere - Se tanto ottien laggiu
12. Aria di Marte - Non v'e bella che non creda
13. Recitativo Mercurio, Giove e Apollo - Mal crede il Dio guerrier
14. Aria di Apollo - So ch'io dal suolo alzai
15. Recitativo Giove - Mal discerni a i grandi
16. Aria di Giove - A la bontade
17. Recitativo Venere, Diana, Saturno, Giove e Mercurio - Giove e mio nume
18. Coro - Questo giorno celebrate
CD2:
01. Recitativo Venere e Giove - Qual se improvisa face
02. Aria di Venere - Ad Elisa ancor d'intorno
03. Recitativo Mercurio, Saturno e Giove - Piu belle sempre furo'
04. Aria di Mercurio - Madre d' Amor tu sei
05. Recitativo Diana e Giove - Poiche tanto prometti
06. Aria di Diana - Voti amanti
07. Recitativo Apollo - Ben cedi, o Cintia
08. Aria di Apollo - Questo di cosi giocondo
09. Recitativo Marte e Venere - No, non e il solo
10. Aria di Marte - Da mia tromba
11. Recitativo Saturno - Mi piace, o Diva, o Numi
12. Aria di Saturno - Pari a quella
13. Recitativo Giove e Tutti - Il giusto augurio accetto
14. Aria di Giove - Goda il mondo
15. Recitativo Venere, Diana, Apollo, Giove e Tutti - Si, goda il mondo
16. Coro - Tu sei cara in pari guisa
17. Licenza, recitativo Venere - Ecco, Elisa, gli applausi
18. Licenza, aria die Venere - La concordia de' Pianeti
19. Coro - Tu sei cara in pari guisa


Exact Audio Copy V1.3 from 2. September 2016

EAC extraction logfile from 22. November 2017, 16:29

Andera Marcon, La Cetra / Caldara - La concordia de' pianeti CD1

Used drive : HL-DT-STDVDRAM GH24NS95 Adapter: 1 ID: 0

Read mode : Secure
Utilize accurate stream : Yes
Defeat audio cache : Yes
Make use of C2 pointers : No

Read offset correction : 6
Overread into Lead-In and Lead-Out : No
Fill up missing offset samples with silence : Yes
Delete leading and trailing silent blocks : No
Null samples used in CRC calculations : Yes
Used interface : Native Win32 interface for Win NT & 2000

Used output format : User Defined Encoder
Selected bitrate : 128 kBit/s
Quality : High
Add ID3 tag : No
Command line compressor : C:\Program Files\Exact Audio Copy\Flac\flac.exe
Additional command line options : -V -8 -T "Date=%year%" -T "Genre=%genre%" %source%


TOC of the extracted CD

Track | Start | Length | Start sector | End sector
––––––––––––––––––––––––––––-
1 | 0:00.00 | 3:54.57 | 0 | 17606
2 | 3:54.57 | 4:39.45 | 17607 | 38576
3 | 8:34.27 | 1:24.18 | 38577 | 44894
4 | 9:58.45 | 4:55.18 | 44895 | 67037
5 | 14:53.63 | 1:28.14 | 67038 | 73651
6 | 16:22.02 | 6:15.53 | 73652 | 101829
7 | 22:37.55 | 1:46.61 | 101830 | 109840
8 | 24:24.41 | 3:30.03 | 109841 | 125593
9 | 27:54.44 | 2:37.68 | 125594 | 137436
10 | 30:32.37 | 4:50.00 | 137437 | 159186
11 | 35:22.37 | 1:34.34 | 159187 | 166270
12 | 36:56.71 | 4:33.26 | 166271 | 186771
13 | 41:30.22 | 1:47.49 | 186772 | 194845
14 | 43:17.71 | 4:40.29 | 194846 | 215874
15 | 47:58.25 | 1:44.08 | 215875 | 223682
16 | 49:42.33 | 4:22.35 | 223683 | 243367
17 | 54:04.68 | 1:34.07 | 243368 | 250424
18 | 55:39.00 | 2:35.40 | 250425 | 262089


Range status and errors

Selected range

Filename C:\Program Files\Exact Audio Copy\Flac\Caldara - La concordia de' pianeti CD1.wav

Peak level 97.0 %
Extraction speed 7.5 X
Range quality 100.0 %
Test CRC 5C1BF659
Copy CRC 5C1BF659
Copy OK

No errors occurred

End of status report

==== Log checksum EF3FF1AD2F15807E3EE482632213F389DD01FB1422C8D10D2342327104321349 ====


Exact Audio Copy V1.3 from 2. September 2016

EAC extraction logfile from 22. November 2017, 16:56

Andrea Marcon, La Cetra / Caldara - La concordia de' pianeti CD2

Used drive : HL-DT-STDVDRAM GH24NS95 Adapter: 1 ID: 0

Read mode : Secure
Utilize accurate stream : Yes
Defeat audio cache : Yes
Make use of C2 pointers : No

Read offset correction : 6
Overread into Lead-In and Lead-Out : No
Fill up missing offset samples with silence : Yes
Delete leading and trailing silent blocks : No
Null samples used in CRC calculations : Yes
Used interface : Native Win32 interface for Win NT & 2000

Used output format : User Defined Encoder
Selected bitrate : 128 kBit/s
Quality : High
Add ID3 tag : No
Command line compressor : C:\Program Files\Exact Audio Copy\Flac\flac.exe
Additional command line options : -V -8 -T "Date=%year%" -T "Genre=%genre%" %source%


TOC of the extracted CD

Track | Start | Length | Start sector | End sector
––––––––––––––––––––––––––––-
1 | 0:00.00 | 1:33.15 | 0 | 6989
2 | 1:33.15 | 3:10.11 | 6990 | 21250
3 | 4:43.26 | 1:22.30 | 21251 | 27430
4 | 6:05.56 | 5:15.74 | 27431 | 51129
5 | 11:21.55 | 1:41.33 | 51130 | 58737
6 | 13:03.13 | 4:07.62 | 58738 | 77324
7 | 17:11.00 | 1:26.01 | 77325 | 83775
8 | 18:37.01 | 4:19.14 | 83776 | 103214
9 | 22:56.15 | 1:31.12 | 103215 | 110051
10 | 24:27.27 | 4:16.42 | 110052 | 129293
11 | 28:43.69 | 1:16.68 | 129294 | 135061
12 | 30:00.62 | 3:34.20 | 135062 | 151131
13 | 33:35.07 | 1:22.59 | 151132 | 157340
14 | 34:57.66 | 5:39.10 | 157341 | 182775
15 | 40:37.01 | 0:37.08 | 182776 | 185558
16 | 41:14.09 | 1:16.12 | 185559 | 191270
17 | 42:30.21 | 1:16.70 | 191271 | 197040
18 | 43:47.16 | 4:36.37 | 197041 | 217777
19 | 48:23.53 | 1:31.35 | 217778 | 224637


Range status and errors

Selected range

Filename C:\Program Files\Exact Audio Copy\Flac\Caldara - La concordia de' pianeti CD2.wav

Peak level 97.0 %
Extraction speed 7.2 X
Range quality 100.0 %
Test CRC D17504E0
Copy CRC D17504E0
Copy OK

No errors occurred

End of status report

==== Log checksum 351B6030D4435BFBF6C9435FAECCC5D619C879E9599577766B8301C1DEDBF428 ====

Andrea Marcon, La Cetra, Vokalensemble Basel - Antonio Caldara: La concordia de' pianeti (2014)