Subcategories

Andrew Manze, Richard Egarr - Handel: Complete Violin Sonatas (2004)

Posted By: tirexiss
Andrew Manze, Richard Egarr - Handel: Complete Violin Sonatas (2004)

Andrew Manze, Richard Egarr - Handel: Complete Violin Sonatas (2004)
EAC | FLAC (tracks+.cue, log) | Covers Included | 76:43 | 509 MB
Genre: Classical | Label: Harmonia Mundi | Catalog: HMX 2907259

As Andrew Manze remarks in the liner note for this album, the sonata was perhaps "but a toy theatre in Handel's world of architectural splendours." Indeed, the eight sonatas, with the addition of two independent movements, provide an insight into a world far removed from the imposing, monumental Handelian works known to many listeners. But these works are by no means a lesser manifestation of the composer's genius. In fact, from the imaginatively compelling fast movements to the meditative melodiousness of the introductory movements, these remarkable works provide the listener with a valuable and memorable insight into the rich – and sometimes surprising – musical mind of one of Baroque music's true giants. When discussing these sonatas, scholars make much of Handel's indebtedness to Corelli. While Corelli's influence is undeniable, one should heed Bukofzer's observation that in "many allegro movements, Handel easily surpasses Corelli by his superb handling of lightly fugal textures and his complete mastery of the concerto style." Andrew Manze's artistry beautifully captures the Baroque richness of these works, adapting his instrument's protean voice to the many complexities and contrasts inherent in Handel's musical discourse. Elegant, tastefully expressive, and drawing an unexpected fullness and raw volume from a finely controlled tone, Manze also masterfully expands his instrument's sound potential in an effort – particularly in certain allegro movements – to discern the composer's dramatic intentions. As an accompanist, harpsichordist Richard Egarr is the quintessential distant presence, a discreet but essential interlocutor in a musical dialogue in which the two voices essentially blend to create a unitary aesthetic experience.

Andrew Manze, Richard Egarr - Handel: Complete Violin Sonatas (2004)

Track List:

Sonata D-Dur Op.1 N.13 HWV 371
1. Affettuoso 3:28
2. Allegro 2:43
3. Larghetto 2:16
4. Allegro 3:37

Sonata F-Dur Walsh Op.1 N.12
5. Adagio 3:46
6. Allegro 3:21
7. Largo 3:07
8. Allegro 3:29

Sonata d-moll HWV 359a
9. Grave 2:12
10. Allegro 1:51
11. Adagio 1:02
12. Allegro 3:29

Sonata A-Dur Op.1 N.3 HWV 361
13. Andante 2:38
14. Allegro 1:52
15. Adagio 0:47
16. Allegro 2:34

Sonata g-moll Op.1 N.6 HWV 364
17. Larghetto 2:08
18. Allegro 1:54
19. Adagio 0:49
20. Allegro 2:21

Sonata A-Dur “Roger” Op.1 N.10
21. Adagio 1:34
22. Allegro 2:38
23. Largo 1:10
24. Allegro 2:34

Sonata E-Dur “Roger” Op.1 N.12
25. Adagio 2:13
26. Allegro 2:57
27. Largo 1:16
28. Allegro 2:39

Sonata G-Dur HWV 358
29. Allegro 1:44
30. Adagio 0:43
31. Allegro 2:18

32. Andante a-moll HWV 412

33. Allegro c-moll HWV 408

Performers:
Andrew Manze – violin (Joseph Gagliano, Napoli, 1782)
Richard Egarr – harpsichord (John Philips, 1993, after Nicolas Dumont, 1707)

Exact Audio Copy V0.99 prebeta 4 from 23. January 2008

EAC extraction logfile from 23. September 2010, 17:23

Andrew Manze, Richard Egarr / Handel - Complete Violin Sonatas

Used drive : PIONEER DVD-RW DVR-112D Adapter: 0 ID: 0

Read mode : Secure
Utilize accurate stream : Yes
Defeat audio cache : Yes
Make use of C2 pointers : No

Read offset correction : 48
Overread into Lead-In and Lead-Out : No
Fill up missing offset samples with silence : Yes
Delete leading and trailing silent blocks : No
Null samples used in CRC calculations : Yes
Used interface : Native Win32 interface for Win NT & 2000
Gap handling : Appended to previous track

Used output format : User Defined Encoder
Selected bitrate : 768 kBit/s
Quality : High
Add ID3 tag : No
Command line compressor : C:\Program Files\Exact Audio Copy\FLAC\FLAC.EXE
Additional command line options : -6 -V -T "ARTIST=%a" -T "TITLE=%t" -T "ALBUM=%g" -T "DATE=%y" -T "TRACKNUMBER=%n" -T "GENRE=%m" -T "COMMENT=%e" %s -o %d


TOC of the extracted CD

Track | Start | Length | Start sector | End sector
––––––––––––––––––––––––––––-
1 | 0:00.00 | 3:28.72 | 0 | 15671
2 | 3:28.72 | 2:45.38 | 15672 | 28084
3 | 6:14.35 | 2:16.60 | 28085 | 38344
4 | 8:31.20 | 3:40.55 | 38345 | 54899
5 | 12:12.00 | 3:47.40 | 54900 | 71964
6 | 15:59.40 | 3:20.47 | 71965 | 87011
7 | 19:20.12 | 3:06.43 | 87012 | 101004
8 | 22:26.55 | 3:35.00 | 101005 | 117129
9 | 26:01.55 | 2:11.50 | 117130 | 127004
10 | 28:13.30 | 1:53.62 | 127005 | 135541
11 | 30:07.17 | 1:02.45 | 135542 | 140236
12 | 31:09.62 | 2:31.60 | 140237 | 151621
13 | 33:41.47 | 2:37.73 | 151622 | 163469
14 | 36:19.45 | 1:53.50 | 163470 | 171994
15 | 38:13.20 | 0:46.50 | 171995 | 175494
16 | 38:59.70 | 2:39.20 | 175495 | 187439
17 | 41:39.15 | 2:07.47 | 187440 | 197011
18 | 43:46.62 | 1:54.70 | 197012 | 205631
19 | 45:41.57 | 0:49.00 | 205632 | 209306
20 | 46:30.57 | 2:26.28 | 209307 | 220284
21 | 48:57.10 | 1:34.17 | 220285 | 227351
22 | 50:31.27 | 2:40.60 | 227352 | 239411
23 | 53:12.12 | 1:10.08 | 239412 | 244669
24 | 54:22.20 | 2:38.40 | 244670 | 256559
25 | 57:00.60 | 2:12.52 | 256560 | 266511
26 | 59:13.37 | 2:56.53 | 266512 | 279764
27 | 62:10.15 | 1:16.35 | 279765 | 285499
28 | 63:26.50 | 2:43.67 | 285500 | 297791
29 | 66:10.42 | 1:44.18 | 297792 | 305609
30 | 67:54.60 | 0:43.15 | 305610 | 308849
31 | 68:38.00 | 2:22.32 | 308850 | 319531
32 | 71:00.32 | 2:12.55 | 319532 | 329486
33 | 73:13.12 | 3:30.20 | 329487 | 345256


Track 1

Filename N:\HANDEL, GEORG FRIEDRICH\Handel - Complete Violin Sonatas - Manze, Egarr\01 - Violin Sonata in D major, HWV 371 - I. Affettuoso - Andrew Manze, Richard Egarr.wav

Pre-gap length 0:00:02.00

Peak level 42.1 %
Track quality 100.0 %
Copy CRC 00EACFB3
Cannot be verified as accurate (confidence 51) [7D3A526E], AccurateRip returned [76600705]
Copy OK

Track 2

Filename N:\HANDEL, GEORG FRIEDRICH\Handel - Complete Violin Sonatas - Manze, Egarr\02 - Violin Sonata in D major, HWV 371 - II. Allegro - Andrew Manze, Richard Egarr.wav

Peak level 67.1 %
Track quality 100.0 %
Copy CRC 1CFB977B
Cannot be verified as accurate (confidence 51) [22A12442], AccurateRip returned [5A88CF4E]
Copy OK

Track 3

Filename N:\HANDEL, GEORG FRIEDRICH\Handel - Complete Violin Sonatas - Manze, Egarr\03 - Violin Sonata in D major, HWV 371 - III. Larghetto - Andrew Manze, Richard Egarr.wav

Pre-gap length 0:00:02.30

Peak level 53.2 %
Track quality 99.9 %
Copy CRC 654505A4
Cannot be verified as accurate (confidence 51) [0A15C7D3], AccurateRip returned [A14EC2FD]
Copy OK

Track 4

Filename N:\HANDEL, GEORG FRIEDRICH\Handel - Complete Violin Sonatas - Manze, Egarr\04 - Violin Sonata in D major, HWV 371 - IV. Allegro - Andrew Manze, Richard Egarr.wav

Peak level 78.4 %
Track quality 99.9 %
Copy CRC 701D9634
Cannot be verified as accurate (confidence 51) [4378CC88], AccurateRip returned [B001D127]
Copy OK

Track 5

Filename N:\HANDEL, GEORG FRIEDRICH\Handel - Complete Violin Sonatas - Manze, Egarr\05 - Violin Sonata in F major, op.1 no.12 HWV 370 (doubtful) 'Walsh' - I. Adagio - Andrew Manze, Richard Egarr.wav

Pre-gap length 0:00:03.60

Peak level 37.7 %
Track quality 100.0 %
Copy CRC 1A4EABC1
Cannot be verified as accurate (confidence 51) [BA2017CE], AccurateRip returned [F7C080CE]
Copy OK

Track 6

Filename N:\HANDEL, GEORG FRIEDRICH\Handel - Complete Violin Sonatas - Manze, Egarr\06 - Violin Sonata in F major, op.1 no.12 HWV 370 (doubtful) 'Walsh' - II. Allegro - Andrew Manze, Richard Egarr.wav

Pre-gap length 0:00:01.30

Peak level 56.6 %
Track quality 100.0 %
Copy CRC 062343FA
Cannot be verified as accurate (confidence 51) [6B4ABCA2], AccurateRip returned [0967568A]
Copy OK

Track 7

Filename N:\HANDEL, GEORG FRIEDRICH\Handel - Complete Violin Sonatas - Manze, Egarr\07 - Violin Sonata in F major, op.1 no.12 HWV 370 (doubtful) 'Walsh' - III. Largo - Andrew Manze, Richard Egarr.wav

Peak level 48.2 %
Track quality 100.0 %
Copy CRC 6DB0170D
Cannot be verified as accurate (confidence 51) [8DC8BE25], AccurateRip returned [2AC8EE64]
Copy OK

Track 8

Filename N:\HANDEL, GEORG FRIEDRICH\Handel - Complete Violin Sonatas - Manze, Egarr\08 - Violin Sonata in F major, op.1 no.12 HWV 370 (doubtful) 'Walsh' - IV. Allegro - Andrew Manze, Richard Egarr.wav

Peak level 66.0 %
Track quality 100.0 %
Copy CRC C94AFFF3
Cannot be verified as accurate (confidence 51) [7F8C9D5D], AccurateRip returned [2833B208]
Copy OK

Track 9

Filename N:\HANDEL, GEORG FRIEDRICH\Handel - Complete Violin Sonatas - Manze, Egarr\09 - Violin Sonata in D minor, HWV 359a - I. Grave - Andrew Manze, Richard Egarr.wav

Pre-gap length 0:00:05.65

Peak level 56.5 %
Track quality 100.0 %
Copy CRC 3C5A7CD7
Cannot be verified as accurate (confidence 51) [ACDBFA38], AccurateRip returned [97F4A692]
Copy OK

Track 10

Filename N:\HANDEL, GEORG FRIEDRICH\Handel - Complete Violin Sonatas - Manze, Egarr\10 - Violin Sonata in D minor, HWV 359a - II. Allegro - Andrew Manze, Richard Egarr.wav

Peak level 54.3 %
Track quality 100.0 %
Copy CRC 78965BF1
Cannot be verified as accurate (confidence 51) [92F029ED], AccurateRip returned [E1DC2C28]
Copy OK

Track 11

Filename N:\HANDEL, GEORG FRIEDRICH\Handel - Complete Violin Sonatas - Manze, Egarr\11 - Violin Sonata in D minor, HWV 359a - III. Adagio - Andrew Manze, Richard Egarr.wav

Pre-gap length 0:00:02.70

Peak level 40.7 %
Track quality 100.0 %
Copy CRC 27EB42B8
Cannot be verified as accurate (confidence 51) [BE8BAFF5], AccurateRip returned [44AD095F]
Copy OK

Track 12

Filename N:\HANDEL, GEORG FRIEDRICH\Handel - Complete Violin Sonatas - Manze, Egarr\12 - Violin Sonata in D minor, HWV 359a - IV. Allegro - Andrew Manze, Richard Egarr.wav

Peak level 62.5 %
Track quality 100.0 %
Copy CRC A005691F
Cannot be verified as accurate (confidence 51) [4A25A104], AccurateRip returned [0AE8B9C1]
Copy OK

Track 13

Filename N:\HANDEL, GEORG FRIEDRICH\Handel - Complete Violin Sonatas - Manze, Egarr\13 - Violin Sonata in A major, HWV 361 - I. Andante - Andrew Manze, Richard Egarr.wav

Pre-gap length 0:00:05.10

Peak level 36.4 %
Track quality 100.0 %
Copy CRC 4A659BC7
Cannot be verified as accurate (confidence 51) [56B8BB07], AccurateRip returned [814581DA]
Copy OK

Track 14

Filename N:\HANDEL, GEORG FRIEDRICH\Handel - Complete Violin Sonatas - Manze, Egarr\14 - Violin Sonata in A major, HWV 361 - II. Allegro - Andrew Manze, Richard Egarr.wav

Peak level 70.6 %
Track quality 100.0 %
Copy CRC EF07288A
Cannot be verified as accurate (confidence 51) [DE7857F4], AccurateRip returned [5BF347FC]
Copy OK

Track 15

Filename N:\HANDEL, GEORG FRIEDRICH\Handel - Complete Violin Sonatas - Manze, Egarr\15 - Violin Sonata in A major, HWV 361 - III. Adagio - Andrew Manze, Richard Egarr.wav

Pre-gap length 0:00:01.68

Peak level 18.8 %
Track quality 100.0 %
Copy CRC B9B14AE1
Cannot be verified as accurate (confidence 51) [817025F7], AccurateRip returned [14ABC1C5]
Copy OK

Track 16

Filename N:\HANDEL, GEORG FRIEDRICH\Handel - Complete Violin Sonatas - Manze, Egarr\16 - Violin Sonata in A major, HWV 361 - IV. Allegro - Andrew Manze, Richard Egarr.wav

Peak level 60.3 %
Track quality 100.0 %
Copy CRC 64085FB6
Cannot be verified as accurate (confidence 51) [81BD0801], AccurateRip returned [D2B2BCF3]
Copy OK

Track 17

Filename N:\HANDEL, GEORG FRIEDRICH\Handel - Complete Violin Sonatas - Manze, Egarr\17 - Violin Sonata in G minor, HWV 364 - I. Larghetto - Andrew Manze, Richard Egarr.wav

Pre-gap length 0:00:05.00

Peak level 45.7 %
Track quality 100.0 %
Copy CRC E2231CA8
Cannot be verified as accurate (confidence 51) [FA7EA87C], AccurateRip returned [3A93D3D6]
Copy OK

Track 18

Filename N:\HANDEL, GEORG FRIEDRICH\Handel - Complete Violin Sonatas - Manze, Egarr\18 - Violin Sonata in G minor, HWV 364 - II. Allegro - Andrew Manze, Richard Egarr.wav

Peak level 50.9 %
Track quality 100.0 %
Copy CRC C45EFD71
Cannot be verified as accurate (confidence 51) [6223552E], AccurateRip returned [256233FC]
Copy OK

Track 19

Filename N:\HANDEL, GEORG FRIEDRICH\Handel - Complete Violin Sonatas - Manze, Egarr\19 - Violin Sonata in G minor, HWV 364 - III. Adagio - Andrew Manze, Richard Egarr.wav

Pre-gap length 0:00:01.07

Peak level 26.8 %
Track quality 100.0 %
Copy CRC 3950CCB1
Cannot be verified as accurate (confidence 51) [C40D32B6], AccurateRip returned [7E5B3D98]
Copy OK

Track 20

Filename N:\HANDEL, GEORG FRIEDRICH\Handel - Complete Violin Sonatas - Manze, Egarr\20 - Violin Sonata in G minor, HWV 364 - IV. Allegro - Andrew Manze, Richard Egarr.wav

Peak level 43.7 %
Track quality 100.0 %
Copy CRC 56DB682E
Cannot be verified as accurate (confidence 51) [8D4D9245], AccurateRip returned [ADE4A78D]
Copy OK

Track 21

Filename N:\HANDEL, GEORG FRIEDRICH\Handel - Complete Violin Sonatas - Manze, Egarr\21 - Violin Sonata in A major, op.1 no.10 (doubtful) 'Roger' - I. Adagio - Andrew Manze, Richard Egarr.wav

Pre-gap length 0:00:05.03

Peak level 46.4 %
Track quality 100.0 %
Copy CRC 1395407B
Cannot be verified as accurate (confidence 51) [4601DA44], AccurateRip returned [23A9014D]
Copy OK

Track 22

Filename N:\HANDEL, GEORG FRIEDRICH\Handel - Complete Violin Sonatas - Manze, Egarr\22 - Violin Sonata in A major, op.1 no.10 (doubtful) 'Roger' - II. Allegro - Andrew Manze, Richard Egarr.wav

Peak level 69.2 %
Track quality 100.0 %
Copy CRC 7DECF3BD
Cannot be verified as accurate (confidence 51) [B6FE4A37], AccurateRip returned [C44E4D4A]
Copy OK

Track 23

Filename N:\HANDEL, GEORG FRIEDRICH\Handel - Complete Violin Sonatas - Manze, Egarr\23 - Violin Sonata in A major, op.1 no.10 (doubtful) 'Roger' - III. Largo - Andrew Manze, Richard Egarr.wav

Pre-gap length 0:00:02.70

Peak level 32.0 %
Track quality 100.0 %
Copy CRC B01AF808
Cannot be verified as accurate (confidence 51) [A1FBF4AA], AccurateRip returned [4E3D2984]
Copy OK

Track 24

Filename N:\HANDEL, GEORG FRIEDRICH\Handel - Complete Violin Sonatas - Manze, Egarr\24 - Violin Sonata in A major, op.1 no.10 (doubtful) 'Roger' - IV. Allegro - Andrew Manze, Richard Egarr.wav

Peak level 93.7 %
Track quality 100.0 %
Copy CRC 936CE916
Cannot be verified as accurate (confidence 50) [9D7732C0], AccurateRip returned [BC81E6F0]
Copy OK

Track 25

Filename N:\HANDEL, GEORG FRIEDRICH\Handel - Complete Violin Sonatas - Manze, Egarr\25 - Violin Sonata in E major, op.1 no.12 'Roger' - I. Adagio - Andrew Manze, Richard Egarr.wav

Pre-gap length 0:00:04.13

Peak level 48.0 %
Track quality 100.0 %
Copy CRC 1C3A3A18
Cannot be verified as accurate (confidence 50) [89DF4A47], AccurateRip returned [89D69CEE]
Copy OK

Track 26

Filename N:\HANDEL, GEORG FRIEDRICH\Handel - Complete Violin Sonatas - Manze, Egarr\26 - Violin Sonata in E major, op.1 no.12 'Roger' - II. Allegro - Andrew Manze, Richard Egarr.wav

Peak level 61.9 %
Track quality 100.0 %
Copy CRC B42EDB79
Cannot be verified as accurate (confidence 50) [36698916], AccurateRip returned [EABB3A84]
Copy OK

Track 27

Filename N:\HANDEL, GEORG FRIEDRICH\Handel - Complete Violin Sonatas - Manze, Egarr\27 - Violin Sonata in E major, op.1 no.12 'Roger' - III. Largo - Andrew Manze, Richard Egarr.wav

Peak level 39.1 %
Track quality 100.0 %
Copy CRC B7AC9668
Cannot be verified as accurate (confidence 49) [F94A1FD9], AccurateRip returned [D5BB6BA8]
Copy OK

Track 28

Filename N:\HANDEL, GEORG FRIEDRICH\Handel - Complete Violin Sonatas - Manze, Egarr\28 - Violin Sonata in E major, op.1 no.12 'Roger' - IV. Allegro - Andrew Manze, Richard Egarr.wav

Peak level 44.7 %
Track quality 100.0 %
Copy CRC 16E31AC6
Cannot be verified as accurate (confidence 50) [C1D52F64], AccurateRip returned [C8A6AB10]
Copy OK

Track 29

Filename N:\HANDEL, GEORG FRIEDRICH\Handel - Complete Violin Sonatas - Manze, Egarr\29 - Violin Sonata in G major, HWV 358 - I. Allegro - Andrew Manze, Richard Egarr.wav

Pre-gap length 0:00:04.60

Peak level 45.1 %
Track quality 100.0 %
Copy CRC C564A223
Cannot be verified as accurate (confidence 51) [F007E1EF], AccurateRip returned [967537E0]
Copy OK

Track 30

Filename N:\HANDEL, GEORG FRIEDRICH\Handel - Complete Violin Sonatas - Manze, Egarr\30 - Violin Sonata in G major, HWV 358 - II. Adagio - Andrew Manze, Richard Egarr.wav

Peak level 52.8 %
Track quality 100.0 %
Copy CRC 3BB24FBC
Cannot be verified as accurate (confidence 52) [FD3F5A48], AccurateRip returned [9A40A850]
Copy OK

Track 31

Filename N:\HANDEL, GEORG FRIEDRICH\Handel - Complete Violin Sonatas - Manze, Egarr\31 - Violin Sonata in G major, HWV 358 - III. Allegro - Andrew Manze, Richard Egarr.wav

Peak level 74.3 %
Track quality 99.9 %
Copy CRC A23AA7E5
Cannot be verified as accurate (confidence 52) [3021FBCF], AccurateRip returned [8139CC1C]
Copy OK

Track 32

Filename N:\HANDEL, GEORG FRIEDRICH\Handel - Complete Violin Sonatas - Manze, Egarr\32 - Andante in A minor, HWV 412 - Andrew Manze, Richard Egarr.wav

Pre-gap length 0:00:04.32

Peak level 44.9 %
Track quality 100.0 %
Copy CRC 2EF15ECC
Cannot be verified as accurate (confidence 49) [4A2008CA], AccurateRip returned [AC76FEF1]
Copy OK

Track 33

Filename N:\HANDEL, GEORG FRIEDRICH\Handel - Complete Violin Sonatas - Manze, Egarr\33 - Allegro in C minor, HWV 408 - Andrew Manze, Richard Egarr.wav

Pre-gap length 0:00:03.65

Peak level 72.9 %
Track quality 100.0 %
Copy CRC 216B43A5
Cannot be verified as accurate (confidence 51) [F8BBD5B9], AccurateRip returned [3167551D]
Copy OK


No tracks could be verified as accurate
You may have a different pressing from the one(s) in the database

No errors occurred

End of status report

[CUETools log; Date: 23.12.2017 19:12:17; Version: 2.1.5]
[CTDB TOCID: Q4MR.3S1wkauMi0NxbCRaCO85UM-] found.
Track | CTDB Status
1 | (94/96) Accurately ripped
2 | (94/96) Accurately ripped
3 | (94/96) Accurately ripped
4 | (94/96) Accurately ripped
5 | (94/96) Accurately ripped
6 | (94/96) Accurately ripped
7 | (94/96) Accurately ripped
8 | (94/96) Accurately ripped
9 | (94/96) Accurately ripped
10 | (92/96) Accurately ripped
11 | (94/96) Accurately ripped
12 | (94/96) Accurately ripped
13 | (93/96) Accurately ripped
14 | (94/96) Accurately ripped
15 | (94/96) Accurately ripped
16 | (94/96) Accurately ripped
17 | (94/96) Accurately ripped
18 | (94/96) Accurately ripped
19 | (93/96) Accurately ripped
20 | (94/96) Accurately ripped
21 | (94/96) Accurately ripped
22 | (93/96) Accurately ripped
23 | (94/96) Accurately ripped
24 | (94/96) Accurately ripped
25 | (92/96) Accurately ripped
26 | (92/96) Accurately ripped
27 | (93/96) Accurately ripped
28 | (93/96) Accurately ripped
29 | (93/96) Accurately ripped
30 | (93/96) Accurately ripped
31 | (92/96) Accurately ripped
32 | (93/96) Accurately ripped
33 | (92/96) Accurately ripped
[AccurateRip ID: 006036af-087e04be-da11fb21] found.
Track [ CRC | V2 ] Status
01 [7d3a526e|1c2703f2] (006+015/189) Accurately ripped
02 [22a12442|02d403b7] (006+015/189) Accurately ripped
03 [0a15c7d3|144c2e9f] (006+015/189) Accurately ripped
04 [4378cc88|6996e4df] (006+015/189) Accurately ripped
05 [ba2017ce|b7a9c23c] (006+015/189) Accurately ripped
06 [6b4abca2|4d1f9eb7] (006+015/189) Accurately ripped
07 [8dc8be25|e7f5d488] (006+015/189) Accurately ripped
08 [7f8c9d5d|8b914715] (006+015/187) Accurately ripped
09 [acdbfa38|e44ff8cc] (006+015/189) Accurately ripped
10 [92f029ed|4be412fe] (006+015/189) Accurately ripped
11 [be8baff5|408124f0] (006+015/188) Accurately ripped
12 [4a25a104|0e5d8fac] (006+015/188) Accurately ripped
13 [56b8bb07|08f47b3f] (006+015/189) Accurately ripped
14 [de7857f4|a483708b] (006+015/189) Accurately ripped
15 [817025f7|96d5652c] (006+015/189) Accurately ripped
16 [81bd0801|c00f99c2] (006+015/189) Accurately ripped
17 [fa7ea87c|4d21c22c] (006+015/189) Accurately ripped
18 [6223552e|aedff953] (006+015/189) Accurately ripped
19 [c40d32b6|0b13f470] (006+015/189) Accurately ripped
20 [8d4d9245|ad5b4a43] (006+015/188) Accurately ripped
21 [4601da44|40cf98e4] (006+015/188) Accurately ripped
22 [b6fe4a37|249151af] (006+015/189) Accurately ripped
23 [a1fbf4aa|7baf21ea] (006+015/189) Accurately ripped
24 [9d7732c0|727a959d] (006+015/188) Accurately ripped
25 [89df4a47|bd46a017] (006+015/188) Accurately ripped
26 [36698916|bc57fc63] (006+015/188) Accurately ripped
27 [f94a1fd9|926ce2e0] (005+015/186) Accurately ripped
28 [c1d52f64|0ab499bd] (006+015/188) Accurately ripped
29 [f007e1ef|de97e494] (006+015/189) Accurately ripped
30 [fd3f5a48|35751120] (006+015/190) Accurately ripped
31 [3021fbcf|470a8e67] (006+015/189) Accurately ripped
32 [4a2008ca|d7e4cdf1] (006+015/184) Accurately ripped
33 [f8bbd5b9|62dffa38] (006+015/186) Accurately ripped
Offsetted by 30:
01 [76600705] (071/189) Accurately ripped
02 [5a88cf4e] (071/189) Accurately ripped
03 [a14ec2fd] (071/189) Accurately ripped
04 [b001d127] (071/189) Accurately ripped
05 [f7c080ce] (071/189) Accurately ripped
06 [0967568a] (071/189) Accurately ripped
07 [2ac8ee64] (071/189) Accurately ripped
08 [2833b208] (070/187) Accurately ripped
09 [97f4a692] (071/189) Accurately ripped
10 [e1dc2c28] (071/189) Accurately ripped
11 [44ad095f] (071/188) Accurately ripped
12 [0ae8b9c1] (071/188) Accurately ripped
13 [814581da] (071/189) Accurately ripped
14 [5bf347fc] (071/189) Accurately ripped
15 [14abc1c5] (071/189) Accurately ripped
16 [d2b2bcf3] (071/189) Accurately ripped
17 [3a93d3d6] (071/189) Accurately ripped
18 [256233fc] (071/189) Accurately ripped
19 [7e5b3d98] (071/189) Accurately ripped
20 [ade4a78d] (071/188) Accurately ripped
21 [23a9014d] (071/188) Accurately ripped
22 [c44e4d4a] (071/189) Accurately ripped
23 [4e3d2984] (070/189) Accurately ripped
24 [bc81e6f0] (069/188) Accurately ripped
25 [89d69cee] (069/188) Accurately ripped
26 [eabb3a84] (069/188) Accurately ripped
27 [d5bb6ba8] (068/186) Accurately ripped
28 [c8a6ab10] (069/188) Accurately ripped
29 [967537e0] (070/189) Accurately ripped
30 [9a40a850] (071/190) Accurately ripped
31 [8139cc1c] (071/189) Accurately ripped
32 [ac76fef1] (067/184) Accurately ripped
33 [3167551d] (070/186) Accurately ripped
Offsetted by -598:
01 [a2f088ff] (000/189) No match (V2 was not tested)
02 [667a14ab] (000/189) No match (V2 was not tested)
03 [ea63193d] (000/189) No match (V2 was not tested)
04 [41e0c20c] (000/189) No match (V2 was not tested)
05 [6c881d0a] (000/189) No match (V2 was not tested)
06 [24b78eac] (000/189) No match (V2 was not tested)
07 [c5571383] (000/189) No match (V2 was not tested)
08 [b3926b73] (000/187) No match (V2 was not tested)
09 [6628a23c] (000/189) No match (V2 was not tested)
10 [8c61f3e8] (000/189) No match (V2 was not tested)
11 [cbb4d602] (000/188) No match (V2 was not tested)
12 [48088401] (000/188) No match (V2 was not tested)
13 [58d771f8] (000/189) No match (V2 was not tested)
14 [a3b6d951] (000/189) No match (V2 was not tested)
15 [f994f2ff] (000/189) No match (V2 was not tested)
16 [d49c3121] (000/189) No match (V2 was not tested)
17 [0bd98a20] (000/189) No match (V2 was not tested)
18 [39befa5b] (000/189) No match (V2 was not tested)
19 [d1e738ae] (000/189) No match (V2 was not tested)
20 [166865e3] (000/188) No match (V2 was not tested)
21 [c42c44dd] (000/188) No match (V2 was not tested)
22 [8b3615a1] (000/189) No match (V2 was not tested)
23 [f735d08d] (000/189) No match (V2 was not tested)
24 [72bac4d3] (000/188) No match (V2 was not tested)
25 [33f2910c] (000/188) No match (V2 was not tested)
26 [f9986268] (000/188) No match (V2 was not tested)
27 [9588190d] (000/186) No match (V2 was not tested)
28 [0a60e176] (000/188) No match (V2 was not tested)
29 [e9ad4532] (000/189) No match (V2 was not tested)
30 [c29aa43f] (000/190) No match (V2 was not tested)
31 [11f6a8b9] (000/189) No match (V2 was not tested)
32 [530b9950] (000/184) No match (V2 was not tested)
33 [ae685e6b] (000/186) No match (V2 was not tested)

Track Peak [ CRC32 ] [W/O NULL] [ LOG ]
– 93,7 [EF7A20EA] [DB5953F1]
01 42,1 [00EACFB3] [14C2A408] CRC32
02 67,1 [1CFB977B] [95BA052E] CRC32
03 53,2 [654505A4] [591C3541] CRC32
04 78,4 [701D9634] [DAC5FE29] CRC32
05 37,7 [1A4EABC1] [C1149F68] CRC32
06 56,6 [062343FA] [EDF19461] CRC32
07 48,2 [6DB0170D] [88D9206F] CRC32
08 66,0 [C94AFFF3] [AF250BFB] CRC32
09 56,5 [3C5A7CD7] [D9175FF9] CRC32
10 54,3 [78965BF1] [A78CF084] CRC32
11 40,7 [27EB42B8] [5041A44D] CRC32
12 62,5 [A005691F] [2271102B] CRC32
13 36,4 [4A659BC7] [A8C672DD] CRC32
14 70,6 [EF07288A] [B0247C5E] CRC32
15 18,8 [B9B14AE1] [A20B951E] CRC32
16 60,3 [64085FB6] [4411EEC3] CRC32
17 45,7 [E2231CA8] [F6145C27] CRC32
18 50,9 [C45EFD71] [B85652A1] CRC32
19 26,8 [3950CCB1] [7B3923BE] CRC32
20 43,7 [56DB682E] [661B0BA3] CRC32
21 46,4 [1395407B] [97ED2880] CRC32
22 69,2 [7DECF3BD] [5F5A99F5] CRC32
23 32,0 [B01AF808] [59220D14] CRC32
24 93,7 [936CE916] [A2A9104D] CRC32
25 48,0 [1C3A3A18] [0C1CEB65] CRC32
26 61,9 [B42EDB79] [B6588343] CRC32
27 39,1 [B7AC9668] [6AA4B3B6] CRC32
28 44,7 [16E31AC6] [263FBB09] CRC32
29 45,1 [C564A223] [8B3B312C] CRC32
30 52,8 [3BB24FBC] [D9441FE3] CRC32
31 74,3 [A23AA7E5] [4EEA1CB8] CRC32
32 44,9 [2EF15ECC] [2B16A258] CRC32
33 72,9 [216B43A5] [DE66520E] CRC32

Thanks to the Original ripper omni-nominis!

Download: