Subcategories

Andrew Manze, Richard Egarr, Jaap ter Linden - J.S.Bach: Violin Sonatas (2000) (Repost)

Posted By: tirexiss
Andrew Manze, Richard Egarr, Jaap ter Linden - J.S.Bach: Violin Sonatas (2000) (Repost)

Andrew Manze, Richard Egarr, Jaap ter Linden - J.S.Bach: Violin Sonatas (2000)
EAC | FLAC (image+.cue, log) | Covers Included | 02:35:36 | 918 MB
Genre: Classical | Label: Harmonia Mundi | Catalog: HMU 907250.51

Andrew Manze has been called "the Grappelli of the Baroque violin" because of the improvisatory liveliness of his approach; however, he can just as easily change personalities. Sometimes he pads along with sinewy grace like a panther ready to spring (the Preludio to BWV 1023, for example), sometimes he goes for a much more relaxed cantabile line, and sometimes he plays with a sparkling and infectious sense of fun (Presto, BWV 1021). Add into the mix his varied styles of vibrato, and the result is positively Shakespearean in its sense of teeming life and characterful drama. He is accompanied with an almost telepathic sense of partnership by Richard Egarr and, in four of the nine sonatas, by Jaap ter Linden. As an extra treat, Manze includes his own arrangement (which he calls a reconstruction) of Bach's Toccata and Fugue in D minor for organ. You'll never hear the original the same way again! – Warwick Thompson

Andrew Manze, Richard Egarr, Jaap ter Linden - J.S.Bach: Violin Sonatas (2000) (Repost)

Track List:

CD1:
Sonata in B minor, BWV 1014 13:10
[1] Adagio 3:35
[2] Allegro 2:51
[3] Andante 3:27
[4] Allegro 3:37

Sonata in A major, BWV 1015 13:05
[5] Dolce 3:13
[6] Allegro 2:53
[7] Andante un poco 3:00
[8] Presto 3:59

Sonata in E major, BWV 1016 16:18
[8] Adagio 4:51
[10] Allegro 3:04
[11] Adagio ma non tanto 4:38
[12] Allegro 3:46

Sonata in C minor, BWV 1017 16:20
[13] Largo 3:57
[14] Allegro 4:35
[15] Adagio 3:20
[16] Allegro 4:28

Sonata in F minor, BWV 1018 18:32
[17] Lamento 7:32
[18] Allegro 5:01
[19] Adagio 3:16
[20] Vivace 2:43

Exact Audio Copy V1.0 beta 3 from 29. August 2011

Отчёт EAC об извлечении, выполненном 24. июля 2013, 21:53

Andrew Manze, Richard Egarr, Jaap ter Linden / J.S.Bach Violin Sonatas - CD1

Дисковод: HL-DT-STDVDRAM GT33N Adapter: 1 ID: 0

Режим чтения : Достоверность
Использование точного потока : Да
Отключение кэша аудио : Да
Использование указателей C2 : Нет

Коррекция смещения при чтении : 103
Способность читать области Lead-in и Lead-out : Нет
Заполнение пропущенных сэмплов тишиной : Да
Удаление блоков с тишиной в начале и конце : Нет
При вычислениях CRC использовались нулевые сэмплы : Да
Интерфейс : Встроенный Win32-интерфейс для Win NT/2000

Выходной формат : Пользовательский кодировщик
Выбранный битрейт : 1024 kBit/s
Качество : Высокий
Добавление ID3-тега : Да
Утилита сжатия : C:\Program Files (x86)\Exact Audio Copy\Flac\flac.exe
Дополнительные параметры : -8 -V -T "TITLE=%title%" -T "ARTIST=%artist%" -T "ALBUMARTIST=%albumartist%" -T "ALBUM=%albumtitle%" -T "DATE=%year%" -T "TRACKTOTAL=%numtracks%" -T "GENRE=%genre%" -T "COMMENT=%comment%" -T "PERFORMER=%albuminterpret%" -T "COMPOSER=%composer%" %source% -o %dest%


TOC извлечённого CD

Трек | Старт | Длительность | Начальный сектор | Конечный сектор
––––––––––––––––––––––––––––––––––-
1 | 0:00.00 | 3:38.40 | 0 | 16389
2 | 3:38.40 | 2:54.12 | 16390 | 29451
3 | 6:32.52 | 3:29.70 | 29452 | 45196
4 | 10:02.47 | 3:42.00 | 45197 | 61846
5 | 13:44.47 | 3:17.58 | 61847 | 76679
6 | 17:02.30 | 2:57.40 | 76680 | 89994
7 | 19:59.70 | 3:03.12 | 89995 | 103731
8 | 23:03.07 | 4:04.28 | 103732 | 122059
9 | 27:07.35 | 4:54.10 | 122060 | 144119
10 | 32:01.45 | 3:06.25 | 144120 | 158094
11 | 35:07.70 | 4:41.10 | 158095 | 179179
12 | 39:49.05 | 3:51.40 | 179180 | 196544
13 | 43:40.45 | 4:00.57 | 196545 | 214601
14 | 47:41.27 | 4:38.25 | 214602 | 235476
15 | 52:19.52 | 3:23.73 | 235477 | 250774
16 | 55:43.50 | 4:32.10 | 250775 | 271184
17 | 60:15.60 | 7:36.12 | 271185 | 305396
18 | 67:51.72 | 5:05.48 | 305397 | 328319
19 | 72:57.45 | 3:17.45 | 328320 | 343139
20 | 76:15.15 | 2:42.25 | 343140 | 355314


Характеристики диапазона извлечения и сообщения об ошибках

Выбранный диапазон

Имя файла O:\!Rips\J.S.Bach Violin Sonatas - CD1.wav

Пиковый уровень 65.5 %
Скорость извлечения 2.3 X
Качество диапазона 100.0 %
CRC теста 59062C79
CRC копии 59062C79
Копирование… OK

Ошибок не произошло


AccurateRip: сводка

Трек 1 : извлечено точно (доверие 6) [63EFA622] (AR v2)
Трек 2 : извлечено точно (доверие 6) [EE064128] (AR v2)
Трек 3 : извлечено точно (доверие 6) [06AA9902] (AR v2)
Трек 4 : извлечено точно (доверие 6) [A223920E] (AR v2)
Трек 5 : извлечено точно (доверие 6) [9E889527] (AR v2)
Трек 6 : извлечено точно (доверие 6) [54C98A12] (AR v2)
Трек 7 : извлечено точно (доверие 6) [CF669063] (AR v2)
Трек 8 : извлечено точно (доверие 6) [CA0E3F91] (AR v2)
Трек 9 : извлечено точно (доверие 6) [49C2D397] (AR v2)
Трек 10 : извлечено точно (доверие 6) [D590AE66] (AR v2)
Трек 11 : извлечено точно (доверие 6) [5FF8BE18] (AR v2)
Трек 12 : извлечено точно (доверие 6) [5A465939] (AR v2)
Трек 13 : извлечено точно (доверие 6) [06D8999B] (AR v2)
Трек 14 : извлечено точно (доверие 6) [B092D18D] (AR v2)
Трек 15 : извлечено точно (доверие 6) [3F9EC633] (AR v2)
Трек 16 : извлечено точно (доверие 6) [D46E3385] (AR v2)
Трек 17 : извлечено точно (доверие 6) [F19FB64E] (AR v2)
Трек 18 : извлечено точно (доверие 5) [78707837] (AR v2)
Трек 19 : извлечено точно (доверие 5) [EB4548EE] (AR v2)
Трек 20 : извлечено точно (доверие 6) [ABEA8A3E] (AR v2)

Все треки извлечены точно

Конец отчёта

==== Контрольная сумма отчёта F49683219BD27606A3EC6BC0FB62092C275B40197630D81247C5DC2CD036F282 ====

[CUETools log; Date: 31.07.2017 21:32:12; Version: 2.1.5]
[CTDB TOCID: ldZMvCxLJ0urXVXTICZx02Ld0Cs-] found.
Track | CTDB Status
1 | (32/33) Accurately ripped
2 | (31/33) Accurately ripped
3 | (31/33) Accurately ripped
4 | (31/33) Accurately ripped
5 | (31/33) Accurately ripped
6 | (31/33) Accurately ripped
7 | (31/33) Accurately ripped
8 | (31/33) Accurately ripped
9 | (31/33) Accurately ripped
10 | (17/33) Accurately ripped
11 | (31/33) Accurately ripped
12 | (31/33) Accurately ripped
13 | (31/33) Accurately ripped
14 | (31/33) Accurately ripped
15 | (31/33) Accurately ripped
16 | (30/33) Accurately ripped, or (1/33) differs in 50 samples @01:58:04,01:58:24,04:28:33,04:29:19
17 | (30/33) Accurately ripped, or (1/33) differs in 352 samples @00:16:35,00:17:01,00:17:22,00:17:63,00:18:08,00:18:28-00:18:29,00:18:49-00:18:50,00:18:70,00:19:35-00:19:36,00:20:01-00:20:02,00:20:42-00:20:43
18 | (31/33) Accurately ripped
19 | (30/33) Accurately ripped
20 | (29/33) Accurately ripped, or (1/33) differs in 3281 samples @02:42:07-02:42:09
[AccurateRip ID: 0035d350-0324a7a4-0d128114] found.
Track [ CRC | V2 ] Status
01 [65b33163|63efa622] (10+11/55) Accurately ripped
02 [907a2338|ee064128] (10+11/55) Accurately ripped
03 [9951ca38|06aa9902] (10+11/55) Accurately ripped
04 [f6fcda75|a223920e] (10+11/55) Accurately ripped
05 [f5998900|9e889527] (10+11/55) Accurately ripped
06 [a648874b|54c98a12] (10+11/55) Accurately ripped
07 [3bf06012|cf669063] (10+11/55) Accurately ripped
08 [d6afccdf|ca0e3f91] (10+11/54) Accurately ripped
09 [02989a99|49c2d397] (10+11/54) Accurately ripped
10 [9caf56d2|d590ae66] (10+11/55) Accurately ripped
11 [07b27c64|5ff8be18] (10+11/55) Accurately ripped
12 [72c5ffbc|5a465939] (10+11/55) Accurately ripped
13 [f11f5445|06d8999b] (10+11/55) Accurately ripped
14 [e16f3f52|b092d18d] (10+11/55) Accurately ripped
15 [d94109d8|3f9ec633] (10+11/55) Accurately ripped
16 [2b751ef1|d46e3385] (09+11/54) Accurately ripped
17 [00f90060|f19fb64e] (10+11/55) Accurately ripped
18 [bbf58c54|78707837] (10+10/54) Accurately ripped
19 [2265fa7a|eb4548ee] (10+10/53) Accurately ripped
20 [2d4e7eac|abea8a3e] (10+11/55) Accurately ripped
Offsetted by 664:
01 [9515712d] (03/55) Accurately ripped
02 [1bef661e] (03/55) Accurately ripped
03 [c0d99a01] (03/55) Accurately ripped
04 [f49eb27f] (03/55) Accurately ripped
05 [a2b10ffc] (03/55) Accurately ripped
06 [207cbd22] (03/55) Accurately ripped
07 [3dd1f3b1] (03/55) Accurately ripped
08 [02589e19] (02/54) Accurately ripped
09 [fad86a65] (03/54) Accurately ripped
10 [df407d42] (03/55) Accurately ripped
11 [0ff53d86] (03/55) Accurately ripped
12 [4feb239b] (03/55) Accurately ripped
13 [aeff4ac7] (03/55) Accurately ripped
14 [b111d7e4] (03/55) Accurately ripped
15 [7164485b] (03/55) Accurately ripped
16 [b2e171f8] (03/54) Accurately ripped
17 [18197dc0] (03/55) Accurately ripped
18 [e4b6145e] (03/54) Accurately ripped
19 [284eaf85] (03/53) Accurately ripped
20 [8ec9ed49] (03/55) Accurately ripped
Offsetted by 648:
01 [d0166d28] (13/55) Accurately ripped
02 [57419cf8] (13/55) Accurately ripped
03 [b6bb3398] (13/55) Accurately ripped
04 [0f420229] (13/55) Accurately ripped
05 [d48a73da] (13/55) Accurately ripped
06 [d79f4521] (13/55) Accurately ripped
07 [819bb659] (13/55) Accurately ripped
08 [eb4d9ed9] (13/54) Accurately ripped
09 [1c5cc633] (13/54) Accurately ripped
10 [355956bb] (00/55) No match
11 [8ec904cf] (13/55) Accurately ripped
12 [0dc5bd11] (13/55) Accurately ripped
13 [6c23210c] (13/55) Accurately ripped
14 [7ccc8b97] (13/55) Accurately ripped
15 [561342ab] (13/55) Accurately ripped
16 [00ffcffd] (13/54) Accurately ripped
17 [04ad4cbf] (13/55) Accurately ripped
18 [7461ac91] (13/54) Accurately ripped
19 [624e6d3c] (12/53) Accurately ripped
20 [7ebf4cde] (13/55) Accurately ripped
Offsetted by 698:
01 [37efaf8c] (00/55) No match
02 [8bff2fbf] (00/55) No match
03 [825d34eb] (00/55) No match
04 [7331df88] (00/55) No match
05 [98f0afea] (00/55) No match
06 [da013e05] (00/55) No match
07 [b2b1a100] (00/55) No match
08 [a9a2506a] (00/54) No match
09 [84960d2f] (00/54) No match
10 [63d17a93] (00/55) No match (V2 was not tested)
11 [1eeafc7b] (00/55) No match
12 [fa8994db] (00/55) No match
13 [8fb95fc6] (00/55) No match
14 [5e0b1ff8] (00/55) No match
15 [d7c06e94] (00/55) No match
16 [3a71c58d] (00/54) No match
17 [422d1f40] (00/55) No match
18 [7d01c524] (00/54) No match
19 [1584f65d] (00/53) No match
20 [ccb31f78] (00/55) No match

Track Peak [ CRC32 ] [W/O NULL] [ LOG ]
– 65,5 [59062C79] [810A820C] CRC32
01 44,8 [6194E3C9] [47BBE180]
02 50,4 [DC6359EB] [224DF0E6]
03 38,1 [D2EFEC2B] [D9196CA5]
04 61,0 [5746D340] [B7C70C18]
05 41,7 [B33E36A4] [358DFF53]
06 56,4 [9F0BB33F] [6DAADC6B]
07 34,5 [8606F2E4] [265DD1E3]
08 65,5 [52A57070] [35CC91F6]
09 26,6 [94979557] [E6052C65]
10 24,9 [4471CCEB] [61680D57]
11 31,7 [0B02CCAD] [8DCA7F50]
12 50,2 [490E0D96] [2A0FD5AE]
13 24,0 [32AF1340] [FE44DC75]
14 39,2 [9C3B07CF] [270BAA14]
15 29,8 [6A67A2F1] [9C113A84]
16 53,1 [3CCFD739] [3523AD08]
17 27,6 [2542AEBE] [552DA253]
18 40,2 [667184D8] [FAC0EFDD]
19 18,5 [CDF0A37D] [BEA33DAD]
20 49,1 [4AD6F1C5] [1A28C3E6]

CD2:
[1] Toccata and Fugue in D minor, BWV 565 7:29
Reconstructed for solo violin by Andrew Manze

Sonata in G major, BWV 1019 16:45
[2] Allegro 3:35
[3] Largo 1:35
[4] Allegro 4:58
[5] Adagio 3:23
[6] Allegro 3:14

Alternates: Sonata in G major, BWV 1019
[7] Cembalo solo 5:33
[8] Adagio 2:10
[9] Violino solo e Basso raccompagnato 2:10
[10] Cantabile ma un poco adagio 7:19

Sonata in G major, BWV 1021 9:08
[11] Adagio 4:15
[12] Vivace 0:58
[13] Largo 2:40
[14] Presto 1:15

Sonata in E minor, BWV 1023 12:13
[15] [Preludio] 1:20
[16] Adagio ma non tanto 3:37
[17] Allemanda 4:24
[18] Gigue 2:52

Sonata in C minor, BWV 1024 13:32
[19] Adagio 3:29
[20] Presto 3:15
[21] Affetuoso 2:38
[22] Vivace 3:59

Exact Audio Copy V1.0 beta 3 from 29. August 2011

Отчёт EAC об извлечении, выполненном 24. июля 2013, 23:09

Andrew Manze, Richard Egarr, Jaap ter Linden / J.S.Bach Violin Sonatas - CD2

Дисковод: HL-DT-STDVDRAM GT33N Adapter: 1 ID: 0

Режим чтения : Достоверность
Использование точного потока : Да
Отключение кэша аудио : Да
Использование указателей C2 : Нет

Коррекция смещения при чтении : 103
Способность читать области Lead-in и Lead-out : Нет
Заполнение пропущенных сэмплов тишиной : Да
Удаление блоков с тишиной в начале и конце : Нет
При вычислениях CRC использовались нулевые сэмплы : Да
Интерфейс : Встроенный Win32-интерфейс для Win NT/2000

Выходной формат : Пользовательский кодировщик
Выбранный битрейт : 1024 kBit/s
Качество : Высокий
Добавление ID3-тега : Да
Утилита сжатия : C:\Program Files (x86)\Exact Audio Copy\Flac\flac.exe
Дополнительные параметры : -8 -V -T "TITLE=%title%" -T "ARTIST=%artist%" -T "ALBUMARTIST=%albumartist%" -T "ALBUM=%albumtitle%" -T "DATE=%year%" -T "TRACKTOTAL=%numtracks%" -T "GENRE=%genre%" -T "COMMENT=%comment%" -T "PERFORMER=%albuminterpret%" -T "COMPOSER=%composer%" %source% -o %dest%


TOC извлечённого CD

Трек | Старт | Длительность | Начальный сектор | Конечный сектор
––––––––––––––––––––––––––––––––––-
1 | 0:00.00 | 7:34.05 | 0 | 34054
2 | 7:34.05 | 3:35.25 | 34055 | 50204
3 | 11:09.30 | 1:36.35 | 50205 | 57439
4 | 12:45.65 | 5:00.27 | 57440 | 79966
5 | 17:46.17 | 3:25.15 | 79967 | 95356
6 | 21:11.32 | 3:16.25 | 95357 | 110081
7 | 24:27.57 | 5:32.60 | 110082 | 135041
8 | 30:00.42 | 2:13.58 | 135042 | 145074
9 | 32:14.25 | 2:13.27 | 145075 | 155076
10 | 34:27.52 | 7:23.70 | 155077 | 188371
11 | 41:51.47 | 4:15.18 | 188372 | 207514
12 | 46:06.65 | 0:58.00 | 207515 | 211864
13 | 47:04.65 | 2:39.52 | 211865 | 223841
14 | 49:44.42 | 1:17.70 | 223842 | 229686
15 | 51:02.37 | 1:19.68 | 229687 | 235679
16 | 52:22.30 | 3:39.37 | 235680 | 252141
17 | 56:01.67 | 4:24.00 | 252142 | 271941
18 | 60:25.67 | 2:55.60 | 271942 | 285126
19 | 63:21.52 | 3:31.33 | 285127 | 300984
20 | 66:53.10 | 3:27.35 | 300985 | 316544
21 | 70:20.45 | 2:38.57 | 316545 | 328451
22 | 72:59.27 | 3:58.73 | 328452 | 346374


Характеристики диапазона извлечения и сообщения об ошибках

Выбранный диапазон

Имя файла O:\!Rips\J.S.Bach Violin Sonatas - CD2.wav

Пиковый уровень 72.5 %
Скорость извлечения 2.3 X
Качество диапазона 100.0 %
CRC теста 97DFBE30
CRC копии 97DFBE30
Копирование… OK

Ошибок не произошло


AccurateRip: сводка

Трек 1 : извлечено точно (доверие 6) [07DEBE63] (AR v2)
Трек 2 : извлечено точно (доверие 6) [6F2FB4D0] (AR v2)
Трек 3 : извлечено точно (доверие 6) [149424EB] (AR v2)
Трек 4 : извлечено точно (доверие 6) [93CB40F8] (AR v2)
Трек 5 : извлечено точно (доверие 6) [DE06CDEB] (AR v2)
Трек 6 : извлечено точно (доверие 6) [60DFB968] (AR v2)
Трек 7 : извлечено точно (доверие 6) [B55BAA10] (AR v2)
Трек 8 : извлечено точно (доверие 6) [632E9CEB] (AR v2)
Трек 9 : извлечено точно (доверие 6) [586F7729] (AR v2)
Трек 10 : извлечено точно (доверие 6) [6A64AE03] (AR v2)
Трек 11 : извлечено точно (доверие 6) [4A30D6DD] (AR v2)
Трек 12 : извлечено точно (доверие 6) [E2AD5B5E] (AR v2)
Трек 13 : извлечено точно (доверие 6) [11D2DEEA] (AR v2)
Трек 14 : извлечено точно (доверие 6) [8A026CBE] (AR v2)
Трек 15 : извлечено точно (доверие 6) [4E1F2721] (AR v2)
Трек 16 : извлечено точно (доверие 6) [BDC8E036] (AR v2)
Трек 17 : извлечено точно (доверие 6) [1FF60E3E] (AR v2)
Трек 18 : извлечено точно (доверие 6) [57E81A65] (AR v2)
Трек 19 : извлечено точно (доверие 6) [2BB7D6BA] (AR v2)
Трек 20 : извлечено точно (доверие 6) [382916B4] (AR v2)
Трек 21 : извлечено точно (доверие 6) [85D06771] (AR v2)
Трек 22 : извлечено точно (доверие 6) [868E9D29] (AR v2)

Все треки извлечены точно

Конец отчёта

==== Контрольная сумма отчёта 1FE975C024975AAADAD72AC1946A6EF8FF8463CCD45B6EC080AC36DBA7431E63 ====

[CUETools log; Date: 31.07.2017 21:32:43; Version: 2.1.5]
[CTDB TOCID: 52Zv0db4YsLYwPD_fU8g9B5AQgA-] found.
Track | CTDB Status
1 | (32/34) Accurately ripped
2 | (32/34) Accurately ripped
3 | (33/34) Accurately ripped
4 | (33/34) Accurately ripped
5 | (33/34) Accurately ripped
6 | (33/34) Accurately ripped
7 | (33/34) Accurately ripped
8 | (33/34) Accurately ripped
9 | (33/34) Accurately ripped
10 | (33/34) Accurately ripped
11 | (33/34) Accurately ripped
12 | (33/34) Accurately ripped
13 | (33/34) Accurately ripped
14 | (33/34) Accurately ripped
15 | (33/34) Accurately ripped
16 | (33/34) Accurately ripped
17 | (33/34) Accurately ripped
18 | (33/34) Accurately ripped
19 | (33/34) Accurately ripped
20 | (32/34) Accurately ripped
21 | (33/34) Accurately ripped
22 | (30/34) Accurately ripped, or (1/34) differs in 2068 samples @03:58:56-03:58:57
[AccurateRip ID: 004103dd-03f2f005-4c120a16] found.
Track [ CRC | V2 ] Status
01 [9b8543b7|07debe63] (10+11/54) Accurately ripped
02 [864ab5cc|6f2fb4d0] (10+11/54) Accurately ripped
03 [a053a41b|149424eb] (10+11/54) Accurately ripped
04 [fa6c9fb4|93cb40f8] (10+11/54) Accurately ripped
05 [b8ff7eee|de06cdeb] (10+11/54) Accurately ripped
06 [029d4d0b|60dfb968] (10+11/54) Accurately ripped
07 [fb6cbbfd|b55baa10] (10+11/54) Accurately ripped
08 [5b597d0b|632e9ceb] (10+11/53) Accurately ripped
09 [c3656b7e|586f7729] (10+11/54) Accurately ripped
10 [d5815f49|6a64ae03] (10+11/53) Accurately ripped
11 [87be6522|4a30d6dd] (10+11/54) Accurately ripped
12 [e109adcb|e2ad5b5e] (10+11/54) Accurately ripped
13 [86ad0ab0|11d2deea] (10+11/53) Accurately ripped
14 [5b5c2601|8a026cbe] (10+11/54) Accurately ripped
15 [07573db0|4e1f2721] (10+11/55) Accurately ripped
16 [86a90f8d|bdc8e036] (10+11/55) Accurately ripped
17 [d025258f|1ff60e3e] (10+11/54) Accurately ripped
18 [1080f59e|57e81a65] (10+11/54) Accurately ripped
19 [a0ae7a54|2bb7d6ba] (10+11/54) Accurately ripped
20 [d52a1acf|382916b4] (10+11/54) Accurately ripped
21 [74a52d1f|85d06771] (10+11/54) Accurately ripped
22 [62082833|868e9d29] (10+11/52) Accurately ripped
Offsetted by 681:
01 [15a07327] (15/54) Accurately ripped
02 [6868321d] (15/54) Accurately ripped
03 [5a6f6328] (15/54) Accurately ripped
04 [e1bc06df] (15/54) Accurately ripped
05 [90bbfa21] (15/54) Accurately ripped
06 [24276a2a] (15/54) Accurately ripped
07 [7ca91ac7] (15/54) Accurately ripped
08 [8956059b] (14/53) Accurately ripped
09 [ad3409ce] (15/54) Accurately ripped
10 [074c45fe] (14/53) Accurately ripped
11 [57c1de60] (15/54) Accurately ripped
12 [cd6b83b1] (15/54) Accurately ripped
13 [7d721919] (14/53) Accurately ripped
14 [5aa06fe0] (15/54) Accurately ripped
15 [d3174caa] (15/55) Accurately ripped
16 [a714c883] (15/55) Accurately ripped
17 [ec5a8f23] (15/54) Accurately ripped
18 [84f94ac8] (15/54) Accurately ripped
19 [1ad903c3] (15/54) Accurately ripped
20 [bbd1d26f] (15/54) Accurately ripped
21 [342c5fad] (15/54) Accurately ripped
22 [9a130e88] (15/52) Accurately ripped

Track Peak [ CRC32 ] [W/O NULL] [ LOG ]
– 72,5 [97DFBE30] [24BDB9FA] CRC32
01 72,5 [B389B8B1] [9F0B2668]
02 27,5 [90C65F9F] [379D75DD]
03 18,0 [006D26FF] [15EEBF0C]
04 9,9 [3BDBF880] [1FB6348D]
05 17,6 [A17FF887] [67C7F4D5]
06 31,2 [E3585C4B] [C645B2C4]
07 11,1 [10D90363] [17E64040]
08 10,7 [BC26C357] [0122CC3A]
09 34,0 [596E1C02] [20DDF362]
10 23,8 [9734D794] [20290474]
11 27,9 [D6E383CA] [EF7C01B9]
12 39,8 [610894E0] [A06ACAE2]
13 25,8 [EE113406] [FF18C1DA]
14 51,0 [C97ECE92] [620BE975]
15 35,6 [8CAC8360] [D38AD899]
16 60,3 [D5F575B2] [3FB22326]
17 56,6 [0AF39810] [D53F2345]
18 69,3 [BA6A79A2] [E8D69965]
19 47,1 [E89DDA91] [FDB2E583]
20 60,2 [97247D39] [DE6989DC]
21 35,2 [628E857B] [8963AD0E]
22 60,0 [F0188715] [2B2FAA18]

Performers:
Andrew Manze, violin
Richard Egarr, harpsichord
Jaap ter Linden viola da gamba, cello

Thanks to the Original ripper jebiawio!

Download: