Subcategories

Andrew Parrott, Taverner Consort & Players - Bach: St. John Passion, Easter & Ascension Oratorios, Mass in B minor (2002)

Posted By: ArlegZ
Andrew Parrott, Taverner Consort & Players - Bach: St. John Passion, Easter & Ascension Oratorios, Mass in B minor (2002)

Andrew Parrott, Taverner Consort & Players - Bach: St. John Passion, Easter Oratorio, Ascension Oratorio, Mass in B minor (2002)
EAC | FLAC | Image (Cue & Log) ~ 1,03 Gb | Total time: 33:54+75:28+65:56+50:39+52:51 | Scans included
Classical | Label: Virgin | # 5 62068 2 | Recorded: 1985, 1991, 1994

There are many, many good things about Andrew Parrott and the Taverner Consort and Players' Bach performances – their luminous colors, complete clarity, utter lucidity, and structural integrity – that there is an uneasy feeling in criticizing them for their occasional flaws. When Parrott's Bach is good, it is as great as any that has been recorded in the past 20 years. It's as great as Leonhardt's, Koopman's, or Herreweghe's, and far better than Gardiner's, Harnoncourt's, or Rilling's. And Parrott's Bach is so great in the great pieces – so great in the overwhelming dramatic intensity of the close of his Saint John Passion and so great in the mystery, agony, and ecstasy of the central choral triptych in his Mass in B minor – that his performances seem very, very great indeed.
(James Leonard)

Performer:
Saint John Passion BWV 245:
Rogers Covey-Crump: Evangelist & Tenor arias 13 & 20, Arioso 34
David Thomas: Jesus & Bass arias 24 & 32
Sopranos: Tessa Bonner, Christian Fliegner, Emily Van Evera
Altos: Christian Günther, Caroline Trevor
Tenors: Nicolas Roberson, Andrew Tusa
Bass: Stephen Charlesworth, Simon Grant
Easter Oratorio BWV 249:
Emily Van Evera, soprano
Caroline Trevor, alto
Charles Daniels, tenor
Peter Kooy, bass
Ascension Oratorio BWV 11:
Emma Kirkby, soprano
Evelyn Tubb, soprano
Margaret Cable, alto
Wilfried Jochens, tenor
Stephen Charlesworth, bass
Mass in B minor BWV 232:
Emma Kirkby, soprano I
Emily Van Evera, soprano II
Panito Iconomou, alto
Rogers Covey-Crump, tenor
David Thomas, bass
Andrew Parrott, Taverner Consort & Players

Track List:
CD1:
St. John Passion (Johannes-passion) BWV 245:
01. Erster Tell. Chorus: Herr, unser Herrscher
02. Evangelist, Jesus: Jesus ging mit seinen Jüngern
03. Choral: O große lieb
04. Evangelist, Jesus: Auf daß das Wort erfüllet würde
05. Choral: Dein Will gescheh, Herr Gott zugleich
06. Evangelist: Die Schar aber und der Oberhauptmann
07. Aria: Von den Stricken meiner Sünden
08. Evangelist: Simon Petrus aber folgete Jesum nach
09. Aria: Ich folge dir gleichfalls
10. Evangelist, Ancilla, Petrus, Jesus, Servus: Der selbige Jünger war dem Hohepriester bekannt
11. Choral: Wer hat dich so geschlagen
12. Evangelist: Und Hannas sandte Ihn gebunden
13. Aria: Ach Mein Sinn
14. Choral: Petrus, der nicht denket zurück
CD2:
01. Zweiter Tell. Choral: Christus, der uns selig macht
02. Evangelist, Pilatus: Da führeten sie Jesum
03. Choral: Ach, großer König
04. Evangelist, Jesus, Pilatus: Da sprach Pilatus zu ihm
05. Arioso: Betrachte, meine Seel
06. Aria: Mein Jesu, ach!
07. Evangelist: Und die Kriegsknechte flochten
08. Choral: Durch dein Gefängnis, Gottes Sohn
09. Evangelist: Die Jüden aber schrien
10. Aria: Eilt, ihr angefocht'nen Seelen
11. Evangelist: Allda kreuzigten sie ihn
12. Choral: In meines Herzens Grunde
13. Evangelist: Die Kriegsknechte aber
14. Choral: Er nahm alles wohl in acht
15. Evangelist, Jesus: Und von Stund and nahm sie
16. Aria: Es ist vollbracht
17. Evangelist: Und neigte das Haupt und verschied
18. Aria: Mein teuer Heiland
19. Evangelist: Und siehe da, der Vorhang im Tempel zerriß
20. Arioso: Mein Herz, in dem die ganze welt
21. Aria: Zerfließe, mein Herze
22. Evangelist: Die Jüden aber, dieweil es der Rusttag war
23. Choral: O hilf, Christe, Gottes Sohn
24. Evangelist: Darnach bat Pilatum Joseph von Arimathia
25. Chorus: Ruht wohl, ihr heiligen Gebeine
26. Choral: Ach Herr, laß dein' lieb' Engelein
CD3:
Oster-Oratorium, "Kommt, eilet und laufet" (Easter Oratorio) BWV 249:
01. Sinfonia
02. Adagio
03. Chorus: Kommit, eilet und laufet
04. Recitativo: O kalter Männer Sinn!
05. Aria: Seele, deine Spezereien
06. Recitativo: Hier ist die Gruft
07. Aria: Sanfte soll mein Todeskummer
08. Recitativo: Indessen seufzen wir
09. Aria: Saget, saget mir geschwinde
10. Recitativo: Wir sind erfreut
11. Chorus: Preis und Dank
Himmelfahrts-Oratorium, "Lobet Gott in seinen Reichen" (Ascension Oratorio) BWV 11:
12. Chorus: Lobet Gott in seinen Reichen
13. Recitativo: Der Herr Jesus hub seine Hände auf
14. Recitativo: Ach, Jesu, ist dein Abschied schon so nah?
15. Aria: Ach, bleibe doch, mein liebstes Leben
16. Recitativo: Und ward aufgehoben zusehens
17. Choral: Nun leiget alles unter dir
18. Recitativo: Und da sie ihm nachsahen
19. Aria: Jesu, deine Gnadenblicke
20. Choral: Wenn soll es doch geschehen
CD4:
Mass in B minor BWV 232:
01. Kyrie. Coro: Kyrie eleison
02. Duetto: Christe eleison
03. Coro: Kyrie eleison
04. Gloria. Coro: Gloria in excelsis Deo
05. Coro: Et in terra pax
06. Aria: Laudamus te
07. Coro: Gratias agimus tibi
08. Duetto: Domine Deus
09. Coro: Qui tollis peccata mundi
10. Aria: Qui sedes ad dextram Patris
11. Aria: Quoniam tu solus Sanctus
12. Coro: Cum Sancto Spiritu
CD5:
01. Symbolum nicenum. Coro: Credo in unum Deum
02. Coro: Patrem omnipotentem
03. Duetto: Et in unum Dominum
04. Coro: Et incarnatus est
05. Coro: Crucifixus
06. Coro: Et resurrexit
07. Aria: Et in Spiritum Sanctum
08. Coro: Confiteor
09. Coro: Et expecto
10. Coro: Sanctus
11. Coro: Osanna In excelsis
12. Aria: Benedictus
13. Coro: Osanna In excelsis
14. Aria: Agnus Dei
15. Coro: Dona nobis pacem


Exact Audio Copy V1.3 from 2. September 2016

EAC extraction logfile from 23. February 2018, 12:31

Andrew Parrott, Taverner Consort & Players / Bach - Saint John Passion BWV 245 Part I

Used drive : HL-DT-STDVDRAM GH24NS95 Adapter: 1 ID: 0

Read mode : Secure
Utilize accurate stream : Yes
Defeat audio cache : Yes
Make use of C2 pointers : No

Read offset correction : 6
Overread into Lead-In and Lead-Out : No
Fill up missing offset samples with silence : Yes
Delete leading and trailing silent blocks : No
Null samples used in CRC calculations : Yes
Used interface : Native Win32 interface for Win NT & 2000

Used output format : User Defined Encoder
Selected bitrate : 128 kBit/s
Quality : High
Add ID3 tag : No
Command line compressor : C:\Program Files\Exact Audio Copy\Flac\flac.exe
Additional command line options : -V -8 -T "Date=%year%" -T "Genre=%genre%" %source%


TOC of the extracted CD

Track | Start | Length | Start sector | End sector
––––––––––––––––––––––––––––-
1 | 0:00.00 | 8:49.16 | 0 | 39690
2 | 8:49.16 | 2:18.02 | 39691 | 50042
3 | 11:07.18 | 0:45.11 | 50043 | 53428
4 | 11:52.29 | 1:04.04 | 53429 | 58232
5 | 12:56.33 | 0:49.53 | 58233 | 61960
6 | 13:46.11 | 0:43.50 | 61961 | 65235
7 | 14:29.61 | 4:49.24 | 65236 | 86934
8 | 19:19.10 | 0:15.24 | 86935 | 88083
9 | 19:34.34 | 3:39.23 | 88084 | 104531
10 | 23:13.57 | 2:47.06 | 104532 | 117062
11 | 26:00.63 | 1:38.10 | 117063 | 124422
12 | 27:38.73 | 2:03.70 | 124423 | 133717
13 | 29:42.68 | 2:46.33 | 133718 | 146200
14 | 32:29.26 | 1:21.40 | 146201 | 152315


Range status and errors

Selected range

Filename C:\Program Files\Exact Audio Copy\Flac\Bach - Saint John Passion BWV 245 Part I.wav

Peak level 95.5 %
Extraction speed 6.6 X
Range quality 99.9 %
Test CRC A3B9C30F
Copy CRC A3B9C30F
Copy OK

No errors occurred

End of status report

==== Log checksum 82C04CAEAF8C52EDFB102BBA7350F07C9E9442A58CAEDA4B2B81E2EFD16BF6A3 ====


Exact Audio Copy V1.3 from 2. September 2016

EAC extraction logfile from 23. February 2018, 13:12

Andrew Parrott, Taverner Consort & Players / Bach - Saint John Passion BWV 245 Part II

Used drive : HL-DT-STDVDRAM GH24NS95 Adapter: 1 ID: 0

Read mode : Secure
Utilize accurate stream : Yes
Defeat audio cache : Yes
Make use of C2 pointers : No

Read offset correction : 6
Overread into Lead-In and Lead-Out : No
Fill up missing offset samples with silence : Yes
Delete leading and trailing silent blocks : No
Null samples used in CRC calculations : Yes
Used interface : Native Win32 interface for Win NT & 2000

Used output format : User Defined Encoder
Selected bitrate : 128 kBit/s
Quality : High
Add ID3 tag : No
Command line compressor : C:\Program Files\Exact Audio Copy\Flac\flac.exe
Additional command line options : -V -8 -T "Date=%year%" -T "Genre=%genre%" %source%


TOC of the extracted CD

Track | Start | Length | Start sector | End sector
––––––––––––––––––––––––––––-
1 | 0:00.00 | 1:13.44 | 0 | 5518
2 | 1:13.44 | 4:10.66 | 5519 | 24334
3 | 5:24.35 | 1:30.47 | 24335 | 31131
4 | 6:55.07 | 1:56.58 | 31132 | 39889
5 | 8:51.65 | 2:12.45 | 39890 | 49834
6 | 11:04.35 | 7:17.43 | 49835 | 82652
7 | 18:22.03 | 5:38.20 | 82653 | 108022
8 | 24:00.23 | 0:54.52 | 108023 | 112124
9 | 24:55.00 | 4:11.63 | 112125 | 131012
10 | 29:06.63 | 3:36.00 | 131013 | 147212
11 | 32:42.63 | 2:02.26 | 147213 | 156388
12 | 34:45.14 | 0:58.72 | 156389 | 160810
13 | 35:44.11 | 3:45.38 | 160811 | 177723
14 | 39:29.49 | 1:08.30 | 177724 | 182853
15 | 40:38.04 | 1:27.31 | 182854 | 189409
16 | 42:05.35 | 5:06.64 | 189410 | 212423
17 | 47:12.24 | 0:19.21 | 212424 | 213869
18 | 47:31.45 | 4:43.61 | 213870 | 235155
19 | 52:15.31 | 0:29.33 | 235156 | 237363
20 | 52:44.64 | 0:39.39 | 237364 | 240327
21 | 53:24.28 | 6:31.19 | 240328 | 269671
22 | 59:55.47 | 2:12.45 | 269672 | 279616
23 | 62:08.17 | 1:06.37 | 279617 | 284603
24 | 63:14.54 | 2:06.04 | 284604 | 294057
25 | 65:20.58 | 8:01.70 | 294058 | 330202
26 | 73:22.53 | 2:05.03 | 330203 | 339580


Range status and errors

Selected range

Filename C:\Program Files\Exact Audio Copy\Flac\Bach - Saint John Passion BWV 245 Part II.wav

Peak level 83.3 %
Extraction speed 8.2 X
Range quality 100.0 %
Test CRC BBFB68E7
Copy CRC BBFB68E7
Copy OK

No errors occurred

End of status report

==== Log checksum 9309EA13882AA20F98E40EFEAAAE591182AFA2A276B307815C729030FF57AD85 ====


Exact Audio Copy V1.3 from 2. September 2016

EAC extraction logfile from 23. February 2018, 13:56

Andrew Parrott, Taverner Consort & Players / Bach - Easter and Ascension Oratorios

Used drive : HL-DT-STDVDRAM GH24NS95 Adapter: 1 ID: 0

Read mode : Secure
Utilize accurate stream : Yes
Defeat audio cache : Yes
Make use of C2 pointers : No

Read offset correction : 6
Overread into Lead-In and Lead-Out : No
Fill up missing offset samples with silence : Yes
Delete leading and trailing silent blocks : No
Null samples used in CRC calculations : Yes
Used interface : Native Win32 interface for Win NT & 2000

Used output format : User Defined Encoder
Selected bitrate : 128 kBit/s
Quality : High
Add ID3 tag : No
Command line compressor : C:\Program Files\Exact Audio Copy\Flac\flac.exe
Additional command line options : -V -8 -T "Date=%year%" -T "Genre=%genre%" %source%


TOC of the extracted CD

Track | Start | Length | Start sector | End sector
––––––––––––––––––––––––––––-
1 | 0:00.00 | 4:08.74 | 0 | 18673
2 | 4:08.74 | 3:32.60 | 18674 | 34633
3 | 7:41.59 | 5:10.08 | 34634 | 57891
4 | 12:51.67 | 1:01.15 | 57892 | 62481
5 | 13:53.07 | 10:04.30 | 62482 | 107811
6 | 23:57.37 | 0:47.32 | 107812 | 111368
7 | 24:44.69 | 5:35.63 | 111369 | 136556
8 | 30:20.57 | 0:55.52 | 136557 | 140733
9 | 31:16.34 | 5:53.38 | 140734 | 167246
10 | 37:09.72 | 0:38.63 | 167247 | 170159
11 | 37:48.60 | 2:25.03 | 170160 | 181037
12 | 40:13.63 | 4:34.06 | 181038 | 201593
13 | 44:47.69 | 0:29.55 | 201594 | 203823
14 | 45:17.49 | 0:53.59 | 203824 | 207857
15 | 46:11.33 | 5:58.42 | 207858 | 234749
16 | 52:10.00 | 0:24.14 | 234750 | 236563
17 | 52:34.14 | 1:04.23 | 236564 | 241386
18 | 53:38.37 | 2:10.07 | 241387 | 251143
19 | 55:48.44 | 6:03.55 | 251144 | 278423
20 | 61:52.24 | 4:01.54 | 278424 | 296552


Range status and errors

Selected range

Filename C:\Program Files\Exact Audio Copy\Flac\Bach - Easter and Ascension Oratorios.wav

Peak level 93.5 %
Extraction speed 7.8 X
Range quality 100.0 %
Test CRC A5F16293
Copy CRC A5F16293
Copy OK

No errors occurred

End of status report

==== Log checksum CF28AD0DF9A20DD1186BC98A48BD2D962118CB32A84B063B052C003EB64E578A ====


Exact Audio Copy V1.3 from 2. September 2016

EAC extraction logfile from 23. February 2018, 14:23

Andrew Parrott, Taverner Consort & Players / Bach - Mass in B minor (I)

Used drive : HL-DT-STDVDRAM GH24NS95 Adapter: 1 ID: 0

Read mode : Secure
Utilize accurate stream : Yes
Defeat audio cache : Yes
Make use of C2 pointers : No

Read offset correction : 6
Overread into Lead-In and Lead-Out : No
Fill up missing offset samples with silence : Yes
Delete leading and trailing silent blocks : No
Null samples used in CRC calculations : Yes
Used interface : Native Win32 interface for Win NT & 2000

Used output format : User Defined Encoder
Selected bitrate : 128 kBit/s
Quality : High
Add ID3 tag : No
Command line compressor : C:\Program Files\Exact Audio Copy\Flac\flac.exe
Additional command line options : -V -8 -T "Date=%year%" -T "Genre=%genre%" %source%


TOC of the extracted CD

Track | Start | Length | Start sector | End sector
––––––––––––––––––––––––––––-
1 | 0:00.00 | 9:08.00 | 0 | 41099
2 | 9:08.00 | 4:47.03 | 41100 | 62627
3 | 13:55.03 | 3:14.12 | 62628 | 77189
4 | 17:09.15 | 1:43.58 | 77190 | 84972
5 | 18:52.73 | 3:58.12 | 84973 | 102834
6 | 22:51.10 | 4:09.45 | 102835 | 121554
7 | 27:00.55 | 2:56.63 | 121555 | 134817
8 | 29:57.43 | 5:08.67 | 134818 | 157984
9 | 35:06.35 | 2:36.53 | 157985 | 169737
10 | 37:43.13 | 4:31.47 | 169738 | 190109
11 | 42:14.60 | 4:31.73 | 190110 | 210507
12 | 46:46.58 | 3:52.15 | 210508 | 227922


Range status and errors

Selected range

Filename C:\Program Files\Exact Audio Copy\Flac\Bach - Mass in B minor (I).wav

Peak level 81.1 %
Extraction speed 7.3 X
Range quality 100.0 %
Test CRC 449172C6
Copy CRC 449172C6
Copy OK

No errors occurred

End of status report

==== Log checksum F9111C4859C898197E1AD1ECF73463AE7A7FB1498BA048ECDC1658B6CC01A40C ====


Exact Audio Copy V1.3 from 2. September 2016

EAC extraction logfile from 23. February 2018, 14:50

Andrew Parrott, Taverner Consort & Players / Bach - Mass in B minor (II)

Used drive : HL-DT-STDVDRAM GH24NS95 Adapter: 1 ID: 0

Read mode : Secure
Utilize accurate stream : Yes
Defeat audio cache : Yes
Make use of C2 pointers : No

Read offset correction : 6
Overread into Lead-In and Lead-Out : No
Fill up missing offset samples with silence : Yes
Delete leading and trailing silent blocks : No
Null samples used in CRC calculations : Yes
Used interface : Native Win32 interface for Win NT & 2000

Used output format : User Defined Encoder
Selected bitrate : 128 kBit/s
Quality : High
Add ID3 tag : No
Command line compressor : C:\Program Files\Exact Audio Copy\Flac\flac.exe
Additional command line options : -V -8 -T "Date=%year%" -T "Genre=%genre%" %source%


TOC of the extracted CD

Track | Start | Length | Start sector | End sector
––––––––––––––––––––––––––––-
1 | 0:00.00 | 1:53.35 | 0 | 8509
2 | 1:53.35 | 1:54.60 | 8510 | 17119
3 | 3:48.20 | 4:21.20 | 17120 | 36714
4 | 8:09.40 | 3:04.00 | 36715 | 50514
5 | 11:13.40 | 3:22.30 | 50515 | 65694
6 | 14:35.70 | 4:04.45 | 65695 | 84039
7 | 18:40.40 | 5:57.73 | 84040 | 110887
8 | 24:38.38 | 3:52.55 | 110888 | 128342
9 | 28:31.18 | 2:17.12 | 128343 | 138629
10 | 30:48.30 | 5:18.73 | 138630 | 162552
11 | 36:07.28 | 2:49.42 | 162553 | 175269
12 | 38:56.70 | 3:25.38 | 175270 | 190682
13 | 42:22.33 | 2:51.47 | 190683 | 203554
14 | 45:14.05 | 4:33.40 | 203555 | 224069
15 | 49:47.45 | 3:01.58 | 224070 | 237702


Range status and errors

Selected range

Filename C:\Program Files\Exact Audio Copy\Flac\Bach - Mass in B minor (II).wav

Peak level 100.0 %
Extraction speed 7.4 X
Range quality 100.0 %
Test CRC BC078BB9
Copy CRC BC078BB9
Copy OK

No errors occurred

End of status report

==== Log checksum E330FE32F43866701E6B266D1CD052AA4DBE670721B7B07EFE00CE1DC6487D24 ====