Subcategories

Andy Williams - Original Album Collection Vol. 1 (2013) Mini LP 8 CD Box Set [Re-Up]

Posted By: Designol
Andy Williams - Original Album Collection Vol. 1 (2013) Mini LP 8 CD Box Set [Re-Up]

Andy Williams - Original Album Collection Vol. 1 (2013) Mini LP 8 CD Box Set
EAC | FLAC | Image (Cue&Log) ~ 2.11 Gb | Mp3 (CBR320) ~ 1.01 Gb | Scans ~ 351 Mb
Easy Listening, Standarts, Vocal Pop, Early Pop/Rock | Label: Sony | # SICP-3742~9 | 04:36:02

Japanese original release. First box set of Andy Williams includes seven original albums "Canadian Sunset," "To You Sweetheart, Aloha," "Moon River and Other Great Movie Themes," "Days of Wine and Roses and Other TV Requests," "The Wonderful World of Andy Williams," "The Academy Award-Winning Call Me Irresponsible and Other Hit Songs from the Movies," and "The Great Songs from "My Fair Lady" and Other Broadway Hits" plus a bonus disc with Japanese version(s) of songs, rare tracks, and more. Features remastering and cardboard sleeve faithfully replicating its US LP jacket design. Comes with lyrics and a description.

An engaging crooner, TV personality, and entrepreneur, Andy Williams was one of the most bankable and popular singers of his era. With his laid-back delivery, supple voice, and amiable charm, Williams rode a wave of success that took him from a childhood vocal act with his brothers to worldwide fame as a solo artist, eventually finding latter-day success as a theater impresario in Branson, Missouri. Though he started out as a crooner in the post-Frank Sinatra style, his wide-ranging taste in music (as evidenced by the guests on his '60s variety show) found him embracing artists and songs across generational and stylistic boundaries; and he can be heard on record interpreting songs that range from traditional pop to rock to bossa nova, country, and beyond. From the pre-rock & roll era onward, Williams was one of the most recognizable singers of his day.

Born in Wall Lake, Iowa, Williams sang in his church choir and later formed a quartet with his three brothers. The group performed on radio throughout the Midwest, then moved to Los Angeles to make it in show business. The Williams Brothers Quartet appeared on Bing Crosby's 1944 hit "Swinging on a Star" and appeared with comedienne Kay Thompson during the late '40s.

Andy Williams finally began his solo career in 1952, making several appearances on Steve Allen's The Tonight Show before signing a contract with Archie Bleyer's Cadence Records in 1955. He hit the Top Ten in 1956 with his third single for the label, "Canadian Sunset." One year later, his soft-toned cover of the Charlie Gracie rockabilly nugget "Butterfly" hit number one (it's still his biggest hit). Additional Top Ten entries "Are You Sincere," "Lonely Street," and "The Village of St. Bernadette" followed before Williams moved to Columbia in 1961.

Despite another big hit in 1963, "Can't Get Used to Losing You," Williams failed to generate much action on the singles charts during the 1960s. Instead, his highly rated variety program on NBC-TV spurred interest in the ever-growing LP market for adult and middle-of-the-road audiences. The popular 1962 album Moon River & Other Great Movie Themes featured the song he's most identified with, and the following year's Days of Wine and Roses hit the top of the album charts. Nine more LPs hit the Top Ten for Andy Williams during the '60s, many organized around loose themes – Broadway, ballads, and one album that featured members of his family. Though 1971's Love Story was a platinum success that sparked a Top Ten hit for the title song, his television show was canceled that year.

Andy Williams remained very popular during the '70s, especially for British audiences. His single "Solitaire" hit the Top Ten there in 1973, though it didn't even chart in America. Two of his subsequent albums also performed well, but only in Britain. He released relatively few LPs during the 1980s, but returned to the pop world in the early '90s when he founded his own theater/resort in the home-grown entertainment capital of Branson, Missouri. Williams continued to headline shows there for 20 years, although he announced from its stage during a Christmas 2011 show that he had been diagnosed with cancer. It finally took his life on September 25, 2012.

Biography by John Bush, Allmusic.com

Andy Williams - Original Album Collection Vol. 1 (2013) Mini LP 8 CD Box Set [Re-Up]






Andy Williams - Original Album Collection Vol. 1 (2013) Mini LP 8 CD Box Set [Re-Up]

CD1: Andy Williams - Canadian Sunset (1965)
EAC | FLAC | Image (Cue&Log) ~ 245 Mb | Mp3 (CBR320) ~ 120 Mb
Label: Sony Music | # SICP-3742 | Time: 00:32:01 | Scans included

Canadian Sunset is Columbia Records' reissue of the 1962 Cadence Records compilation Andy Williams' Best. In the course of his five-year tenure at Cadence, 1956-1961, Williams moved from lightly rocking tunes to the kind of ballad material he focused on later in his career, meanwhile trying out a variety of styles including Hawaiian and religious music. That diversity was reflected in his singles of the period. After Williams left for Columbia Records in 1961, Cadence assembled this 12-track hits collection, which contains the singer's seven Top Ten singles of 1956-1960 – "Canadian Sunset," "Butterfly," "I Like Your Kind of Love," "Are You Sincere," "The Hawaiian Wedding Song," "Lonely Street," and "The Village of St. Bernadette." The Top 20 singles "Lips of Wine" and "Promise Me, Love" are missing in favor of including Williams' last three, modestly charting, Cadence singles from 1960-1961, Lionel Bart's "Do You Mind," Roger Miller's "(In the Summer Time) You Don't Want Me Love," and the Brecht-Weill song (with English lyrics by Johnny Mercer) "The Bilbao Song," plus the B-sides of the last two singles, "Don't Talk to Strangers" and "How Wonderful to Know." As such, it is not a comprehensive collection of Williams' Cadence chart singles, though it does contain the most successful ones. Cadence head Archie Bleyer carefully developed and expanded Williams' musical posture during the period, but the singles, mixed up as they are here, make that plan seem stylistically scattershot; it's hard to believe that the same singer performed the mild rockabilly of "I Like Your Kind of Love" and the reverent "The Village of St. Bernadette." But at the end of the Cadence years, Williams was a star, and this album spent more than ten months in the charts. When Columbia's repackaging appeared only three years later, it charted briefly again.

William Ruhlmann, Allmusic.com

Tracklist:

01. Canadian Sunset (2:40)
02. The Hawaiian Wedding Song (2:30)
03. Lonely Street (2:47)
04. The Bilbao Song (2:18)
05. (In The Summer Time) You Don't Want My Love (2:16)
06. Are You Sincere (2:41)
07. The Village Of St. Bernadette (3:22)
08. Do You Mind? (2:17)
09. Don't Go To Strangers (2:56)
10. How Wonderful To Know (2:22)
11. Summer Love (2:52)
12. Dreamsville (2:59)


Exact Audio Copy V1.0 beta 3 from 29. August 2011

EAC extraction logfile from 30. December 2013, 19:31

Andy Williams / Canadian Sunset

Used drive : PLEXTOR BD-R PX-B950SA Adapter: 6 ID: 0

Read mode : Secure
Utilize accurate stream : Yes
Defeat audio cache : Yes
Make use of C2 pointers : No

Read offset correction : 6
Overread into Lead-In and Lead-Out : No
Fill up missing offset samples with silence : Yes
Delete leading and trailing silent blocks : No
Null samples used in CRC calculations : Yes
Used interface : Native Win32 interface for Win NT & 2000

Used output format : Internal WAV Routines
Sample format : 44.100 Hz; 16 Bit; Stereo


TOC of the extracted CD

Track | Start | Length | Start sector | End sector
––––––––––––––––––––––––––––-
1 | 0:00.00 | 2:39.70 | 0 | 11994
2 | 2:39.70 | 2:29.50 | 11995 | 23219
3 | 5:09.45 | 2:46.43 | 23220 | 35712
4 | 7:56.13 | 2:18.11 | 35713 | 46073
5 | 10:14.24 | 2:15.54 | 46074 | 56252
6 | 12:30.03 | 2:41.31 | 56253 | 68358
7 | 15:11.34 | 3:21.72 | 68359 | 83505
8 | 18:33.31 | 2:17.18 | 83506 | 93798
9 | 20:50.49 | 2:56.20 | 93799 | 107018
10 | 23:46.69 | 2:22.20 | 107019 | 117688
11 | 26:09.14 | 2:52.28 | 117689 | 130616
12 | 29:01.42 | 2:59.36 | 130617 | 144077


Range status and errors

Selected range

Filename C:\Users\Meijin\Desktop\ALLexxess\Andy Williams\2013 Original Album Collection 1 (8 Mini LP CD Box Set Sony Japan)\Disc 1 1962 Canadian Sunset\Andy Williams - Canadian Sunset.wav

Peak level 99.7 %
Extraction speed 6.4 X
Range quality 100.0 %
Test CRC A2537393
Copy CRC A2537393
Copy OK

No errors occurred


AccurateRip summary

Track 1 not present in database
Track 2 not present in database
Track 3 not present in database
Track 4 not present in database
Track 5 not present in database
Track 6 not present in database
Track 7 not present in database
Track 8 not present in database
Track 9 not present in database
Track 10 not present in database
Track 11 not present in database
Track 12 not present in database

None of the tracks are present in the AccurateRip database

End of status report

==== Log checksum 9CB14BA7014377199F6D51C4AFD4A9BD1F5F2406435259227A6B3A5273A62C10 ====

foobar2000 1.2 / Dynamic Range Meter 1.1.1
log date: 2014-10-23 17:06:59

––––––––––––––––––––––––––––––––––––––––
Analyzed: Andy Williams / Canadian Sunset
––––––––––––––––––––––––––––––––––––––––

DR Peak RMS Duration Track
––––––––––––––––––––––––––––––––––––––––
DR9 -0.50 dB -11.07 dB 2:40 01-Canadian Sunset
DR9 -0.63 dB -12.03 dB 2:30 02-The Hawaiian Wedding Song
DR9 -0.57 dB -12.93 dB 2:47 03-Lonely Street
DR9 -0.35 dB -10.78 dB 2:18 04-The Bilbao Song
DR8 -0.34 dB -10.02 dB 2:16 05-(In The Summer Time) You Don't Want My Love
DR9 -0.02 dB -11.42 dB 2:41 06-Are You Sincere
DR8 -0.53 dB -11.74 dB 3:22 07-The Village Of St. Bernadette
DR10 -0.44 dB -12.37 dB 2:17 08-Do You Mind?
DR9 -0.45 dB -11.31 dB 2:56 09-Don't Go To Strangers
DR9 -0.48 dB -11.91 dB 2:22 10-How Wonderful To Know
DR9 -0.59 dB -12.70 dB 2:52 11-Summer Love
DR9 -0.56 dB -12.19 dB 2:59 12-Dreamsville
––––––––––––––––––––––––––––––––––––––––

Number of tracks: 12
Official DR value: DR9

Samplerate: 44100 Hz
Channels: 2
Bits per sample: 16
Bitrate: 841 kbps
Codec: FLAC
================================================================================




Andy Williams - Original Album Collection Vol. 1 (2013) Mini LP 8 CD Box Set [Re-Up]

CD2: Andy Williams - To You Sweetheart, Aloha (1959)
EAC | FLAC | Image (Cue&Log) ~ 235 Mb | Mp3 (CBR320) ~ 118 Mb
Label: Sony Music | # SICP-3743 | Time: 00:30:27 | Scans included

Hawaiian Wedding Song is a reissue of the Cadence Records album To You Sweetheart, Aloha. In February 1959, Andy Williams hit the Top Ten with "The Hawaiian Wedding Song." On August 21 of the same year, Hawaii became the 50th state of the United States. These were events that clearly called for an album of Hawaiian music from Williams, and this was it. It was becoming clear that Archie Bleyer, head of Cadence Records, saw himself as the equivalent of Decca's Jack Kapp and Williams as the new Bing Crosby, and he adopted the same approach Kapp had taken with Crosby 20 years earlier, pushing his singer to try a variety of types of music, including Hawaiian music. In fact, several of these titles, notably "Blue Hawaii" and "Sweet Leilani," had first been recorded by Crosby. Bleyer eschewed the usual practice of employing traditional Hawaiian instruments and importing the islands' musicians, settling instead for Hawaiian-styled arrangements played by a standard orchestra. But what mattered was Williams' typically warm vocal interpretations, which made the album a romantic touchstone. After Williams decamped for Columbia Records in 1961, he acquired the masters of his Cadence recordings, and in the spring of 1965 Columbia repackaged To You Sweetheart, Aloha as Hawaiian Wedding Song, at which time it belatedly reached the charts, getting into the Top 100 and remaining listed more than four months.

William Ruhlmann, Allmusic.com

Tracklist:

01. To You Sweetheart, Aloha (2:52)
02. Blue Hawaii (2:01)
03. I'll Weave A Lei Of Stars For You (2:18)
04. Sweet Leilani (2:35)
05. The Moon Of Manakoora (2:49)
06. The Hawaiian Wedding Song (2:29)
07. Song Of The Islands (2:21)
08. A Song Of Old Hawaii (2:32)
09. Love Song Of Kalua (2:23)
10. Beyond The Reef (3:06)
11. Ka-Lu-A (2:36)
12. Aloha Oe (Farewell To Thee) (2:26)


Exact Audio Copy V1.0 beta 3 from 29. August 2011

EAC extraction logfile from 30. December 2013, 19:07

Andy Williams / To You Sweetheart, Aloha

Used drive : PLEXTOR BD-R PX-B950SA Adapter: 6 ID: 0

Read mode : Secure
Utilize accurate stream : Yes
Defeat audio cache : Yes
Make use of C2 pointers : No

Read offset correction : 6
Overread into Lead-In and Lead-Out : No
Fill up missing offset samples with silence : Yes
Delete leading and trailing silent blocks : No
Null samples used in CRC calculations : Yes
Used interface : Native Win32 interface for Win NT & 2000

Used output format : Internal WAV Routines
Sample format : 44.100 Hz; 16 Bit; Stereo


TOC of the extracted CD

Track | Start | Length | Start sector | End sector
––––––––––––––––––––––––––––-
1 | 0:00.00 | 2:52.05 | 0 | 12904
2 | 2:52.05 | 2:00.63 | 12905 | 21967
3 | 4:52.68 | 2:18.37 | 21968 | 32354
4 | 7:11.30 | 2:34.50 | 32355 | 43954
5 | 9:46.05 | 2:49.15 | 43955 | 56644
6 | 12:35.20 | 2:28.55 | 56645 | 67799
7 | 15:04.00 | 2:20.73 | 67800 | 78372
8 | 17:24.73 | 2:31.55 | 78373 | 89752
9 | 19:56.53 | 2:23.02 | 89753 | 100479
10 | 22:19.55 | 3:05.68 | 100480 | 114422
11 | 25:25.48 | 2:35.42 | 114423 | 126089
12 | 28:01.15 | 2:26.13 | 126090 | 137052


Range status and errors

Selected range

Filename C:\Users\Meijin\Desktop\ALLexxess\Andy Williams\2013 Original Album Collection 1 (8 Mini LP CD Box Set Sony Japan)\Disc 2 1959 To You Sweetheart, Aloha\Andy Williams - To You Sweetheart, Aloha.wav

Peak level 93.9 %
Extraction speed 6.3 X
Range quality 100.0 %
Test CRC A971867C
Copy CRC A971867C
Copy OK

No errors occurred


AccurateRip summary

Track 1 accurately ripped (confidence 1) [2E83C789] (AR v2)
Track 2 accurately ripped (confidence 1) [712B038B] (AR v2)
Track 3 accurately ripped (confidence 1) [E907DBAB] (AR v2)
Track 4 accurately ripped (confidence 1) [0294F5BA] (AR v2)
Track 5 accurately ripped (confidence 1) [F7A4A37B] (AR v2)
Track 6 accurately ripped (confidence 1) [2F694739] (AR v2)
Track 7 accurately ripped (confidence 1) [A25DBC47] (AR v2)
Track 8 accurately ripped (confidence 1) [92A1F4BE] (AR v2)
Track 9 accurately ripped (confidence 1) [2EA264AA] (AR v2)
Track 10 accurately ripped (confidence 1) [9D0588BB] (AR v2)
Track 11 accurately ripped (confidence 1) [2CD441C7] (AR v2)
Track 12 accurately ripped (confidence 1) [F114DA21] (AR v2)

All tracks accurately ripped

End of status report

==== Log checksum C79E1FD2CAB54D60250057E78E7C6CCEA85E91A6D8527F75A748860E2B0A305B ====

foobar2000 1.2 / Dynamic Range Meter 1.1.1
log date: 2014-10-23 17:07:09

––––––––––––––––––––––––––––––––––––––––
Analyzed: Andy Williams / To You Sweetheart, Aloha
––––––––––––––––––––––––––––––––––––––––

DR Peak RMS Duration Track
––––––––––––––––––––––––––––––––––––––––
DR7 -1.19 dB -12.36 dB 2:52 01-To You Sweetheart, Aloha
DR9 -1.02 dB -12.53 dB 2:01 02-Blue Hawaii
DR9 -0.62 dB -12.09 dB 2:18 03-I'll Weave A Lei Of Stars For You
DR8 -0.84 dB -11.46 dB 2:35 04-Sweet Leilani
DR8 -0.62 dB -11.15 dB 2:49 05-The Moon Of Manakoora
DR8 -0.68 dB -12.23 dB 2:29 06-The Hawaiian Wedding Song
DR8 -0.84 dB -11.95 dB 2:21 07-Song Of The Islands
DR9 -0.87 dB -12.21 dB 2:32 08-A Song Of Old Hawaii
DR7 -0.56 dB -10.76 dB 2:23 09-Love Song Of Kalua
DR8 -0.67 dB -11.55 dB 3:06 10-Beyond The Reef
DR9 -0.91 dB -12.16 dB 2:36 11-Ka-Lu-A
DR8 -0.54 dB -10.91 dB 2:26 12-Aloha Oe (Farewell To Thee)
––––––––––––––––––––––––––––––––––––––––

Number of tracks: 12
Official DR value: DR8

Samplerate: 44100 Hz
Channels: 2
Bits per sample: 16
Bitrate: 832 kbps
Codec: FLAC
================================================================================




Andy Williams - Original Album Collection Vol. 1 (2013) Mini LP 8 CD Box Set [Re-Up]

CD3: Andy Williams - Moon River & Other Great Movie Themes (1962)
EAC | FLAC | Image (Cue&Log) ~ 294 Mb | Mp3 (CBR320) ~ 142 Mb
Label: Sony Music | # SICP-3744 | Time: 00:36:52 | Scans included

The singles chart hit versions of composer Henry Mancini and lyricist Johnny Mercer's "Moon River," the theme song for the film Breakfast at Tiffany's, were by Jerry Butler and by Mancini himself. But Andy Williams made his own claim to the song by using it as the title to this LP of movie themes, which, not coincidentally, was released in the week before Williams was scheduled to sing "Moon River" at the 1962 Academy Awards ceremony. He does a masterful version with the song, and also does well with the rest of the songs, which include some recent fare ("Love Is a Many-Splendored Thing," "A Summer Place," "The Exodus Song," "The Second Time Around"), but also old favorites like "As Time Goes By." "Maria" and "Tonight" are the big ballads from West Side Story, which began life as a Broadway musical before it went on to be the big movie hit of 1961, justifying the use of the music here. Williams has fun with "Never on Sunday," even including the Greek lyrics. The LP, a highlight in the singer's career, makes a case that the early '60s constituted a renaissance period for movie themes. (Spurred on by Williams' 1962 Oscar Night performance of "Moon River" and its victory in the Best Song category, Moon River & Other Great Movie Themes went on to spend 176 weeks in the Billboard LPs chart, peaking at number three and going gold. Notwithstanding the earlier hit single versions by others, "Moon River" became Williams' signature song for the rest of his career.)

William Ruhlmann, Allmusic.com

Tracklist:

01. Love Is A Many-Splendored Thing (2:55)
02. A Summer Place (2:38)
03. Maria (3:42)
04. Never On Sunday (3:02)
05. As Time Goes By (3:11)
06. The Exodus Song (3:17)
07. Moon River (2:47)
08. Tonight (2:38)
09. The Second Time Around (3:23)
10. Tender Is The Night (3:08)
11. It Might As Well Be Spring (3:11)
12. Three Coins In The Fountain (3:00)


Exact Audio Copy V1.0 beta 3 from 29. August 2011

EAC extraction logfile from 30. December 2013, 18:43

Andy Williams / Moon River

Used drive : PLEXTOR BD-R PX-B950SA Adapter: 6 ID: 0

Read mode : Secure
Utilize accurate stream : Yes
Defeat audio cache : Yes
Make use of C2 pointers : No

Read offset correction : 6
Overread into Lead-In and Lead-Out : No
Fill up missing offset samples with silence : Yes
Delete leading and trailing silent blocks : No
Null samples used in CRC calculations : Yes
Used interface : Native Win32 interface for Win NT & 2000

Used output format : Internal WAV Routines
Sample format : 44.100 Hz; 16 Bit; Stereo


TOC of the extracted CD

Track | Start | Length | Start sector | End sector
––––––––––––––––––––––––––––-
1 | 0:00.00 | 2:54.70 | 0 | 13119
2 | 2:54.70 | 2:37.56 | 13120 | 24950
3 | 5:32.51 | 3:41.66 | 24951 | 41591
4 | 9:14.42 | 3:01.61 | 41592 | 55227
5 | 12:16.28 | 3:10.71 | 55228 | 69548
6 | 15:27.24 | 3:16.42 | 69549 | 84290
7 | 18:43.66 | 2:46.70 | 84291 | 96810
8 | 21:30.61 | 2:38.28 | 96811 | 108688
9 | 24:09.14 | 3:23.28 | 108689 | 123941
10 | 27:32.42 | 3:08.35 | 123942 | 138076
11 | 30:41.02 | 3:11.25 | 138077 | 152426
12 | 33:52.27 | 2:59.70 | 152427 | 165921


Range status and errors

Selected range

Filename C:\Users\Meijin\Desktop\Lossless Galaxy ALLexxess\Andy Williams\2013 Original Album Collection 1 (8 Mini LP CD Box Set Sony Japan)\Disc 3 1962 Moon River\Andy Williams - Moon River.wav

Peak level 99.5 %
Extraction speed 6.6 X
Range quality 100.0 %
Test CRC 5B4C664A
Copy CRC 5B4C664A
Copy OK

No errors occurred


AccurateRip summary

Track 1 not present in database
Track 2 not present in database
Track 3 not present in database
Track 4 not present in database
Track 5 not present in database
Track 6 not present in database
Track 7 not present in database
Track 8 not present in database
Track 9 not present in database
Track 10 not present in database
Track 11 not present in database
Track 12 not present in database

None of the tracks are present in the AccurateRip database

End of status report

==== Log checksum 97A469065128BD3718337128B438DB37323D78618C7CC8B6C327CA8E8331BC5F ====

foobar2000 1.2 / Dynamic Range Meter 1.1.1
log date: 2014-10-23 17:07:20

––––––––––––––––––––––––––––––––––––––––
Analyzed: Andy Williams / Moon River
––––––––––––––––––––––––––––––––––––––––

DR Peak RMS Duration Track
––––––––––––––––––––––––––––––––––––––––
DR7 -0.47 dB -9.64 dB 2:55 01-Love Is A Many-Splendored Thing
DR8 -0.38 dB -11.01 dB 2:38 02-A Summer Place
DR8 -0.60 dB -13.33 dB 3:42 03-Maria
DR8 -0.35 dB -9.99 dB 3:02 04-Never On Sunday
DR8 -0.71 dB -11.91 dB 3:11 05-As Time Goes By
DR8 -0.56 dB -10.42 dB 3:17 06-The Exodus Song
DR9 -0.16 dB -11.11 dB 2:47 07-Moon River
DR8 -0.04 dB -11.34 dB 2:38 08-Tonight
DR9 -0.72 dB -12.45 dB 3:23 09-The Second Time Around
DR9 -0.55 dB -11.90 dB 3:08 10-Tender Is The Night
DR9 -0.55 dB -12.43 dB 3:11 11-It Might As Well Be Spring
DR8 -0.52 dB -12.01 dB 3:00 12-Three Coins In The Fountain
––––––––––––––––––––––––––––––––––––––––

Number of tracks: 12
Official DR value: DR8

Samplerate: 44100 Hz
Channels: 2
Bits per sample: 16
Bitrate: 871 kbps
Codec: FLAC
================================================================================




Andy Williams - Original Album Collection Vol. 1 (2013) Mini LP 8 CD Box Set [Re-Up]

CD4: Andy Williams - Days Of Wine And Roses (1963)
EAC | FLAC | Image (Cue&Log) ~ 265 Mb | Mp3 (CBR320) ~ 133 Mb
Label: Sony Music | # SICP-3745 | Time: 00:31:30 | Scans included

Although Andy Williams did not score a hit single with Henry Mancini and Johnny Mercer's "Moon River" from the 1961 film Breakfast at Tiffany's (the hit versions were by Mancini and Jerry Butler), he became identified with the song after he sang it at the Academy Awards show and then rushed out the LP "Moon River" & Other Great Movie Themes, which became his first Top Ten album. Williams was therefore ready for the next Mancini/Mercer movie effort, "Days of Wine and Roses," the title song of a dramatic film that opened in December 1962. Mancini himself put out a single of the song with a vocal chorus, but Williams quickly followed. He placed his version on the B-side of his next single, Doc Pomus and Mort Shuman's "Can't Get Used to Losing You," which took off and hit number one, with "Days of Wine and Roses" making the Top 40. The Days of Wine and Roses LP, which followed, included the two hits along with ten songs Williams was featuring on his network TV show, and with all that exposure the album exploded, spending months at number one and marking Williams' commercial apex. Such historical context seems necessary to explain to later listeners why an essentially mediocre Williams effort is remembered as such a landmark in his career. The album breaks down into essentially straight versions of currently popular ballads – "I Left My Heart in San Francisco," "What Kind of Fool Am I?," "My Coloring Book" – and revivals of interwar chestnuts that have been given excessively razzle-dazzle arrangements – "Falling in Love With Love," "You Are My Sunshine," "Exactly Like You." Maybe those orchestrations worked well with dancers as TV production numbers, but on record they sound overdone, and they make the LP an uneven collection despite its commercial success.

William Ruhlmann, Allmusic.com

Tracklist:

01. Falling In Love With Love (2:12)
02. I Left My Heart In San Francisco (3:05)
03. You Are My Sunshine (2:28)
04. What Kind Of Fool Am I? (3:23)
05. When You're Smiling (The Whole Word Smiles With You) (1:45)
06. Days Of Wine And Roses (2:48)
07. It's A Most Unusual Day (2:04)
08. My Coloring Book (3:32)
09. Can't Get Used To Losing You (2:25)
10. I Really Don't Want To Know (2:55)
11. Exactly Like You (2:00)
12. May Each Day (2:54)


Exact Audio Copy V1.0 beta 3 from 29. August 2011

EAC extraction logfile from 30. December 2013, 18:20

Andy Williams / Days Of Wine And Roses (And Other TV Requests)

Used drive : PLEXTOR BD-R PX-B950SA Adapter: 6 ID: 0

Read mode : Secure
Utilize accurate stream : Yes
Defeat audio cache : Yes
Make use of C2 pointers : No

Read offset correction : 6
Overread into Lead-In and Lead-Out : No
Fill up missing offset samples with silence : Yes
Delete leading and trailing silent blocks : No
Null samples used in CRC calculations : Yes
Used interface : Native Win32 interface for Win NT & 2000

Used output format : Internal WAV Routines
Sample format : 44.100 Hz; 16 Bit; Stereo


TOC of the extracted CD

Track | Start | Length | Start sector | End sector
––––––––––––––––––––––––––––-
1 | 0:00.00 | 2:12.09 | 0 | 9908
2 | 2:12.09 | 3:05.09 | 9909 | 23792
3 | 5:17.18 | 2:28.30 | 23793 | 34922
4 | 7:45.48 | 3:22.74 | 34923 | 50146
5 | 11:08.47 | 1:44.40 | 50147 | 57986
6 | 12:53.12 | 2:48.17 | 57987 | 70603
7 | 15:41.29 | 2:03.44 | 70604 | 79872
8 | 17:44.73 | 3:31.74 | 79873 | 95771
9 | 21:16.72 | 2:24.53 | 95772 | 106624
10 | 23:41.50 | 2:54.42 | 106625 | 119716
11 | 26:36.17 | 1:59.42 | 119717 | 128683
12 | 28:35.59 | 2:53.68 | 128684 | 141726


Range status and errors

Selected range

Filename C:\Users\Meijin\Desktop\ALLexxess\Andy Williams\2013 Original Album Collection 1 (8 Mini LP CD Box Set Sony Japan)\Disc 4 1963 Days Of Wine And Roses\Andy Williams - Days Of Wine And Roses.wav

Peak level 99.9 %
Extraction speed 6.3 X
Range quality 100.0 %
Test CRC 3C2CF7BC
Copy CRC 3C2CF7BC
Copy OK

No errors occurred


AccurateRip summary

Track 1 not present in database
Track 2 not present in database
Track 3 not present in database
Track 4 not present in database
Track 5 not present in database
Track 6 not present in database
Track 7 not present in database
Track 8 not present in database
Track 9 not present in database
Track 10 not present in database
Track 11 not present in database
Track 12 not present in database

None of the tracks are present in the AccurateRip database

End of status report

==== Log checksum 388737E060F1CFE37F746C456D6BAB184028758439F816AE3634A08BF02867F4 ====

foobar2000 1.2 / Dynamic Range Meter 1.1.1
log date: 2014-10-23 17:07:30

––––––––––––––––––––––––––––––––––––––––
Analyzed: Andy Williams / Days Of Wine And Roses (And Other TV Requests)
––––––––––––––––––––––––––––––––––––––––

DR Peak RMS Duration Track
––––––––––––––––––––––––––––––––––––––––
DR8 -0.01 dB -10.10 dB 2:12 01-Falling In Love With Love
DR8 -0.32 dB -10.82 dB 3:05 02-I Left My Heart In San Francisco
DR8 -0.26 dB -9.68 dB 2:28 03-You Are My Sunshine
DR9 -0.01 dB -10.67 dB 3:23 04-What Kind Of Fool Am I?
DR8 -0.14 dB -10.29 dB 1:45 05-When You're Smiling (The Whole Word Smiles With You)
DR8 -0.02 dB -10.95 dB 2:48 06-Days Of Wine And Roses
DR9 -0.26 dB -10.56 dB 2:04 07-It's A Most Unusual Day
DR9 -1.03 dB -13.20 dB 3:32 08-My Coloring Book
DR10 -0.38 dB -11.78 dB 2:25 09-Can't Get Used To Losing You
DR9 -0.47 dB -12.48 dB 2:55 10-I Really Don't Want To Know
DR9 -0.41 dB -11.19 dB 2:00 11-Exactly Like You
DR9 -0.56 dB -13.06 dB 2:54 12-May Each Day
––––––––––––––––––––––––––––––––––––––––

Number of tracks: 12
Official DR value: DR9

Samplerate: 44100 Hz
Channels: 2
Bits per sample: 16
Bitrate: 877 kbps
Codec: FLAC
================================================================================




Andy Williams - Original Album Collection Vol. 1 (2013) Mini LP 8 CD Box Set [Re-Up]

CD5: Andy Williams - The Wonderful World Of Andy Williams (1963)
EAC | FLAC | Image (Cue&Log) ~ 276 Mb | Mp3 (CBR320) ~ 131 Mb
Label: Sony Music | # SICP-3746 | Time: 00:34:12 | Scans included

When he came to record his fifth Columbia album (not including a holiday set) in the fall of 1963, Andy Williams had established himself on the LP charts with discs devoted to film songs, notably the long-running chart-topper Days of Wine and Roses, and on the singles charts with peppier songs like "Can't Get Used to Losing You." The Wonderful World of Andy Williams featured a couple of songs associated with movies and some up-tempo numbers, but it was really neither here nor there as a collection. Williams' bouncy "A Fool Never Learns," which made the pop Top 20 and the easy listening Top Five, was included, and among the other lively tunes was a remake of his first Top Ten hit, "Canadian Sunset," that led off the LP and a startling arrangement of the old Bing Crosby hit "Pennies From Heaven" with Williams buried in a chorus and an abrupt shift from slow ballad to driving rock & roll, complete with screaming electric guitar, halfway through. That, of course, was uncharacteristic for the usually smooth-sailing Williams, but you could easily imagine it making for an amusing production number on his television show. Most of the rest of the album consisted of familiar ballads, dating back to the 1940s for Johnny Mercer's "Dream" (another choral performance not unlike the Pied Pipers' hit version) and coming up to the present for Williams versions of hits like Tony Bennett's "This Is All I Ask" and Jack Jones' "Wives and Lovers." "Softly, As I Leave You" was a good piece of material that had been a British hit for Matt Monro, but it would not gain U.S. recognition until Frank Sinatra cut it. Thus, there were interesting isolated moments on the album, but it was an uneven grab bag.

William Ruhlmann, Allmusic.com

Tracklist:

01. Canadian Sunset (2:35)
02. Sing A Rainbow (2:43)
03. Dream (2:42)
04. This Is All I Ask (3:22)
05. Wives And Lovers (2:22)
06. First Born (2:44)
07. A Fool Never Learns (2:04)
08. Noelle (2:50)
09. Pennies From Heaven (3:34)
10. September Song (3:03)
11. Let It Be Me (2:54)
12. Softly As I Leave (3:18)


Exact Audio Copy V1.0 beta 3 from 29. August 2011

EAC extraction logfile from 30. December 2013, 17:57

Andy Williams / The Wonderful World Of Andy Williams

Used drive : PLEXTOR BD-R PX-B950SA Adapter: 6 ID: 0

Read mode : Secure
Utilize accurate stream : Yes
Defeat audio cache : Yes
Make use of C2 pointers : No

Read offset correction : 6
Overread into Lead-In and Lead-Out : No
Fill up missing offset samples with silence : Yes
Delete leading and trailing silent blocks : No
Null samples used in CRC calculations : Yes
Used interface : Native Win32 interface for Win NT & 2000

Used output format : Internal WAV Routines
Sample format : 44.100 Hz; 16 Bit; Stereo


TOC of the extracted CD

Track | Start | Length | Start sector | End sector
––––––––––––––––––––––––––––-
1 | 0:00.00 | 2:34.74 | 0 | 11623
2 | 2:34.74 | 2:43.01 | 11624 | 23849
3 | 5:18.00 | 2:41.63 | 23850 | 35987
4 | 7:59.63 | 3:21.56 | 35988 | 51118
5 | 11:21.44 | 2:22.29 | 51119 | 61797
6 | 13:43.73 | 2:44.33 | 61798 | 74130
7 | 16:28.31 | 2:03.57 | 74131 | 83412
8 | 18:32.13 | 2:50.21 | 83413 | 96183
9 | 21:22.34 | 3:33.72 | 96184 | 112230
10 | 24:56.31 | 3:03.07 | 112231 | 125962
11 | 27:59.38 | 2:54.26 | 125963 | 139038
12 | 30:53.64 | 3:17.71 | 139039 | 153884


Range status and errors

Selected range

Filename C:\Users\Meijin\Desktop\ALLexxess\Andy Williams\2013 Original Album Collection 1 (8 Mini LP CD Box Set Sony Japan)\Disc 5 1963 The Wonderful World Of Andy Williams\Andy Williams - The Wonderful World.wav

Peak level 94.5 %
Extraction speed 6.5 X
Range quality 100.0 %
Test CRC E4EB4165
Copy CRC E4EB4165
Copy OK

No errors occurred


AccurateRip summary

Track 1 not present in database
Track 2 not present in database
Track 3 not present in database
Track 4 not present in database
Track 5 not present in database
Track 6 not present in database
Track 7 not present in database
Track 8 not present in database
Track 9 not present in database
Track 10 not present in database
Track 11 not present in database
Track 12 not present in database

None of the tracks are present in the AccurateRip database

End of status report

==== Log checksum 7018EA55233E8525D9A513D22F4EC6A9F7374C545043FCC448FCD846B6E29A7C ====

foobar2000 1.2 / Dynamic Range Meter 1.1.1
log date: 2014-10-23 17:07:41

––––––––––––––––––––––––––––––––––––––––
Analyzed: Andy Williams / The Wonderful World Of Andy Williams
––––––––––––––––––––––––––––––––––––––––

DR Peak RMS Duration Track
––––––––––––––––––––––––––––––––––––––––
DR7 -0.49 dB -9.12 dB 2:35 01-Canadian Sunset
DR8 -0.48 dB -10.77 dB 2:43 02-Sing A Rainbow
DR8 -0.67 dB -10.34 dB 2:42 03-Dream
DR7 -0.72 dB -11.17 dB 3:22 04-This Is All I Ask
DR7 -0.49 dB -9.93 dB 2:22 05-Wives And Lovers
DR8 -0.51 dB -11.37 dB 2:44 06-First Born
DR8 -0.50 dB -9.99 dB 2:04 07-A Fool Never Learns
DR9 -0.52 dB -11.80 dB 2:50 08-Noelle
DR7 -0.49 dB -10.27 dB 3:34 09-Pennies From Heaven
DR7 -0.89 dB -10.93 dB 3:03 10-September Song
DR8 -0.75 dB -10.47 dB 2:54 11-Let It Be Me
DR7 -0.54 dB -10.31 dB 3:18 12-Softly As I Leave
––––––––––––––––––––––––––––––––––––––––

Number of tracks: 12
Official DR value: DR8

Samplerate: 44100 Hz
Channels: 2
Bits per sample: 16
Bitrate: 884 kbps
Codec: FLAC
================================================================================




Andy Williams - Original Album Collection Vol. 1 (2013) Mini LP 8 CD Box Set [Re-Up]

CD6: Andy Williams - The Academy Award Winning "Call Me Irresponsible"
And Other Hit Songs From The Movies (1964)

EAC | FLAC | Image (Cue&Log) ~ 271 Mb | Mp3 (CBR320) ~ 127 Mb
Label: Sony Music | # SICP-3747 | Time: 00:35:38 | Scans included

By 1964, Andy Williams was Mr. Movie Theme Song, which may help explain why he performed two of the nominated songs, "Charade" and "Call Me Irresponsible" (from Papa's Delicate Condition) at the Oscar ceremonies on April 13, and why his new album, the full title of which was The Academy Award Winning "Call Me Irresponsible" and Other Hit Songs From the Movies, was in record stores less than two weeks later. Williams had hedged his bet by also recording a third nominated song, "More," from Mondo Cane. (What would have happened if "It's a Mad, Mad, Mad, Mad World" or "So Little Time" had won, we'll never know.) Having established "Moon River" as his theme song in 1962 and topped the charts with Days of Wine and Roses in 1963, it was only logical that Williams would devote this entire album to movie theme songs. His singles (both B-sides) for "Charade" and "Madrigal" (from the just-released film The Chalk Garden) didn't make much noise, but this album still gave him his third consecutive – and fourth out of five – Top Ten LP placing and gold record certification. And it deserved to, since it contains a good selection of the kind of movie themes that had become almost required for films since World War II and which were turned out regularly by such professionals as Sammy Cahn, Livingston and Evans, Henry Mancini, and Johnny Mercer. The songs tended to be evocative of a mood rather than specific, and Williams' warm, yet homogenized approach, backed by sympathetic orchestral arrangements with occasional vocal choruses, brought out their haunting, romantic qualities. Especially impressive here were "Laura," a version of "Gigi" with the introductory verse, and a restrained (well, compared to Mario Lanza) "Be My Love." But the whole album suggested that Williams and movie songs remained perfect partners.

William Ruhlmann, Allmusic.com

Tracklist:

01. Charade (2:35)
02. Mona Lisa (2:54)
03. Call Me Irresponsible (3:10)
04. I'll Never Stop Loving You (2:38)
05. Madrigal (3:11)
06. Be My Love (3:16)
07. More (2:33)
08. Laura (2:50)
09. Anniversary Song (2:59)
10. Gigi (4:08)
11. The Song From Moulin Rouge (Where Is Your Heart) (2:26)
12. Love Letters (2:58)


Exact Audio Copy V1.0 beta 3 from 29. August 2011

EAC extraction logfile from 30. December 2013, 13:33

Andy Williams / Call Me Irresponsible And Other Hit Songs From The Movies

Used drive : PLEXTOR BD-R PX-B950SA Adapter: 6 ID: 0

Read mode : Secure
Utilize accurate stream : Yes
Defeat audio cache : Yes
Make use of C2 pointers : No

Read offset correction : 6
Overread into Lead-In and Lead-Out : No
Fill up missing offset samples with silence : Yes
Delete leading and trailing silent blocks : No
Null samples used in CRC calculations : Yes
Used interface : Native Win32 interface for Win NT & 2000

Used output format : Internal WAV Routines
Sample format : 44.100 Hz; 16 Bit; Stereo


TOC of the extracted CD

Track | Start | Length | Start sector | End sector
––––––––––––––––––––––––––––-
1 | 0:00.00 | 2:35.03 | 0 | 11627
2 | 2:35.03 | 2:53.60 | 11628 | 24662
3 | 5:28.63 | 3:09.72 | 24663 | 38909
4 | 8:38.60 | 2:38.31 | 38910 | 50790
5 | 11:17.16 | 3:11.30 | 50791 | 65145
6 | 14:28.46 | 3:16.15 | 65146 | 79860
7 | 17:44.61 | 2:32.39 | 79861 | 91299
8 | 20:17.25 | 2:50.06 | 91300 | 104055
9 | 23:07.31 | 2:58.60 | 104056 | 117465
10 | 26:06.16 | 4:07.49 | 117466 | 136039
11 | 30:13.65 | 2:26.08 | 136040 | 146997
12 | 32:39.73 | 2:57.49 | 146998 | 160321


Range status and errors

Selected range

Filename C:\Users\Meijin\Desktop\ALLexxess\Andy Williams\2013 Original Album Collection 1 (8 Mini LP CD Box Set Sony Japan)\Disc 6 1964 Call Me Irresponsible\Andy Williams - Call Me Irresponsible.wav

Peak level 98.9 %
Extraction speed 6.5 X
Range quality 100.0 %
Test CRC 7407A42C
Copy CRC 7407A42C
Copy OK

No errors occurred


AccurateRip summary

Track 1 not present in database
Track 2 not present in database
Track 3 not present in database
Track 4 not present in database
Track 5 not present in database
Track 6 not present in database
Track 7 not present in database
Track 8 not present in database
Track 9 not present in database
Track 10 not present in database
Track 11 not present in database
Track 12 not present in database

None of the tracks are present in the AccurateRip database

End of status report

==== Log checksum 7F7A773BB90F9F85F04CC5B4AACCF666F2E37B92A6DD5759D72BFF0B8C7359F6 ====

foobar2000 1.2 / Dynamic Range Meter 1.1.1
log date: 2014-10-23 17:07:54

––––––––––––––––––––––––––––––––––––––––
Analyzed: Andy Williams / Call Me Irresponsible And Other Hit Songs From The Movies
––––––––––––––––––––––––––––––––––––––––

DR Peak RMS Duration Track
––––––––––––––––––––––––––––––––––––––––
DR7 -0.49 dB -9.08 dB 2:35 01-Charade
DR7 -0.44 dB -9.11 dB 2:54 02-Mona Lisa
DR7 -0.50 dB -9.85 dB 3:10 03-Call Me Irresponsible
DR7 -0.36 dB -9.37 dB 2:38 04-I'll Never Stop Loving You
DR7 -0.60 dB -9.53 dB 3:11 05-Madrigal
DR7 -0.09 dB -8.97 dB 3:16 06-Be My Love
DR8 -0.46 dB -10.05 dB 2:33 07-More
DR8 -0.43 dB -11.03 dB 2:50 08-Laura
DR8 -0.63 dB -10.03 dB 2:59 09-Anniversary Song
DR8 -0.52 dB -10.06 dB 4:08 10-Gigi
DR8 -0.51 dB -9.37 dB 2:26 11-The Song From Moulin Rouge (Where Is Your Heart)
DR8 -0.49 dB -10.22 dB 2:58 12-Love Letters
––––––––––––––––––––––––––––––––––––––––

Number of tracks: 12
Official DR value: DR7

Samplerate: 44100 Hz
Channels: 2
Bits per sample: 16
Bitrate: 860 kbps
Codec: FLAC
================================================================================




Andy Williams - Original Album Collection Vol. 1 (2013) Mini LP 8 CD Box Set [Re-Up]

CD7: Andy Williams - The Great Songs From "My Fair Lady"
And Other Broadway Hits (1964)

EAC | FLAC | Image (Cue&Log) ~ 288 Mb | Mp3 (CBR320) ~ 136 Mb
Label: Sony Music | # SICP-3748 | Time: 00:33:56 | Scans included

Andy Williams took the opportunity of the release of the film adaptation of the Broadway musical My Fair Lady to record this album of show tunes, the first side devoted to My Fair Lady and the second to such contemporary songs as "Hello, Dolly" and "People" from Funny Girl. The material was first-class, and so was the singer, but the collection was marred by the overdone arrangements. Following his previous LP, The Academy Award Winning "Call Me Irresponsible" and Other Hit Songs From the Movies, which had featured ballad treatments of movie theme songs, Williams may have been going for a more swinging, up-tempo mood, but the busy charts, full of pizzicato strings, vocal choruses, and competing counter-melodies, distracted attention from the songs. The approach had some justification in an essentially comic song like "Get Me to the Church on Time," and a few of the arrangements did work, notably the bossa nova treatment of "Begin the Beguine" and the big band style of "The Sweetest Sounds." But too many times the singer seemed to be struggling against the orchestrations, such as when he was forced into an awkward falsetto at the end of "Once Upon a Time." What made all this even more annoying was that it was so unnecessary; if there were any songs that did not need to be so souped up, it was these well-written Broadway tunes. Despite the album's questionable musical qualities, it was a hit. "On the Street Where You Live," released as a single, reached the pop Top 40 and the Top Five of the easy listening charts, while the LP became Williams' fourth consecutive Top Ten, gold-selling album.

William Ruhlmann, Allmusic.com

Tracklist:

01. On The Street Where You Live (3:13)
02. I've Grown Accustomed To Her Face (3:08)
03. I Could Have Danced All Night (2:18)
04. Get Me To The Church On Time (1:59)
05. Wouldn't It Be Loverly (2:30)
06. Show Me (2:03)
07. Hello, Dolly! (2:59)
08. Where Or When (2:35)
09. Begin The Beguine (3:20)
10. Once Upon A Time (3:31)
11. People (3:33)
12. The Sweetest Sounds (2:47)


Exact Audio Copy V1.0 beta 3 from 29. August 2011

EAC extraction logfile from 30. December 2013, 13:08

Andy Williams / The Great Songs From 'My Fair Lady' And Other Broadway Hits

Used drive : PLEXTOR BD-R PX-B950SA Adapter: 6 ID: 0

Read mode : Secure
Utilize accurate stream : Yes
Defeat audio cache : Yes
Make use of C2 pointers : No

Read offset correction : 6
Overread into Lead-In and Lead-Out : No
Fill up missing offset samples with silence : Yes
Delete leading and trailing silent blocks : No
Null samples used in CRC calculations : Yes
Used interface : Native Win32 interface for Win NT & 2000

Used output format : Internal WAV Routines
Sample format : 44.100 Hz; 16 Bit; Stereo


TOC of the extracted CD

Track | Start | Length | Start sector | End sector
––––––––––––––––––––––––––––-
1 | 0:00.00 | 3:13.25 | 0 | 14499
2 | 3:13.25 | 3:08.20 | 14500 | 28619
3 | 6:21.45 | 2:17.63 | 28620 | 38957
4 | 8:39.33 | 1:59.25 | 38958 | 47907
5 | 10:38.58 | 2:30.27 | 47908 | 59184
6 | 13:09.10 | 2:02.58 | 59185 | 68392
7 | 15:11.68 | 2:58.44 | 68393 | 81786
8 | 18:10.37 | 2:35.17 | 81787 | 93428
9 | 20:45.54 | 3:19.42 | 93429 | 108395
10 | 24:05.21 | 3:30.40 | 108396 | 124185
11 | 27:35.61 | 3:33.01 | 124186 | 140161
12 | 31:08.62 | 2:46.57 | 140162 | 152668


Range status and errors

Selected range

Filename C:\Users\Meijin\Desktop\ALLexxess\Andy Williams\2013 Original Album Collection 1 (8 Mini LP CD Box Set Sony Japan)\Disc 7 1964 The Great Broadway Hits\Andy Williams - The Great Broadway Hits.wav

Peak level 100.0 %
Extraction speed 6.5 X
Range quality 100.0 %
Test CRC E631F952
Copy CRC E631F952
Copy OK

No errors occurred


AccurateRip summary

Track 1 not present in database
Track 2 not present in database
Track 3 not present in database
Track 4 not present in database
Track 5 not present in database
Track 6 not present in database
Track 7 not present in database
Track 8 not present in database
Track 9 not present in database
Track 10 not present in database
Track 11 not present in database
Track 12 not present in database

None of the tracks are present in the AccurateRip database

End of status report

==== Log checksum CCA572243F3F64E41E86ED37CC51C035CACD5B4245E63F0EE2019DCC2771035F ====

foobar2000 1.2 / Dynamic Range Meter 1.1.1
log date: 2014-10-23 17:08:05

––––––––––––––––––––––––––––––––––––––––
Analyzed: Andy Williams / The Great Songs From 'My Fair Lady' And Other Broadway Hits
––––––––––––––––––––––––––––––––––––––––

DR Peak RMS Duration Track
––––––––––––––––––––––––––––––––––––––––
DR8 -0.12 dB -10.28 dB 3:13 01-On The Street Where You Live
DR8 -0.15 dB -11.10 dB 3:08 02-I've Grown Accustomed To Her Face
DR7 -0.09 dB -8.69 dB 2:18 03-I Could Have Danced All Night
DR7 -0.08 dB -8.97 dB 1:59 04-Get Me To The Church On Time
DR8 -0.20 dB -9.96 dB 2:30 05-Wouldn't It Be Loverly
DR7 -0.10 dB -8.98 dB 2:03 06-Show Me
DR8 -0.16 dB -10.12 dB 2:59 07-Hello, Dolly!
DR8 -0.12 dB -9.50 dB 2:35 08-Where Or When
DR8 0.00 dB -10.04 dB 3:20 09-Begin The Beguine
DR9 -0.20 dB -11.37 dB 3:31 10-Once Upon A Time
DR8 -0.21 dB -11.17 dB 3:33 11-People
DR8 0.00 dB -9.97 dB 2:47 12-The Sweetest Sounds
––––––––––––––––––––––––––––––––––––––––

Number of tracks: 12
Official DR value: DR8

Samplerate: 44100 Hz
Channels: 2
Bits per sample: 16
Bitrate: 917 kbps
Codec: FLAC
================================================================================




Andy Williams - Original Album Collection Vol. 1 (2013) Mini LP 8 CD Box Set [Re-Up]

CD8: Andy Williams - Rare And Hits (2013)
EAC | FLAC | Image (Cue&Log) ~ 284 Mb | Mp3 (CBR320) ~ 128 Mb
Label: Sony Music | # SICP-3749 | Time: 00:41:26 | Scans included


Tracklist:

01. (Where Do I Begin) Love Story (Japanese Version) (3:15)
02. Speak Softly Love (Love Theme From 'The Godfather') (3:05)
03. The Peking Theme (So Little Time) (2:48)
04. Battle Hymn Of The Republic (3:34)
05. Ave Maria (4:34)
06. Marmalade, Molasses And Honey (2:23)
07. Free As The Wind (3:34)
08. Free As The Wind (Japanese Version) (3:36)
09. Butterfly (2:25)
10. Let It Be Me (3:26)
11. April In Paris (3:40)
12. Hopeless (2:40)
13. … And Roses And Roses (2:27)


Exact Audio Copy V1.0 beta 3 from 29. August 2011

EAC extraction logfile from 30. December 2013, 12:38

Andy Williams / Bonus CD: Rare And Hits

Used drive : PLEXTOR BD-R PX-B950SA Adapter: 6 ID: 0

Read mode : Secure
Utilize accurate stream : Yes
Defeat audio cache : Yes
Make use of C2 pointers : No

Read offset correction : 6
Overread into Lead-In and Lead-Out : No
Fill up missing offset samples with silence : Yes
Delete leading and trailing silent blocks : No
Null samples used in CRC calculations : Yes
Used interface : Native Win32 interface for Win NT & 2000

Used output format : Internal WAV Routines
Sample format : 44.100 Hz; 16 Bit; Stereo


TOC of the extracted CD

Track | Start | Length | Start sector | End sector
––––––––––––––––––––––––––––-
1 | 0:00.00 | 3:14.41 | 0 | 14590
2 | 3:14.41 | 3:04.58 | 14591 | 28448
3 | 6:19.24 | 2:48.23 | 28449 | 41071
4 | 9:07.47 | 3:33.53 | 41072 | 57099
5 | 12:41.25 | 4:33.38 | 57100 | 77612
6 | 17:14.63 | 2:23.09 | 77613 | 88346
7 | 19:37.72 | 3:34.29 | 88347 | 104425
8 | 23:12.26 | 3:35.69 | 104426 | 120619
9 | 26:48.20 | 2:24.57 | 120620 | 131476
10 | 29:13.02 | 3:26.02 | 131477 | 146928
11 | 32:39.04 | 3:40.25 | 146929 | 163453
12 | 36:19.29 | 2:40.27 | 163454 | 175480
13 | 38:59.56 | 2:26.49 | 175481 | 186479


Range status and errors

Selected range

Filename C:\Users\Meijin\Desktop\ALLexxess\Andy Williams\2013 Original Album Collection 1 (8 Mini LP CD Box Set Sony Japan)\Disc 8 2013 Rare And Hits\Andy Williams - Rare And Hits.wav

Peak level 99.6 %
Extraction speed 6.8 X
Range quality 100.0 %
Test CRC BDD2F3E5
Copy CRC BDD2F3E5
Copy OK

No errors occurred


AccurateRip summary

Track 1 not present in database
Track 2 not present in database
Track 3 not present in database
Track 4 not present in database
Track 5 not present in database
Track 6 not present in database
Track 7 not present in database
Track 8 not present in database
Track 9 not present in database
Track 10 not present in database
Track 11 not present in database
Track 12 not present in database
Track 13 not present in database

None of the tracks are present in the AccurateRip database

End of status report

==== Log checksum B3CEB4ECDC6D341B26183B34FDEE8CA5AA7B866CA7301F7E3105A8FFED511EFA ====

foobar2000 1.2 / Dynamic Range Meter 1.1.1
log date: 2014-10-23 17:08:18

––––––––––––––––––––––––––––––––––––––––
Analyzed: Andy Williams / Bonus CD: Rare And Hits
––––––––––––––––––––––––––––––––––––––––

DR Peak RMS Duration Track
––––––––––––––––––––––––––––––––––––––––
DR8 -0.16 dB -11.42 dB 3:15 01-(Where Do I Begin) Love Story (Japanese Version)
DR9 -0.04 dB -11.57 dB 3:05 02-Speak Softly Love (Love Theme From 'The Godfather')
DR10 -0.04 dB -12.66 dB 2:48 03-The Peking Theme (So Little Time)
DR9 -0.04 dB -13.08 dB 3:34 04-Battle Hymn Of The Republic
DR10 -0.11 dB -13.93 dB 4:34 05-Ave Maria
DR10 -0.36 dB -12.44 dB 2:23 06-Marmalade, Molasses And Honey
DR10 -0.04 dB -12.45 dB 3:34 07-Free As The Wind
DR10 -0.04 dB -11.80 dB 3:36 08-Free As The Wind (Japanese Version)
DR10 -1.78 dB -12.92 dB 2:25 09-Butterfly
DR10 -0.04 dB -14.43 dB 3:26 10-Let It Be Me
DR9 -0.04 dB -12.98 dB 3:40 11-April In Paris
DR9 -0.71 dB -11.97 dB 2:40 12-Hopeless
DR9 -0.82 dB -12.25 dB 2:27 13-… And Roses And Roses
––––––––––––––––––––––––––––––––––––––––

Number of tracks: 13
Official DR value: DR9

Samplerate: 44100 Hz
Channels: 2
Bits per sample: 16
Bitrate: 819 kbps
Codec: FLAC
================================================================================




Andy Williams - Original Album Collection Vol. 1 (2013) Mini LP 8 CD Box Set [Re-Up]