Subcategories

Angèle Dubeau & La Pietà - Arvo Pärt: Portrait (2010)

Posted By: tirexiss
Angèle Dubeau & La Pietà - Arvo Pärt: Portrait (2010)

Angèle Dubeau & La Pietà - Arvo Pärt: Portrait (2010)
EAC | FLAC (image+.cue, log) | Covers Included | 01:02:03 | 305 MB
Genre: Classical | Label: Analekta | Catalog: AN 2 8731

Arvo Pärt: A Portrait, a collection of performances by Canadian violinist Angèle Dubeau and her string ensemble La Pietà, is easily among the finest recordings devoted to Pärt's instrumental music. It includes his best-known works for strings, with the exception of Fratres, in performances of exceptional purity that get at the heart of his uniquely simple, chaste, and directly communicative music. Dubeau can easily dazzle with the virtuosity of her technique and magnetism of her personality, but she puts herself wholeheartedly in the service of Pärt's self-effacing aesthetic and elicits performances of the same kind of sensitivity and restraint from La Pietà. Soloist and ensemble beautifully achieve the white sound Pärt describes as essential to his music, a whiteness that's not the absence of color, but a glowing, luminescent whiteness. This performance of Tabula rasa, for two violins, strings, and prepared piano has a hushed reverence that makes it the mystical experience the composer wanted it to be. Cantus in Memory of Benjamin Britten, one of the composer's most miraculously simple scores, is played with a wrenching intensity that gives eloquent voice to the depth of his grief. The rarity on the disc is Wallfahrtslied, Pärt's eccentric setting of Psalm 121, for unison men's voices and strings, in which the voices chant on a single tone for long stretches at a time, changing pitch only four times over the course of the piece. The string part is no less inscrutable, with little apparent relationship to the text, but even in its oddness, the work has a mysterious power, particularly when played and sung with the conviction here. Spiegel im Spiegel, one of the composer's most popular works, closes the CD, like a benediction, with a mood of radiant sweetness and serenity. Analekta's sound is immaculate and strongly present. This disc would be a terrific introduction to Pärt's instrumental music for anyone not familiar with it, but because of the outstanding quality of the performances, it should also be of interest even to ardent fans who may already have recordings of these works.

Angèle Dubeau & La Pietà - Arvo Pärt: Portrait (2010)

Track List:

1. Summa for string orchestra
2. Cantus in memoriam Benjamin Britten for string orchestra and bell
Tabula rasa for 2 violins, string orchestra and prepared piano
3. I. Ludus
4. II. Silentium
5. Wallfahrstlied for men's choir and string orchestra
6. Mozart-Adagio for violin, cello and piano
7. Spiegel im spiegel for violin and piano

Performers:
Angèle Dubeau, violin
La Pietà

Exact Audio Copy V0.99 prebeta 5 from 4. May 2009

Отчёт EAC об извлечении, выполненном 30. ноября 2010, 20:32

Angele Dubeau & La Pietа / Arvo Part Portrait

Дисковод: Optiarc DVD RW AD-7203A Adapter: 4 ID: 1

Режим чтения : Достоверность
Использование точного потока : Да
Отключение кэша аудио : Да
Использование указателей C2 : Нет

Коррекция смещения при чтении : 48
Способность читать области Lead-in и Lead-out : Нет
Заполнение пропущенных сэмплов тишиной : Да
Удаление блоков с тишиной в начале и конце : Нет
При вычислениях CRC использовались нулевые сэмплы : Да
Интерфейс : Встроенный Win32-интерфейс для Win NT/2000

Выходной формат : Пользовательский кодировщик
Выбранный битрейт : 128 kBit/s
Качество : Высокий
Добавление ID3-тэга : Нет
Утилита сжатия : C:\Program Files\FLAC\flac.exe
Дополнительные параметры : -5 -V %s


TOC извлечённого CD

Трек | Старт | Длительность | Начальный сектор | Конечный сектор
––––––––––––––––––––––––––––––––––-
1 | 0:00.00 | 5:10.21 | 0 | 23270
2 | 5:10.21 | 7:13.20 | 23271 | 55765
3 | 12:23.41 | 10:08.61 | 55766 | 101426
4 | 22:32.27 | 15:57.69 | 101427 | 173270
5 | 38:30.21 | 8:58.36 | 173271 | 213656
6 | 47:28.57 | 6:11.01 | 213657 | 241482
7 | 53:39.58 | 8:23.67 | 241483 | 279274


Характеристики диапазона извлечения и сообщения об ошибках

Выбранный диапазон

Имя файла D:\EAC\Angele Dubeau & La Pietа - Arvo Part Portrait.wav

Пиковый уровень 97.6 %
Качество диапазона 100.0 %
CRC теста 631B129C
CRC копии 631B129C
Копирование… OK

Ошибок не произошло


AccurateRip: сводка

Трек 1 точное извлечение (доверие 1) [0974278F]
Трек 2 точное извлечение (доверие 1) [C206205A]
Трек 3 точное извлечение (доверие 1) [BD0305A1]
Трек 4 точное извлечение (доверие 1) [26CD330D]
Трек 5 точное извлечение (доверие 1) [1A54BBC6]
Трек 6 точное извлечение (доверие 1) [0B26EAA3]
Трек 7 точное извлечение (доверие 1) [E87DEBD1]

Все треки извлечены точно

Конец отчёта

[CUETools log; Date: 29.11.2017 10:37:06; Version: 2.1.5]
[CTDB TOCID: nhH22FJ7.XLtOWbQvZOhQQyxOVs-] found.
Track | CTDB Status
1 | (31/32) Accurately ripped
2 | (32/32) Accurately ripped
3 | (32/32) Accurately ripped
4 | (31/32) Accurately ripped
5 | (32/32) Accurately ripped
6 | (32/32) Accurately ripped
7 | (30/32) Accurately ripped
[AccurateRip ID: 00109a96-00661e4b-440e8b07] found.
Track [ CRC | V2 ] Status
01 [0974278f|bfb58113] (06+14/24) Accurately ripped
02 [c206205a|2b73c433] (06+13/23) Accurately ripped
03 [bd0305a1|308e6533] (06+14/24) Accurately ripped
04 [26cd330d|7b43e389] (06+13/23) Accurately ripped
05 [1a54bbc6|b928c426] (06+13/23) Accurately ripped
06 [0b26eaa3|13e89f1d] (06+13/23) Accurately ripped
07 [e87debd1|2d3abc05] (04+12/20) Accurately ripped
Offsetted by -694:
01 [8802ee93] (00/24) No match (V2 was not tested)
02 [7f3bfba0] (00/23) No match (V2 was not tested)
03 [8bdadf25] (00/24) No match (V2 was not tested)
04 [b835d02c] (00/23) No match (V2 was not tested)
05 [60fa1b9d] (00/23) No match (V2 was not tested)
06 [194b3623] (00/23) No match (V2 was not tested)
07 [6c75de91] (00/20) No match (V2 was not tested)

Track Peak [ CRC32 ] [W/O NULL] [ LOG ]
– 97,6 [631B129C] [02347594] CRC32
01 88,6 [95A27F00] [3599D39B]
02 95,1 [A4254C2D] [C53390E5]
03 97,1 [E98EDB92] [DCC4DA60]
04 23,0 [3651B3E9] [99D84A44]
05 80,1 [7BE2B8E5] [20241CFF]
06 97,6 [C69AE316] [6CD941BD]
07 36,8 [203F8E04] [1DDBC588]

Thanks to the Original ripper GFox!

Download: