Subcategories

Angelic Foe - Mother Of Abominations (2015)

Posted By: v3122
Angelic Foe - Mother Of Abominations (2015)

Angelic Foe - Mother Of Abominations (2015)
EAC | Flac(Image) + Cue + Log & MP3 CBR 320Kbps
Equilibrium Music, EQM037 | ~ 322 or 118 Mb | Scans(jpg) -> 49 Mb
Darkwave / Neo-Classical

Equilibrium Music proudly welcomes ANGELIC FOE, a project by Annmari Thim, the Swedish singer, composer and lyricist also known for her work with ARCANA (as their lead-singer from 2001 to 2014), as well as several guest appearances in numerous other projects.

“Mother of Abominations”, ANGELIC FOE’s second album, follows the critically acclaimed debut “Oppressed by the Heavens”, released on Prikosnovénie in 2012. Written by Annmari and video games sound designer Samuel Lidström, the final mixing and mastering for “Mother of Abominations” has been handled by Peter Bjärgo (ARCANA, SOPHIA) and is now finally presented in a gorgeous Digipak CD, complete with a 12-page booklet.

The album’s nine tracks fabricate a dramatic and melodious invitation to worlds of mysticism, haunted by otherworldly creatures. ANGELIC FOE’s new creation evidently bears a dimmer mood when compared to its predecessor, as the acoustic instrumentation prominent on the debut album gives way to a heavier and deeper symphonic canvas, largely based on rich orchestral arrangements, broad choral textures and vibrant percussion.

This bombastic yet soothing Neo-Classical masterpiece is ultimately crowned by the beautiful voice of Annmari, which drifts from a soft and forgiving allure into a strong commanding tone as it narrates tales sprung out of religious texts and beliefs over the lush cinematic background. Let “Mother of Abominations” lead you on this enticing passage to the unearthly!

~ discogs
Angelic Foe - Mother Of Abominations (2015)


Angelic Foe - Mother Of Abominations (2015):

Angelic Foe - Mother Of Abominations (2015)

Tracklist:

01. Daughter Of Comfort 06:42
02. The Get 04:32
03. All Her Princes Are Gone 06:05
04. Shapes Without Shadows 04:59
05. Pestilence And Smither 03:43
06. Bewitching Lilith 04:30
07. Workers Of Harm 06:56
08. The Judgement 05:23
09. Enemies Of God 07:22

Exact Audio Copy V1.1 from 23. June 2015

EAC extraction logfile from 1. April 2016, 19:01

Angelic Foe / Mother Of Abominations

Used drive : HP DVD Writer 1170d Adapter: 1 ID: 1

Read mode : Secure
Utilize accurate stream : Yes
Defeat audio cache : Yes
Make use of C2 pointers : No

Read offset correction : 6
Overread into Lead-In and Lead-Out : No
Fill up missing offset samples with silence : Yes
Delete leading and trailing silent blocks : No
Null samples used in CRC calculations : Yes
Used interface : Native Win32 interface for Win NT & 2000

Used output format : User Defined Encoder
Selected bitrate : 1024 kBit/s
Quality : Low
Add ID3 tag : No
Command line compressor : C:\Program Files (x86)\Exact Audio Copy\FLAC\FLAC.EXE
Additional command line options : -V -8 -T "Date=%year%" -T "Genre=%genre%" -T"COMMENT=Ripped by Ungern666" -8 -V %source%


TOC of the extracted CD

Track | Start | Length | Start sector | End sector
––––––––––––––––––––––––––––-
1 | 0:00.00 | 6:42.66 | 0 | 30215
2 | 6:42.66 | 4:32.15 | 30216 | 50630
3 | 11:15.06 | 6:05.09 | 50631 | 78014
4 | 17:20.15 | 4:59.01 | 78015 | 100440
5 | 22:19.16 | 3:43.71 | 100441 | 117236
6 | 26:03.12 | 4:30.57 | 117237 | 137543
7 | 30:33.69 | 6:56.35 | 137544 | 168778
8 | 37:30.29 | 5:23.73 | 168779 | 193076
9 | 42:54.27 | 7:22.40 | 193077 | 226266


Range status and errors

Selected range

Filename C:\EAC\Ungern666\Angelic Foe - Mother Of Abominations.wav

Peak level 99.7 %
Extraction speed 5.5 X
Range quality 99.9 %
Test CRC FFE9A828
Copy CRC FFE9A828
Copy OK

No errors occurred


AccurateRip summary

Track 1 accurately ripped (confidence 1) [14F0315C] (AR v2)
Track 2 accurately ripped (confidence 1) [117056D0] (AR v2)
Track 3 accurately ripped (confidence 1) [3961521A] (AR v2)
Track 4 accurately ripped (confidence 1) [3075CA22] (AR v2)
Track 5 accurately ripped (confidence 1) [C5B1E975] (AR v2)
Track 6 accurately ripped (confidence 1) [1BBA0D8F] (AR v2)
Track 7 accurately ripped (confidence 1) [8A8DC0D6] (AR v2)
Track 8 accurately ripped (confidence 1) [74620A75] (AR v2)
Track 9 accurately ripped (confidence 1) [C637A8C6] (AR v2)

All tracks accurately ripped

End of status report

–– CUETools DB Plugin V2.1.6

[CTDB TOCID: maeSEKxqjXKsP7T0kbJyoPcvc5M-] found
Submit result: maeSEKxqjXKsP7T0kbJyoPcvc5M- has been confirmed
Track | CTDB Status
1 | (1/1) Accurately ripped
2 | (1/1) Accurately ripped
3 | (1/1) Accurately ripped
4 | (1/1) Accurately ripped
5 | (1/1) Accurately ripped
6 | (1/1) Accurately ripped
7 | (1/1) Accurately ripped
8 | (1/1) Accurately ripped
9 | (1/1) Accurately ripped


==== Log checksum 70CA0AC2172F81E6E8971E2C38D85A34599E32F443E6E187BF1054CA5DF97B51 ====

foobar2000 1.2.9 / Dynamic Range Meter 1.1.1
log date: 2016-04-14 17:24:22

––––––––––––––––––––––––––––––––––––––––
Analyzed: Angelic Foe / Mother Of Abominations
––––––––––––––––––––––––––––––––––––––––

DR Peak RMS Duration Track
––––––––––––––––––––––––––––––––––––––––
DR7 -0.07 dB -9.66 dB 6:43 01-Daughter Of Comfort
DR7 -0.05 dB -9.09 dB 4:32 02-The Get
DR8 -0.10 dB -10.66 dB 6:05 03-All Her Princes Are Gone
DR7 -0.11 dB -10.57 dB 4:59 04-Shapes Without Shadows
DR6 -0.07 dB -8.35 dB 3:44 05-Pestilence And Smither
DR7 -0.03 dB -10.32 dB 4:31 06-Bewitching Lilith
DR7 -0.10 dB -10.43 dB 6:56 07-Workers Of Harm
DR6 -0.02 dB -7.69 dB 5:24 08-The Judgement
DR6 -0.06 dB -9.06 dB 7:23 09-Enemies Of God
––––––––––––––––––––––––––––––––––––––––

Number of tracks: 9
Official DR value: DR7

Samplerate: 44100 Hz
Channels: 2
Bits per sample: 16
Bitrate: 870 kbps
Codec: FLAC

[CUETools log; Date: 14.04.2016 17:25:00; Version: 2.1.4]
[CTDB TOCID: maeSEKxqjXKsP7T0kbJyoPcvc5M-] found.
Track | CTDB Status
1 | (2/2) Accurately ripped
2 | (2/2) Accurately ripped
3 | (2/2) Accurately ripped
4 | (2/2) Accurately ripped
5 | (2/2) Accurately ripped
6 | (2/2) Accurately ripped
7 | (2/2) Accurately ripped
8 | (2/2) Accurately ripped
9 | (2/2) Accurately ripped
[AccurateRip ID: 0010d17f-007abb98-6f0bc809] found.
Track [ CRC | V2 ] Status
01 [42b09bd5|14f0315c] (0+1/1) Accurately ripped
02 [e401f4c0|117056d0] (0+1/1) Accurately ripped
03 [4366f056|3961521a] (0+1/1) Accurately ripped
04 [26f4d913|3075ca22] (0+1/1) Accurately ripped
05 [15deaeb8|c5b1e975] (0+1/1) Accurately ripped
06 [6225bc0f|1bba0d8f] (0+1/1) Accurately ripped
07 [503814be|8a8dc0d6] (0+1/1) Accurately ripped
08 [53b73ff1|74620a75] (0+1/1) Accurately ripped
09 [2deaa649|c637a8c6] (0+1/1) Accurately ripped

Track Peak [ CRC32 ] [W/O NULL] [ LOG ]
– 99,7 [FFE9A828] [69B79F7A] CRC32
01 99,1 [6D72C2E1] [30E89E9C]
02 99,4 [92AE0FA0] [E78DB0A1]
03 98,8 [328DEB74] [C4E4DD4B]
04 98,7 [2B26B10F] [A71C999A]
05 99,1 [7860B229] [C9C69C5E]
06 99,6 [8BEEBF1C] [B4817B17]
07 98,8 [7A7E2ADE] [C0BC88F0]
08 99,7 [565F6535] [05727808]
09 99,3 [EFAF8A53] [9EEC6388]

Angelic Foe - Mother Of Abominations (2015)

All thanks go to ungern666

Download Angelic Foe - Mother Of Abominations (2015):