Subcategories

Anna Netrebko, Marianna Pizzolato - Stabat Mater: A Tribute to Pergolesi (2011)

Posted By: tirexiss
Anna Netrebko, Marianna Pizzolato - Stabat Mater: A Tribute to Pergolesi (2011)

Anna Netrebko, Marianna Pizzolato - Stabat Mater: A Tribute to Pergolesi (2011)
EAC | FLAC (image+.cue, log) | Covers Included | 01:11:48 | 379 MB
Genre: Classical, Vocal | Label: Deutsche Grammophon | Catalog: 477 8857 GH2

Baroque music is not the usual province of soprano Anna Netrebko, or contralto Marianna Pizzolato, or conductor Antonio Pappano, or the Orchestra dell'Accademia Nazionale di Santa Cecilia, Roma, so the listener might approach this tribute to the 300th anniversary of Giovanni Battista Pergolesi with some skepticism, but the performers do a terrific job. The orchestra uses modern instruments, so this is never going to be mistaken for a recording by Baroque specialists, but everyone involved approaches the challenge with such sensitivity and such evident excitement that listeners who don't demand absolute adherence to cutting-edge developments in early music practice are likely to be swept up. Netrebko is in fine voice, but some of the music lies low for her, and there are few opportunities for high-flying virtuosic vocal display, so this album is probably not the best introduction to her gifts. The intensely focused and deeply felt characterizations for which she is known are here, though, and serve the music well. Contralto Marianna Pizzolato actually makes a stronger impression because the music is beautifully situated for her warm, earthy, passionately expressive voice. Netrebko and Pizzolato sound fabulous together; in their duets in the Stabat mater each maintains the distinctiveness of her personality but their blend is gorgeous and conveys the depth of their connection in witnessing and describing a profound tragedy. The live recording was made at the Baden-Baden Festspielhaus (which was originally a railroad station), a hall large enough to seat 2,500 people. Its spacious resonance is for the most part conducive to the music, but at the end of some movements, the penultimate chord is still hanging around when the final chord is sounded, to dissonant effect.

Anna Netrebko, Marianna Pizzolato - Stabat Mater: A Tribute to Pergolesi (2011)

Track List:

Nel chiuso centro
01. Recitativo: Nel chiuso centro ove ogni luce assonna
02. Aria: Euridice, e dove sei?
03. Recitativo: Si, che pieta non v'e, se a me non lice
04. Aria: O d'Euridice n'andro fastoso
Sinfonia to the sacred drama
La conversione e morte di San Guglielmo duca d'Aquitania
05. [Allegro assai e spiritoso]
06. Andante
07. Allegro
Questo e il piano
08. Aria: Questo e il piano, e questo e il rio
09. Recitativo: Oh, dolce tempo!
10. Recitativo: Torna, torna a Cocito
11. Aria: Se nel dir son menzognero
Stabat Mater
12. Duet: Stabat Mater dolorosa
13. Aria: Cuius animam gementem
14. Duet: O quam tristis et afflicta
15. Aria: Quae moerebat et dolebat
16. Duet: Quis est homo qui non fleret
17. Aria: Vidit suum dulcem natum
18. Aria: Eia, Mater, fons amoris
19. Duet: Fac ut ardeat cor meum
20. Duet: Sancta Mater, istud agas
21. Aria: Fac ut portem Christi mortem
22. Duet: Inflammatus et accensus
23. Duet: Quando corpus morietur - Amen

Performers:
Анна Нетребко, soprano
Marianna Pizzolato, contralto
Orchestra dell'Accademia Nazionale di Santa Cecilia - Roma
Antonio Pappano

Exact Audio Copy V0.99 prebeta 5 from 4. May 2009

Отчёт EAC об извлечении, выполненном 21. марта 2011, 20:31

Giovanni Battista Pergolesi / A Tribute to Pergolesi

Дисковод: Optiarc DVD RW AD-7203A Adapter: 4 ID: 1

Режим чтения : Достоверность
Использование точного потока : Да
Отключение кэша аудио : Да
Использование указателей C2 : Нет

Коррекция смещения при чтении : 48
Способность читать области Lead-in и Lead-out : Нет
Заполнение пропущенных сэмплов тишиной : Да
Удаление блоков с тишиной в начале и конце : Нет
При вычислениях CRC использовались нулевые сэмплы : Да
Интерфейс : Встроенный Win32-интерфейс для Win NT/2000

Выходной формат : Пользовательский кодировщик
Выбранный битрейт : 128 kBit/s
Качество : Высокий
Добавление ID3-тэга : Нет
Утилита сжатия : C:\Program Files\FLAC\flac.exe
Дополнительные параметры : -5 -V %s


TOC извлечённого CD

Трек | Старт | Длительность | Начальный сектор | Конечный сектор
––––––––––––––––––––––––––––––––––-
1 | 0:00.00 | 2:03.06 | 0 | 9230
2 | 2:03.06 | 8:32.42 | 9231 | 47672
3 | 10:35.48 | 2:31.06 | 47673 | 59003
4 | 13:06.54 | 3:29.19 | 59004 | 74697
5 | 16:35.73 | 1:25.52 | 74698 | 81124
6 | 18:01.50 | 1:36.36 | 81125 | 88360
7 | 19:38.11 | 1:55.69 | 88361 | 97054
8 | 21:34.05 | 6:50.69 | 97055 | 127873
9 | 28:24.74 | 0:50.29 | 127874 | 131652
10 | 29:15.28 | 1:42.58 | 131653 | 139360
11 | 30:58.11 | 3:36.27 | 139361 | 155587
12 | 34:34.38 | 4:31.63 | 155588 | 175975
13 | 39:06.26 | 2:03.19 | 175976 | 185219
14 | 41:09.45 | 2:10.62 | 185220 | 195031
15 | 43:20.32 | 2:08.01 | 195032 | 204632
16 | 45:28.33 | 2:43.16 | 204633 | 216873
17 | 48:11.49 | 4:08.24 | 216874 | 235497
18 | 52:19.73 | 1:46.29 | 235498 | 243476
19 | 54:06.27 | 2:07.01 | 243477 | 253002
20 | 56:13.28 | 5:40.51 | 253003 | 278553
21 | 61:54.04 | 3:33.51 | 278554 | 294579
22 | 65:27.55 | 1:46.71 | 294580 | 302600
23 | 67:14.51 | 4:34.19 | 302601 | 323169


Характеристики диапазона извлечения и сообщения об ошибках

Выбранный диапазон

Имя файла D:\EAC\Giovanni Battista Pergolesi - A Tribute to Pergolesi.wav

Пиковый уровень 100.0 %
Качество диапазона 100.0 %
CRC теста 5F9B648D
CRC копии 5F9B648D
Копирование… OK

Ошибок не произошло


AccurateRip: сводка

Трек 1 нет в базе данных
Трек 2 нет в базе данных
Трек 3 нет в базе данных
Трек 4 нет в базе данных
Трек 5 нет в базе данных
Трек 6 нет в базе данных
Трек 7 нет в базе данных
Трек 8 нет в базе данных
Трек 9 нет в базе данных
Трек 10 нет в базе данных
Трек 11 нет в базе данных
Трек 12 нет в базе данных
Трек 13 нет в базе данных
Трек 14 нет в базе данных
Трек 15 нет в базе данных
Трек 16 нет в базе данных
Трек 17 нет в базе данных
Трек 18 нет в базе данных
Трек 19 нет в базе данных
Трек 20 нет в базе данных
Трек 21 нет в базе данных
Трек 22 нет в базе данных
Трек 23 нет в базе данных

Ни одного трека нет в базе AccurateRip

Конец отчёта

Ripped by GFox, Rutracker.org.

[CUETools log; Date: 30.05.2017 9:48:01; Version: 2.1.5]
[CTDB TOCID: bMq6q8bq51a82TZrTqsETAZk93o-] found.
Track | CTDB Status
1 | (71/73) Accurately ripped
2 | (70/73) Accurately ripped
3 | (71/73) Accurately ripped
4 | (71/73) Accurately ripped
5 | (71/73) Accurately ripped
6 | (71/73) Accurately ripped
7 | (70/73) Accurately ripped
8 | (71/73) Accurately ripped
9 | (72/73) Accurately ripped
10 | (72/73) Accurately ripped
11 | (70/73) Accurately ripped
12 | (71/73) Accurately ripped
13 | (71/73) Accurately ripped
14 | (72/73) Accurately ripped
15 | (72/73) Accurately ripped
16 | (72/73) Accurately ripped
17 | (70/73) Accurately ripped
18 | (72/73) Accurately ripped
19 | (70/73) Accurately ripped
20 | (70/73) Accurately ripped
21 | (72/73) Accurately ripped
22 | (72/73) Accurately ripped
23 | (69/73) Accurately ripped
[AccurateRip ID: 003bd171-03d482ba-5f10d417] found.
Track [ CRC | V2 ] Status
01 [050e6bb7|7a80c83e] (15+57/74) Accurately ripped
02 [2d39f59e|04251200] (15+55/72) Accurately ripped
03 [e712fc1a|ccbf6f9b] (16+56/74) Accurately ripped
04 [afe5cd38|c192cab2] (16+57/75) Accurately ripped
05 [abf38c42|004a5e3f] (17+56/75) Accurately ripped
06 [13a3d649|66121bba] (17+56/75) Accurately ripped
07 [2b0c83a7|9cef8dde] (17+56/75) Accurately ripped
08 [167ba17e|ec47df69] (17+58/77) Accurately ripped
09 [cd9691a9|a1112005] (17+58/77) Accurately ripped
10 [4dfc1049|fd509437] (16+57/75) Accurately ripped
11 [be870788|fffb265d] (17+58/77) Accurately ripped
12 [d3b683a3|7380a1c9] (17+58/77) Accurately ripped
13 [f02d848b|d4491bb9] (17+58/77) Accurately ripped
14 [c5ecd9b7|efdcb731] (17+57/76) Accurately ripped
15 [22dfb5e9|83cd8bd2] (17+58/77) Accurately ripped
16 [3ae33a37|c378f780] (17+58/77) Accurately ripped
17 [503ff6c6|dadfd43b] (17+58/77) Accurately ripped
18 [92fccab5|d4333a1e] (17+57/76) Accurately ripped
19 [e8a7e737|8724f4d4] (17+58/77) Accurately ripped
20 [493ab4ea|afb068b7] (16+58/76) Accurately ripped
21 [5b1f4410|4f53ea30] (17+57/76) Accurately ripped
22 [3c7371c6|6ec4cf17] (17+58/77) Accurately ripped
23 [1bb720e2|f346990e] (16+58/76) Accurately ripped
Offsetted by -12:
01 [474fa024] (00/74) No match (V2 was not tested)
02 [b9949e85] (00/72) No match (V2 was not tested)
03 [fe5a126c] (00/74) No match (V2 was not tested)
04 [3c9ebfda] (00/75) No match (V2 was not tested)
05 [32d6eabc] (00/75) No match (V2 was not tested)
06 [20d300bf] (00/75) No match (V2 was not tested)
07 [959e9626] (00/75) No match (V2 was not tested)
08 [fb10f850] (00/77) No match (V2 was not tested)
09 [8c756574] (00/77) No match (V2 was not tested)
10 [b970f970] (00/75) No match (V2 was not tested)
11 [354b5883] (00/77) No match (V2 was not tested)
12 [6d9459f4] (00/77) No match (V2 was not tested)
13 [1f76aa7d] (00/77) No match (V2 was not tested)
14 [1f54ad1f] (00/76) No match (V2 was not tested)
15 [d4c6b999] (00/77) No match (V2 was not tested)
16 [735aa828] (00/77) No match (V2 was not tested)
17 [95925159] (00/77) No match (V2 was not tested)
18 [16236b44] (00/76) No match (V2 was not tested)
19 [aa5fecf3] (00/77) No match (V2 was not tested)
20 [2904887a] (00/76) No match (V2 was not tested)
21 [d2c70cb8] (00/76) No match (V2 was not tested)
22 [1008179d] (00/77) No match (V2 was not tested)
23 [0a1f0031] (00/76) No match (V2 was not tested)

Track Peak [ CRC32 ] [W/O NULL] [ LOG ]
– 100,0 [5F9B648D] [EED8A2B6] CRC32
01 68,9 [9861BBBE] [D579DA1B]
02 87,6 [5D7A6D01] [741407B7]
03 98,8 [66652E07] [261D6CD2]
04 100,0 [EA53560D] [DF8BDC21]
05 56,0 [0F6F72B9] [7351DFEF]
06 43,2 [12D79572] [0E31890D]
07 52,7 [6774F359] [BC6C1861]
08 66,0 [97BB2D25] [7948DD77]
09 63,2 [FA630F67] [2B700E80]
10 61,2 [37768DD9] [490A0ACB]
11 99,1 [E978F599] [A592E521]
12 49,1 [E183D540] [99FBF1AC]
13 70,5 [1797A91E] [22F776AD]
14 65,2 [F1E863BD] [FBFA7E22]
15 56,2 [049258D1] [3B1C08AB]
16 56,3 [10E3C281] [0EC463D2]
17 99,9 [36EB54BE] [A9AF2A17]
18 48,6 [8D0AFA57] [C152CC80]
19 84,3 [75DDC443] [367E904B]
20 57,0 [92EC2FF8] [32F62283]
21 53,8 [4EA90F74] [E6483789]
22 64,1 [0880B45E] [DEE23A18]
23 76,4 [C495982C] [C5208387]

Thanks to the Original ripper GFox!

Download: