Subcategories

Anthrax - Caught In A Mosh: BBC Live In Concert (2007)

Posted By: v3122
Anthrax - Caught In A Mosh: BBC Live In Concert (2007)

Anthrax - Caught In A Mosh: BBC Live In Concert (2007)
EAC | Flac(Image) + Cue + Log & MP3 CBR 320Kbps
2CD | Universal-Island Records, 9843651 | ~ 818 or 248 Mb | Scans(jpg) -> 19 Mb
Thrash Metal

Looking back through the pages of '80s metal mags at photographs of Scott Ian wearing Bermuda jams with "Not" shaved into his chest hair (Hit Parader or Metal Circus, anyone?), it's easy to forget that, on-stage, Anthrax were a serious force to be reckoned with. Caught in a Mosh: BBC Live in Concert relives the experience of hearing the thrash megaliths perform in their heyday with two shows from 1987, just on the heels of their first gold record, Among the Living. Here in their classic lineup, singer Joey Belladonna, lead guitarist Dan Spitz, bassist Frank Bello, drummer Charlie Benante, and rhythm guitarist Scott Ian furiously pound through two sets: one from a sold-out Hammersmith Odeon show and the other from Castle Donington's massive Monsters of Rock festival. Both performances are equally great; totally inspired and brutal. Belladonna's Bruce Dickinson-like caterwauling is in top form on the ripping "I Am the Law," "Madhouse," and "Caught in a Mosh" as Benante's rapid-fire double kick drum flutters in time with Bello's heated bass and the distorted twin riffage of Ian and Spitz – to get the English crowd worked into a frenzy. It's completely plausible that these shows invented moshing.

by Jason Lymangrover, allmusic
Anthrax - Caught In A Mosh: BBC Live In Concert (2007):

Anthrax - Caught In A Mosh: BBC Live In Concert (2007)

Tracklist CD1:

01. A.I.R. (6:47)
02. Metal Thrashing Mad (3:11)
03. Panic (3:14)
04. The Enemy (6:07)
05. I Am The Law (5:45)
06. Madhouse (8:35)
07. The Howling Furies (4:15)
08. Medusa (5:09)
09. Armed And Dangerous (4:53)
10. Sabbath Bloody Sabbath (5:29)
11. God Save The Queen (2:57)
12. Gung Ho (5:55)

Exact Audio Copy V0.99 prebeta 5 from 4. May 2009

EAC extraction logfile from 14. June 2012, 2:24

Anthrax / Caught In A Mosh - BBC Live In Concert (Disc 1)

Used drive : PIONEER DVD-RW DVR-215 Adapter: 5 ID: 0

Read mode : Secure
Utilize accurate stream : Yes
Defeat audio cache : Yes
Make use of C2 pointers : No

Read offset correction : 48
Overread into Lead-In and Lead-Out : No
Fill up missing offset samples with silence : Yes
Delete leading and trailing silent blocks : No
Null samples used in CRC calculations : Yes
Used interface : Native Win32 interface for Win NT & 2000

Used output format : User Defined Encoder
Selected bitrate : 1024 kBit/s
Quality : High
Add ID3 tag : No
Command line compressor : C:\Program Files (x86)\Exact Audio Copy\Flac\flac.exe
Additional command line options : -8 -V %s


TOC of the extracted CD

Track | Start | Length | Start sector | End sector
––––––––––––––––––––––––––––-
1 | 0:00.00 | 6:46.62 | 0 | 30511
2 | 6:46.62 | 3:11.04 | 30512 | 44840
3 | 9:57.66 | 3:13.50 | 44841 | 59365
4 | 13:11.41 | 6:06.65 | 59366 | 86880
5 | 19:18.31 | 5:44.41 | 86881 | 112721
6 | 25:02.72 | 8:34.74 | 112722 | 151345
7 | 33:37.71 | 4:14.50 | 151346 | 170445
8 | 37:52.46 | 5:09.28 | 170446 | 193648
9 | 43:01.74 | 4:53.12 | 193649 | 215635
10 | 47:55.11 | 5:28.68 | 215636 | 240303
11 | 53:24.04 | 2:57.07 | 240304 | 253585
12 | 56:21.11 | 5:54.65 | 253586 | 280200


Range status and errors

Selected range

Filename D:\bki71\Anthrax\Anthrax - Caught In A Mosh - BBC Live In Concert (Disc 1).wav

Peak level 96.6 %
Range quality 100.0 %
Test CRC A69D6082
Copy CRC A69D6082
Copy OK

No errors occurred


AccurateRip summary

Track 1 accurately ripped (confidence 8) [0E5D24F6]
Track 2 accurately ripped (confidence 8) [C1236B3B]
Track 3 accurately ripped (confidence 8) [8C4040D2]
Track 4 accurately ripped (confidence 8) [916CB25B]
Track 5 accurately ripped (confidence 8) [B2B23902]
Track 6 accurately ripped (confidence 8) [75B37CBB]
Track 7 accurately ripped (confidence 8) [D75B0911]
Track 8 accurately ripped (confidence 8) [C1AA9728]
Track 9 accurately ripped (confidence 8) [2A48C5DE]
Track 10 accurately ripped (confidence 8) [95DC1E44]
Track 11 accurately ripped (confidence 8) [0E490AFF]
Track 12 accurately ripped (confidence 8) [3273DD59]

All tracks accurately ripped

End of status report


[CUETools log; Date: 18.05.2018 13:20:20; Version: 2.1.5]
[CTDB TOCID: 7QSE3eiBLwVljXLFaY6YseNBclo-] found.
Track | CTDB Status
1 | (18/18) Accurately ripped
2 | (18/18) Accurately ripped
3 | (18/18) Accurately ripped
4 | (18/18) Accurately ripped
5 | (18/18) Accurately ripped
6 | (18/18) Accurately ripped
7 | (18/18) Accurately ripped
8 | (18/18) Accurately ripped
9 | (18/18) Accurately ripped
10 | (18/18) Accurately ripped
11 | (18/18) Accurately ripped
12 | (17/18) Accurately ripped
[AccurateRip ID: 001c1182-01065fb1-ab0e980c] found.
Track [ CRC | V2 ] Status
01 [0e5d24f6|32e2ad1a] (09+05/14) Accurately ripped
02 [c1236b3b|1b6dfa4b] (09+05/14) Accurately ripped
03 [8c4040d2|7376e111] (09+05/14) Accurately ripped
04 [916cb25b|4ff2b155] (09+05/14) Accurately ripped
05 [b2b23902|cc5c841f] (09+05/14) Accurately ripped
06 [75b37cbb|8e2a049e] (09+05/14) Accurately ripped
07 [d75b0911|f9fdc9f0] (09+05/14) Accurately ripped
08 [c1aa9728|4548327a] (09+05/14) Accurately ripped
09 [2a48c5de|38016831] (09+05/14) Accurately ripped
10 [95dc1e44|12d91e54] (09+05/14) Accurately ripped
11 [0e490aff|a9f5966d] (09+05/14) Accurately ripped
12 [3273dd59|81481a1c] (09+05/14) Accurately ripped

Track Peak [ CRC32 ] [W/O NULL] [ LOG ]
– 96,6 [A69D6082] [F043E9EF] CRC32
01 96,6 [08203B99] [699EF1EF]
02 96,6 [F0A0057C] [AC77544E]
03 96,6 [E0553000] [30CF13A0]
04 96,6 [51CBC372] [579877F3]
05 96,6 [E46C7853] [57C1B9C9]
06 96,6 [B603CE41] [B29F4FF9]
07 96,6 [C9497C63] [6F802193]
08 96,6 [8BC121EA] [BB0F87CC]
09 96,6 [06E932B3] [D3CA7967]
10 96,6 [5AFD51AB] [A53D9C92]
11 96,6 [1F11F7C1] [66BDC4C9]
12 96,6 [896406D8] [9A554C33]


Anthrax - Caught In A Mosh: BBC Live In Concert (2007)

Tracklist CD2:

01. Among The Living (4:24)
02. Caught In A Mosh (5:10)
03. Madhouse (4:01)
04. I Am The Law (5:41)
05. Medusa (4:22)
06. Indians (5:38)
07. God Save The Queen (3:10)
08. A.I.R. (4:16)
09. I Am The Man (3:57)

Exact Audio Copy V0.99 prebeta 5 from 4. May 2009

EAC extraction logfile from 14. June 2012, 2:52

Anthrax / Caught In A Mosh - BBC Live In Concert (Disc 2)

Used drive : PIONEER DVD-RW DVR-215 Adapter: 5 ID: 0

Read mode : Secure
Utilize accurate stream : Yes
Defeat audio cache : Yes
Make use of C2 pointers : No

Read offset correction : 48
Overread into Lead-In and Lead-Out : No
Fill up missing offset samples with silence : Yes
Delete leading and trailing silent blocks : No
Null samples used in CRC calculations : Yes
Used interface : Native Win32 interface for Win NT & 2000

Used output format : User Defined Encoder
Selected bitrate : 1024 kBit/s
Quality : High
Add ID3 tag : No
Command line compressor : C:\Program Files (x86)\Exact Audio Copy\Flac\flac.exe
Additional command line options : -8 -V %s


TOC of the extracted CD

Track | Start | Length | Start sector | End sector
––––––––––––––––––––––––––––-
1 | 0:00.00 | 4:23.53 | 0 | 19777
2 | 4:23.53 | 5:10.09 | 19778 | 43036
3 | 9:33.62 | 4:01.19 | 43037 | 61130
4 | 13:35.06 | 5:41.08 | 61131 | 86713
5 | 19:16.14 | 4:21.40 | 86714 | 106328
6 | 23:37.54 | 5:37.50 | 106329 | 131653
7 | 29:15.29 | 3:10.18 | 131654 | 145921
8 | 32:25.47 | 4:16.26 | 145922 | 165147
9 | 36:41.73 | 3:56.47 | 165148 | 182894


Range status and errors

Selected range

Filename D:\bki71\Anthrax\Anthrax - Caught In A Mosh - BBC Live In Concert (Disc 2).wav

Peak level 96.6 %
Range quality 100.0 %
Test CRC 737DA1E0
Copy CRC 737DA1E0
Copy OK

No errors occurred


AccurateRip summary

Track 1 accurately ripped (confidence 8) [73A65DA1]
Track 2 accurately ripped (confidence 8) [7EE28E73]
Track 3 accurately ripped (confidence 8) [A19A9B66]
Track 4 accurately ripped (confidence 8) [207A4563]
Track 5 accurately ripped (confidence 8) [CA470191]
Track 6 accurately ripped (confidence 8) [1A63900F]
Track 7 accurately ripped (confidence 8) [4832E78C]
Track 8 accurately ripped (confidence 8) [81DF0450]
Track 9 accurately ripped (confidence 8) [02F41C5B]

All tracks accurately ripped

End of status report


[CUETools log; Date: 18.05.2018 13:20:40; Version: 2.1.5]
[CTDB TOCID: Wm36dJUoOBqTkfTWZy9tGfwd1S8-] found.
Track | CTDB Status
1 | (18/18) Accurately ripped
2 | (18/18) Accurately ripped
3 | (18/18) Accurately ripped
4 | (18/18) Accurately ripped
5 | (18/18) Accurately ripped
6 | (18/18) Accurately ripped
7 | (18/18) Accurately ripped
8 | (18/18) Accurately ripped
9 | (17/18) Accurately ripped
[AccurateRip ID: 000e6210-00691e0c-7e098609] found.
Track [ CRC | V2 ] Status
01 [73a65da1|e1977265] (09+04/13) Accurately ripped
02 [7ee28e73|20ee7931] (09+04/13) Accurately ripped
03 [a19a9b66|c53462f7] (09+04/13) Accurately ripped
04 [207a4563|f2cbc019] (09+04/13) Accurately ripped
05 [ca470191|9ef3c861] (09+04/13) Accurately ripped
06 [1a63900f|d74aebee] (09+04/13) Accurately ripped
07 [4832e78c|83266d64] (09+04/13) Accurately ripped
08 [81df0450|e4abf907] (09+04/13) Accurately ripped
09 [02f41c5b|bfbece37] (09+04/13) Accurately ripped

Track Peak [ CRC32 ] [W/O NULL] [ LOG ]
– 96,6 [737DA1E0] [BE220305] CRC32
01 96,6 [BAE4FE30] [57481EC2]
02 96,6 [3628E1F6] [935AC513]
03 96,6 [21CFD780] [AB025BC9]
04 96,6 [CD7D71D0] [B07173E4]
05 96,6 [098B707E] [2A5DF4F3]
06 96,6 [E70016ED] [324BA3B0]
07 96,6 [319DCF32] [65E80F64]
08 96,6 [707B3FF5] [2A0B8240]
09 96,6 [C48B8069] [FA511F2C]


Anthrax - Caught In A Mosh: BBC Live In Concert (2007)

All thanks go to bki71

Anthrax or Anthrax in my Blog

Download Anthrax - Caught In A Mosh: BBC Live In Concert (2007):