Subcategories

Anthrax: Collection (1983-2016) [18CDs, Non Rematered]

Posted By: v3122
Anthrax: Collection (1983-2016) [18CDs, Non Rematered]

Anthrax: Collection (1983-2016)
EAC | Flac(Image) + Cue + Log & MP3 CBR 320Kbps
18CD | Label: Various | ~ 7074 or 2829 Mb | Scans(jpg) -> 461 Mb
Thrash Metal

Anthrax is an American heavy metal band from New York City, formed in 1981 by rhythm guitarist Scott Ian and bassist Dan Lilker. The group was considered one of the leaders of the thrash metal scene during the 1980s and is one of the "Big Four" thrash metal bands with Metallica, Megadeth, and Slayer; Anthrax is the only one of the four from the East Coast. As of April 2017, the band has released 11 studio albums, several other albums, and 26 singles, including collaborating on a single with American hip hop group Public Enemy. According to Nielsen SoundScan, Anthrax sold 2.5 million records in the United States from 1991 to 2004, with worldwide sales of 10 million.

Noted for its live performances, Anthrax signed with the independent label Megaforce Records, which released the band's debut studio album in 1984. Lilker soon left the band to form Nuclear Assault, and was replaced by roadie Frank Bello. Lead vocalist Neil Turbin was replaced after two years by Matt Fallon, who was then subsequently replaced in 1984 by Joey Belladonna. With a new lineup, the band recorded Spreading the Disease (distributed by Island Records) in 1985. Anthrax's third album, Among the Living, was released in 1987 to critical praise. The band experienced another lineup change in 1992, when John Bush from Armored Saint replaced Belladonna as lead vocalist. Sound of White Noise was released the following year, peaking at number seven on the Billboard 200. Studio recordings during the 1990s saw the band, influenced by other genres, experimenting with its sound.

Anthrax's lineup has changed several times over their career. The band has had a number of vocalists including Neil Turbin, Joey Belladonna, Dan Nelson and John Bush. Founding member Scott Ian and early arrival Charlie Benante, who joined Anthrax in 1983, are the only band members to appear on every album. Bassist Frank Bello has played on every album, except for the band's debut Fistful of Metal, which featured Dan Lilker. After briefly rejoining the band from 2005 to 2007, Belladonna returned to Anthrax once again in 2010, and the band has since recorded two more studio albums with him: Worship Music (2011) and For All Kings (2016)…

~ wiki
Anthrax: Collection (1983-2016) [18CDs, Non Rematered]


Anthrax: Collection (1983-2016):

Anthrax: Collection (1983-2016) [18CDs, Non Rematered]

Tracklist CD1 - 1983 - Fistful Of Metal (France CDMFN 14):

01. Deathrider (3:10)
02. Metal Thrashing Mad (2:42)
03. I'm Eighteen (4:02)
04. Panic (4:02)
05. Subjugator (4:43)
06. Soldiers Of Metal (2:59)
07. Death From Above (5:10)
08. Anthrax (3:28)
09. Across The River (1:26)
10. Howling Furies (3:54)

Exact Audio Copy V0.99 prebeta 5 from 4. May 2009

EAC extraction logfile from 3. June 2012, 1:30

Anthrax / Fistful Of Metal (France CDMFN 14)

Used drive : PLEXTOR DVDR PX-760A Adapter: 0 ID: 0

Read mode : Secure
Utilize accurate stream : Yes
Defeat audio cache : Yes
Make use of C2 pointers : No

Read offset correction : 30
Overread into Lead-In and Lead-Out : No
Fill up missing offset samples with silence : Yes
Delete leading and trailing silent blocks : No
Null samples used in CRC calculations : Yes
Used interface : Native Win32 interface for Win NT & 2000

Used output format : User Defined Encoder
Selected bitrate : 1024 kBit/s
Quality : High
Add ID3 tag : No
Command line compressor : C:\Program Files (x86)\Exact Audio Copy\Flac\flac.exe
Additional command line options : -8 -V %s


TOC of the extracted CD

Track | Start | Length | Start sector | End sector
––––––––––––––––––––––––––––-
1 | 0:00.32 | 3:10.25 | 32 | 14306
2 | 3:10.57 | 2:42.25 | 14307 | 26481
3 | 5:53.07 | 4:02.18 | 26482 | 44649
4 | 9:55.25 | 4:01.57 | 44650 | 62781
5 | 13:57.07 | 4:42.38 | 62782 | 83969
6 | 18:39.45 | 2:58.40 | 83970 | 97359
7 | 21:38.10 | 5:10.00 | 97360 | 120609
8 | 26:48.10 | 3:28.32 | 120610 | 136241
9 | 30:16.42 | 1:26.35 | 136242 | 142726
10 | 31:43.02 | 3:53.43 | 142727 | 160244


Range status and errors

Selected range

Filename D:\bki71\Anthrax\Anthrax - Fistful Of Metal (France CDMFN 14).wav

Peak level 91.4 %
Range quality 100.0 %
Test CRC 4A0D938C
Copy CRC 4A0D938C
Copy OK

No errors occurred


AccurateRip summary

Track 1 cannot be verified as accurate (confidence 3) [A259AADA], AccurateRip returned [5EC6DBC7]
Track 2 cannot be verified as accurate (confidence 3) [8800CE4C], AccurateRip returned [E050A7E5]
Track 3 cannot be verified as accurate (confidence 3) [0607CECB], AccurateRip returned [80F4682A]
Track 4 cannot be verified as accurate (confidence 3) [50AF8EA1], AccurateRip returned [D368F34C]
Track 5 cannot be verified as accurate (confidence 3) [DDFDAAE5], AccurateRip returned [D1655E07]
Track 6 cannot be verified as accurate (confidence 3) [BAFB9641], AccurateRip returned [604889A7]
Track 7 cannot be verified as accurate (confidence 3) [EFAA1653], AccurateRip returned [79347F33]
Track 8 cannot be verified as accurate (confidence 3) [031C3BD3], AccurateRip returned [2AD23EFB]
Track 9 cannot be verified as accurate (confidence 3) [413E074E], AccurateRip returned [89069C3E]
Track 10 cannot be verified as accurate (confidence 3) [C1AE05F4], AccurateRip returned [E8FB71FC]

No tracks could be verified as accurate
You may have a different pressing from the one(s) in the database

End of status report


[CUETools log; Date: 20.04.2018 19:45:16; Version: 2.1.5]
Pregap length 00:00:32.
[CTDB TOCID: ZAfYY0BXdbmOcCIyYhy0bhHlBjc-] found.
Track | CTDB Status
1 | (11/11) Accurately ripped
2 | (11/11) Accurately ripped
3 | (11/11) Accurately ripped
4 | (11/11) Accurately ripped
5 | (11/11) Accurately ripped
6 | (11/11) Accurately ripped
7 | (11/11) Accurately ripped
8 | (11/11) Accurately ripped
9 | (11/11) Accurately ripped
10 | (11/11) Accurately ripped
[AccurateRip ID: 000d923f-006d5bf5-7608580a] found.
Track [ CRC | V2 ] Status
01 [a259aada|aa4139c3] (02+03/14) Accurately ripped
02 [8800ce4c|b02e7e9c] (02+03/14) Accurately ripped
03 [0607cecb|7ca4a7f1] (02+03/14) Accurately ripped
04 [50af8ea1|732b2794] (02+03/14) Accurately ripped
05 [ddfdaae5|028f78fe] (02+03/14) Accurately ripped
06 [bafb9641|a016933c] (02+03/14) Accurately ripped
07 [efaa1653|4a9f21ce] (02+03/13) Accurately ripped
08 [031c3bd3|dfa11f0c] (02+03/14) Accurately ripped
09 [413e074e|4535b1f9] (02+03/14) Accurately ripped
10 [c1ae05f4|d718de7b] (02+03/13) Accurately ripped
Offsetted by 2003:
01 [5ec6dbc7] (03/14) Accurately ripped
02 [e050a7e5] (03/14) Accurately ripped
03 [80f4682a] (03/14) Accurately ripped
04 [d368f34c] (03/14) Accurately ripped
05 [d1655e07] (03/14) Accurately ripped
06 [604889a7] (03/14) Accurately ripped
07 [79347f33] (03/13) Accurately ripped
08 [2ad23efb] (03/14) Accurately ripped
09 [89069c3e] (03/14) Accurately ripped
10 [e8fb71fc] (03/13) Accurately ripped

Track Peak [ CRC32 ] [W/O NULL] [ LOG ]
– 91,4 [4A0D938C] [E1ABA338] CRC32
01 88,2 [B970E490] [73D5FCFE]
02 79,9 [371D5218] [53AF712D]
03 89,4 [40DE6C3C] [EC824EF1]
04 91,4 [FF2BC016] [31663905]
05 86,4 [4880BAF6] [DAE2122A]
06 84,3 [EA61272A] [30EF8F11]
07 81,8 [2D6791EB] [9795816B]
08 79,9 [BF31488B] [47BB98E7]
09 82,4 [653A95D0] [6C9FFD78]
10 80,4 [0AFA6125] [53D66321]


Anthrax: Collection (1983-2016) [18CDs, Non Rematered]

Tracklist CD2 - 1985 - Spreading The Disease (Germany Island 262 042):

01. A.I.R. (5:45)
02. Lone Justice (4:37)
03. Madhouse (4:21)
04. S.S.C. / Stand Or Fall (4:08)
05. The Enemy (5:24)
06. Aftershock (4:29)
07. Armed And Dangerous (5:43)
08. Medusa (4:44)
09. Gung-Ho (4:37)

Exact Audio Copy V0.99 prebeta 5 from 4. May 2009

EAC extraction logfile from 19. July 2012, 16:37

Anthrax / Spreading The Disease (Germany Island 262 042)

Used drive : PIONEER DVD-RW DVR-215 Adapter: 5 ID: 0

Read mode : Secure
Utilize accurate stream : Yes
Defeat audio cache : Yes
Make use of C2 pointers : No

Read offset correction : 48
Overread into Lead-In and Lead-Out : No
Fill up missing offset samples with silence : Yes
Delete leading and trailing silent blocks : No
Null samples used in CRC calculations : Yes
Used interface : Native Win32 interface for Win NT & 2000

Used output format : User Defined Encoder
Selected bitrate : 1024 kBit/s
Quality : High
Add ID3 tag : No
Command line compressor : C:\Program Files (x86)\Exact Audio Copy\Flac\flac.exe
Additional command line options : -8 -V %s


TOC of the extracted CD

Track | Start | Length | Start sector | End sector
––––––––––––––––––––––––––––-
1 | 0:00.00 | 5:45.27 | 0 | 25901
2 | 5:45.27 | 4:36.60 | 25902 | 46661
3 | 10:22.12 | 4:20.40 | 46662 | 66201
4 | 14:42.52 | 4:08.03 | 66202 | 84804
5 | 18:50.55 | 5:24.10 | 84805 | 109114
6 | 24:14.65 | 4:28.60 | 109115 | 129274
7 | 28:43.50 | 5:43.35 | 129275 | 155034
8 | 34:27.10 | 4:44.10 | 155035 | 176344
9 | 39:11.20 | 4:36.50 | 176345 | 197094


Range status and errors

Selected range

Filename D:\bki71\Anthrax\Anthrax - Spreading The Disease (Germany Island 262 042).wav

Peak level 92.2 %
Range quality 100.0 %
Test CRC 31E8AE22
Copy CRC 31E8AE22
Copy OK

No errors occurred


AccurateRip summary

Track 1 accurately ripped (confidence 5) [DA4BA6A1]
Track 2 accurately ripped (confidence 5) [79C7E59C]
Track 3 accurately ripped (confidence 5) [419A99FA]
Track 4 accurately ripped (confidence 5) [189AAC84]
Track 5 accurately ripped (confidence 5) [D0D5815A]
Track 6 accurately ripped (confidence 5) [5AE7B08C]
Track 7 accurately ripped (confidence 5) [506B6443]
Track 8 accurately ripped (confidence 5) [93025E7D]
Track 9 accurately ripped (confidence 5) [2A51578E]

All tracks accurately ripped

End of status report


[CUETools log; Date: 20.04.2018 19:45:51; Version: 2.1.5]
[CTDB TOCID: GDPRoKDeYklmtMcZL55Ncdwb9GE-] found.
Track | CTDB Status
1 | (55/55) Accurately ripped
2 | (54/55) Accurately ripped
3 | (55/55) Accurately ripped
4 | (55/55) Accurately ripped
5 | (55/55) Accurately ripped
6 | (54/55) Accurately ripped
7 | (53/55) Accurately ripped
8 | (54/55) Accurately ripped
9 | (55/55) Accurately ripped
[AccurateRip ID: 000f1ce4-006e73ae-740a4309] found.
Track [ CRC | V2 ] Status
01 [da4ba6a1|b558dea0] (06+06/43) Accurately ripped
02 [79c7e59c|def6e8a8] (06+05/41) Accurately ripped
03 [419a99fa|b33684fa] (06+06/42) Accurately ripped
04 [189aac84|59747d1a] (06+06/43) Accurately ripped
05 [d0d5815a|b8ff7a96] (06+06/44) Accurately ripped
06 [5ae7b08c|8d48b1fe] (06+06/43) Accurately ripped
07 [506b6443|18a6adf2] (06+06/43) Accurately ripped
08 [93025e7d|e9c8d1ec] (06+06/42) Accurately ripped
09 [2a51578e|8c144044] (06+06/43) Accurately ripped
Offsetted by -1387:
01 [00f07622] (02/43) Accurately ripped
02 [fd45a417] (02/41) Accurately ripped
03 [7861c8a8] (02/42) Accurately ripped
04 [5c5de163] (02/43) Accurately ripped
05 [fbcaa550] (02/44) Accurately ripped
06 [5d640fec] (02/43) Accurately ripped
07 [7f7fcfd5] (02/43) Accurately ripped
08 [6adc7cbf] (02/42) Accurately ripped
09 [7562e4d7] (02/43) Accurately ripped
Offsetted by -6:
01 [a928607a] (15/43) Accurately ripped
02 [605395f5] (14/41) Accurately ripped
03 [6d3dbedd] (14/42) Accurately ripped
04 [f81a2bd3] (15/43) Accurately ripped
05 [58cca0ad] (15/44) Accurately ripped
06 [34407f91] (15/43) Accurately ripped
07 [aa5df7c6] (15/43) Accurately ripped
08 [4a6840d4] (14/42) Accurately ripped
09 [407cff3e] (15/43) Accurately ripped

Track Peak [ CRC32 ] [W/O NULL] [ LOG ]
– 92,2 [31E8AE22] [D5DC0F2E] CRC32
01 79,0 [C6CB24F3] [F0DA89BA]
02 85,2 [697C7229] [E1CC0171]
03 77,0 [2082CF32] [16FA5A25]
04 73,4 [CD5C79CD] [C88802D2]
05 65,5 [4E89CC48] [5647E0D2]
06 73,2 [EE6003E5] [DF73645D]
07 81,4 [B5ACB5E9] [EFFC427C]
08 92,2 [B9452331] [68DA60E7]
09 82,4 [D0B43543] [F9BE8AC8]


Anthrax: Collection (1983-2016) [18CDs, Non Rematered]

Tracklist CD3 - 1987 - Among The Living (Germany Island 258 210 CID 9865):

01. Among The Living (5:16)
02. Caught In A Mosh (5:00)
03. I Am The Law (5:54)
04. Efilnikufesin (N.F.L.) (4:55)
05. A Skeleton In The Closet (5:29)
06. Indians (5:41)
07. One World (5:56)
08. A.D.I. / Horror Of It All (7:49)
09. Imitation Of Life (4:22)

Exact Audio Copy V0.99 prebeta 5 from 4. May 2009

EAC extraction logfile from 7. June 2012, 1:41

Anthrax / Among The Living (Germany Island 258 210 CID 9865)

Used drive : PIONEER DVD-RW DVR-215 Adapter: 5 ID: 0

Read mode : Secure
Utilize accurate stream : Yes
Defeat audio cache : Yes
Make use of C2 pointers : No

Read offset correction : 48
Overread into Lead-In and Lead-Out : No
Fill up missing offset samples with silence : Yes
Delete leading and trailing silent blocks : No
Null samples used in CRC calculations : Yes
Used interface : Native Win32 interface for Win NT & 2000

Used output format : User Defined Encoder
Selected bitrate : 1024 kBit/s
Quality : High
Add ID3 tag : No
Command line compressor : C:\Program Files (x86)\Exact Audio Copy\Flac\flac.exe
Additional command line options : -8 -V %s


TOC of the extracted CD

Track | Start | Length | Start sector | End sector
––––––––––––––––––––––––––––-
1 | 0:00.00 | 5:16.05 | 0 | 23704
2 | 5:16.05 | 5:00.10 | 23705 | 46214
3 | 10:16.15 | 5:54.05 | 46215 | 72769
4 | 16:10.20 | 4:54.70 | 72770 | 94889
5 | 21:05.15 | 5:29.08 | 94890 | 119572
6 | 26:34.23 | 5:41.22 | 119573 | 145169
7 | 32:15.45 | 5:55.63 | 145170 | 171857
8 | 38:11.33 | 7:49.02 | 171858 | 207034
9 | 46:00.35 | 4:22.33 | 207035 | 226717


Range status and errors

Selected range

Filename D:\bki71\Anthrax\Anthrax - Among The Living (Germany Island 258 210 CID 9865).wav

Peak level 100.0 %
Range quality 100.0 %
Test CRC 6B360666
Copy CRC 6B360666
Copy OK

No errors occurred


AccurateRip summary

Track 1 accurately ripped (confidence 19) [E6FD5ACC]
Track 2 accurately ripped (confidence 19) [8ABF6B48]
Track 3 accurately ripped (confidence 19) [7C8C6F07]
Track 4 accurately ripped (confidence 19) [F05780D1]
Track 5 accurately ripped (confidence 19) [51EA99F8]
Track 6 accurately ripped (confidence 19) [71FE04DE]
Track 7 accurately ripped (confidence 19) [EF69BEE2]
Track 8 accurately ripped (confidence 19) [4E450B1A]
Track 9 accurately ripped (confidence 21) [C698CB3B]

All tracks accurately ripped

End of status report


[CUETools log; Date: 20.04.2018 19:46:21; Version: 2.1.5]
[CTDB TOCID: 3w1PPIpaVjzvCvwtjSnBuOlV8zw-] found.
Track | CTDB Status
1 | (66/69) Accurately ripped
2 | (65/69) Accurately ripped
3 | (67/69) Accurately ripped
4 | (68/69) Accurately ripped
5 | (67/69) Accurately ripped
6 | (66/69) Accurately ripped
7 | (67/69) Accurately ripped
8 | (67/69) Accurately ripped
9 | (67/69) Accurately ripped
[AccurateRip ID: 0010e7de-007cfa6d-890bce09] found.
Track [ CRC | V2 ] Status
01 [e6fd5acc|67be38f3] (23+23/46) Accurately ripped
02 [8abf6b48|d5515a82] (23+22/45) Accurately ripped
03 [7c8c6f07|f7ea19a8] (23+23/46) Accurately ripped
04 [f05780d1|03242b15] (23+23/46) Accurately ripped
05 [51ea99f8|3acd9cdd] (23+23/46) Accurately ripped
06 [71fe04de|69822e3a] (23+23/46) Accurately ripped
07 [ef69bee2|a37079bd] (23+22/45) Accurately ripped
08 [4e450b1a|70d3d561] (23+23/46) Accurately ripped
09 [c698cb3b|7efebc26] (25+23/48) Accurately ripped

Track Peak [ CRC32 ] [W/O NULL] [ LOG ]
– 100,0 [6B360666] [353D0389] CRC32
01 99,6 [346313DA] [FDF2BED9]
02 100,0 [502F228A] [88D2FC28]
03 92,4 [EAB36CE2] [0C993168]
04 85,9 [D4B5FC34] [0AD35158]
05 84,7 [90E413E4] [4CE0B006]
06 100,0 [80C3D432] [262B23B4]
07 100,0 [DB21F81C] [A3137A56]
08 100,0 [1D0EA0DA] [95B93DBD]
09 100,0 [9F6B6EA4] [D5F69F58]


Anthrax: Collection (1983-2016) [18CDs, Non Rematered]

Tracklist CD4 - 1988 - State Of Euphoria (Germany Island 259 334):

01. Be All, End All (6:24)
02. Out Of Sight, Out Of Mind (5:13)
03. Make Me Laugh (5:42)
04. Antisocial (4:26)
05. Who Cares Wins (7:36)
06. Now It's Dark (5:36)
07. Schism (5:29)
08. Misery Loves Company (5:41)
09. 13 (0:51)
10. Finale (5:49)

Exact Audio Copy V0.99 prebeta 5 from 4. May 2009

EAC extraction logfile from 7. June 2012, 2:07

Anthrax / State Of Euphoria (Germany Island 259 334)

Used drive : PIONEER DVD-RW DVR-215 Adapter: 5 ID: 0

Read mode : Secure
Utilize accurate stream : Yes
Defeat audio cache : Yes
Make use of C2 pointers : No

Read offset correction : 48
Overread into Lead-In and Lead-Out : No
Fill up missing offset samples with silence : Yes
Delete leading and trailing silent blocks : No
Null samples used in CRC calculations : Yes
Used interface : Native Win32 interface for Win NT & 2000

Used output format : User Defined Encoder
Selected bitrate : 1024 kBit/s
Quality : High
Add ID3 tag : No
Command line compressor : C:\Program Files (x86)\Exact Audio Copy\Flac\flac.exe
Additional command line options : -8 -V %s


TOC of the extracted CD

Track | Start | Length | Start sector | End sector
––––––––––––––––––––––––––––-
1 | 0:00.00 | 6:23.62 | 0 | 28786
2 | 6:23.62 | 5:13.28 | 28787 | 52289
3 | 11:37.15 | 5:41.52 | 52290 | 77916
4 | 17:18.67 | 4:25.73 | 77917 | 97864
5 | 21:44.65 | 7:35.60 | 97865 | 132049
6 | 29:20.50 | 5:35.62 | 132050 | 157236
7 | 34:56.37 | 5:29.05 | 157237 | 181916
8 | 40:25.42 | 5:41.15 | 181917 | 207506
9 | 46:06.57 | 0:51.35 | 207507 | 211366
10 | 46:58.17 | 5:48.58 | 211367 | 237524


Range status and errors

Selected range

Filename D:\bki71\Anthrax\Anthrax - State Of Euphoria (Germany Island 259 334).wav

Peak level 97.7 %
Range quality 99.9 %
Test CRC 9F65A119
Copy CRC 9F65A119
Copy OK

No errors occurred


AccurateRip summary

Track 1 accurately ripped (confidence 25) [930C0310]
Track 2 accurately ripped (confidence 24) [DF412E3E]
Track 3 accurately ripped (confidence 25) [FA88867E]
Track 4 accurately ripped (confidence 25) [67C2D01A]
Track 5 accurately ripped (confidence 24) [6D4A0326]
Track 6 accurately ripped (confidence 24) [E1C5FDC6]
Track 7 accurately ripped (confidence 24) [71A89023]
Track 8 accurately ripped (confidence 24) [23BDC5FC]
Track 9 accurately ripped (confidence 24) [37DDA4E0]
Track 10 accurately ripped (confidence 24) [B25C3DA0]

All tracks accurately ripped

End of status report


[CUETools log; Date: 20.04.2018 19:46:48; Version: 2.1.5]
[CTDB TOCID: cfjyEORJFpE4C7vmWJMPNemWPDE-] found.
Track | CTDB Status
1 | (83/83) Accurately ripped
2 | (82/83) Accurately ripped
3 | (83/83) Accurately ripped
4 | (83/83) Accurately ripped
5 | (81/83) Accurately ripped
6 | (83/83) Accurately ripped
7 | (83/83) Accurately ripped
8 | (83/83) Accurately ripped
9 | (82/83) Accurately ripped
10 | (82/83) Accurately ripped
[AccurateRip ID: 0015200e-00a733ad-8e0c5f0a] found.
Track [ CRC | V2 ] Status
01 [930c0310|6508ea88] (26+22/48) Accurately ripped
02 [df412e3e|fcb442c9] (25+21/46) Accurately ripped
03 [fa88867e|e0149d2a] (26+21/47) Accurately ripped
04 [67c2d01a|00e7a944] (26+21/47) Accurately ripped
05 [6d4a0326|dbac7cc5] (25+21/46) Accurately ripped
06 [e1c5fdc6|0d959d34] (25+21/46) Accurately ripped
07 [71a89023|c720c0ff] (25+21/46) Accurately ripped
08 [23bdc5fc|fa9f8918] (25+21/46) Accurately ripped
09 [37dda4e0|b691ed1d] (25+21/46) Accurately ripped
10 [b25c3da0|6c35134d] (25+21/46) Accurately ripped

Track Peak [ CRC32 ] [W/O NULL] [ LOG ]
– 97,7 [9F65A119] [71D17B23] CRC32
01 95,3 [3801DB06] [E8F7A736]
02 97,7 [9A5A4316] [0C03A1B0]
03 86,9 [321F6D97] [BAF2431D]
04 92,4 [9070CDAD] [8EC1A945]
05 95,4 [49F26ED6] [327420E6]
06 95,6 [A3859608] [3ED4E4C1]
07 97,7 [0749C259] [267930B9]
08 82,7 [87A2C012] [F7B6DC22]
09 62,0 [73B1A9D9] [00FFF2AB]
10 84,8 [22FFDB76] [CC8D8BC1]


Anthrax: Collection (1983-2016) [18CDs, Non Rematered]

Tracklist CD5 - 1990 - Persistence Of Time (Mexico CDEPR 1007):

01. Time (6:54)
02. Blood (7:15)
03. Keep It In The Family (7:09)
04. In My World (6:25)
05. Gridlock (5:17)
06. Intro To Reality (3:24)
07. Belly Of The Beast (4:48)
08. Got The Time (2:44)
09. H8 Red (5:04)
10. One Man Stands (5:38)
11. Discharge (4:11)

Exact Audio Copy V0.99 prebeta 5 from 4. May 2009

EAC extraction logfile from 16. November 2012, 11:25

Anthrax / Persistence Of Time (Mexico CDEPR 1007)

Used drive : PIONEER DVD-RW DVR-215 Adapter: 5 ID: 0

Read mode : Secure
Utilize accurate stream : Yes
Defeat audio cache : Yes
Make use of C2 pointers : No

Read offset correction : 48
Overread into Lead-In and Lead-Out : No
Fill up missing offset samples with silence : Yes
Delete leading and trailing silent blocks : No
Null samples used in CRC calculations : Yes
Used interface : Native Win32 interface for Win NT & 2000

Used output format : User Defined Encoder
Selected bitrate : 1024 kBit/s
Quality : High
Add ID3 tag : No
Command line compressor : C:\Program Files (x86)\Exact Audio Copy\Flac\flac.exe
Additional command line options : -8 -V %s


TOC of the extracted CD

Track | Start | Length | Start sector | End sector
––––––––––––––––––––––––––––-
1 | 0:00.00 | 6:53.62 | 0 | 31036
2 | 6:53.62 | 7:14.40 | 31037 | 63626
3 | 14:08.27 | 7:08.53 | 63627 | 95779
4 | 21:17.05 | 6:25.02 | 95780 | 124656
5 | 27:42.07 | 5:16.73 | 124657 | 148429
6 | 32:59.05 | 3:24.07 | 148430 | 163736
7 | 36:23.12 | 4:47.53 | 163737 | 185314
8 | 41:10.65 | 2:44.12 | 185315 | 197626
9 | 43:55.02 | 5:04.35 | 197627 | 220461
10 | 48:59.37 | 5:38.05 | 220462 | 245816
11 | 54:37.42 | 4:11.33 | 245817 | 264674


Range status and errors

Selected range

Filename D:\bki71\Anthrax\Anthrax - Persistence Of Time (Mexico CDEPR 1007).wav

Peak level 72.1 %
Range quality 100.0 %
Test CRC 3F201345
Copy CRC 3F201345
Copy OK

No errors occurred


AccurateRip summary

Track 1 not present in database
Track 2 not present in database
Track 3 not present in database
Track 4 not present in database
Track 5 not present in database
Track 6 not present in database
Track 7 not present in database
Track 8 not present in database
Track 9 not present in database
Track 10 not present in database
Track 11 not present in database

None of the tracks are present in the AccurateRip database

End of status report


[CUETools log; Date: 20.04.2018 19:47:14; Version: 2.1.5]
[CTDB TOCID: 8_yX3g6OqLx7SAU2dkzXc8ckJow-] disk not present in database.
[AccurateRip ID: 001a916c-00df6b32-a60dc90b] found.
Track [ CRC | V2 ] Status
01 [bf80b5c7|660ff1c1] (1+0/1) Accurately ripped
02 [58e62866|1b4382d9] (1+0/1) Accurately ripped
03 [58be91e4|6acc1ced] (1+0/1) Accurately ripped
04 [08c178f0|0ee76f51] (1+0/1) Accurately ripped
05 [f68bc7d9|e9071870] (1+0/1) Accurately ripped
06 [6f6a9523|597bb412] (1+0/1) Accurately ripped
07 [b55f2195|7fd846f9] (1+0/1) Accurately ripped
08 [cbc14676|8df0948a] (1+0/1) Accurately ripped
09 [ff81c43e|2d34325e] (1+0/1) Accurately ripped
10 [f1e03ad3|efed52e3] (1+0/1) Accurately ripped
11 [10e8e8ac|6b003845] (1+0/1) Accurately ripped

Track Peak [ CRC32 ] [W/O NULL] [ LOG ]
– 72,1 [3F201345] [EF8FDEB4] CRC32
01 68,3 [F2E9504F] [CBF69601]
02 69,3 [C1BFF6FF] [C3FFF902]
03 71,1 [27E2BA16] [5BB11A27]
04 67,9 [20CE4B41] [BAAC9EC0]
05 71,2 [C7C53972] [09D47E30]
06 66,0 [29AB25D5] [BDC3979F]
07 70,6 [88BA4EEE] [F90635B1]
08 61,4 [41898414] [CFAB625D]
09 67,1 [ACEBC482] [C1516B60]
10 72,1 [8F65C612] [6431C61A]
11 68,7 [C29AA742] [CF6DF1E8]


Anthrax: Collection (1983-2016) [18CDs, Non Rematered]

Tracklist CD6 - 1993 - Sound Of White Noise (Germany Elektra 7559-61430-2):

01. Potters Field (5:01)
02. Only (4:56)
03. Room For One More (4:56)
04. Packaged Rebellion (6:17)
05. Hy Pro Glo (4:31)
06. Invisible (6:10)
07. 1000 Points Of Hate (5:00)
08. Black Lodge (5:26)
09. C11 H17 N2 O2 S Na (4:25)
10. Burst (3:42)
11. This Is Not An Exit (6:49)

Exact Audio Copy V0.99 prebeta 5 from 4. May 2009

EAC extraction logfile from 11. June 2012, 2:54

Anthrax / Sound Of White Noise (Germany Elektra 7559-61430-2)

Used drive : PIONEER DVD-RW DVR-215 Adapter: 5 ID: 0

Read mode : Secure
Utilize accurate stream : Yes
Defeat audio cache : Yes
Make use of C2 pointers : No

Read offset correction : 48
Overread into Lead-In and Lead-Out : No
Fill up missing offset samples with silence : Yes
Delete leading and trailing silent blocks : No
Null samples used in CRC calculations : Yes
Used interface : Native Win32 interface for Win NT & 2000

Used output format : User Defined Encoder
Selected bitrate : 1024 kBit/s
Quality : High
Add ID3 tag : No
Command line compressor : C:\Program Files (x86)\Exact Audio Copy\Flac\flac.exe
Additional command line options : -8 -V %s


TOC of the extracted CD

Track | Start | Length | Start sector | End sector
––––––––––––––––––––––––––––-
1 | 0:00.00 | 5:00.50 | 0 | 22549
2 | 5:00.50 | 4:56.27 | 22550 | 44776
3 | 9:57.02 | 4:56.00 | 44777 | 66976
4 | 14:53.02 | 6:16.53 | 66977 | 95229
5 | 21:09.55 | 4:31.12 | 95230 | 115566
6 | 25:40.67 | 6:09.73 | 115567 | 143314
7 | 31:50.65 | 5:00.22 | 143315 | 165836
8 | 36:51.12 | 5:25.70 | 165837 | 190281
9 | 42:17.07 | 4:25.35 | 190282 | 210191
10 | 46:42.42 | 3:41.53 | 210192 | 226819
11 | 50:24.20 | 6:49.02 | 226820 | 257496


Range status and errors

Selected range

Filename D:\bki71\Anthrax\Anthrax - Sound Of White Noise (Germany Elektra 7559-61430-2).wav

Peak level 96.3 %
Range quality 100.0 %
Test CRC CA0481F4
Copy CRC CA0481F4
Copy OK

No errors occurred


AccurateRip summary

Track 1 accurately ripped (confidence 78) [8F72D0DC]
Track 2 accurately ripped (confidence 78) [B8C491E2]
Track 3 accurately ripped (confidence 77) [5A0BBC87]
Track 4 accurately ripped (confidence 77) [B6398DE4]
Track 5 accurately ripped (confidence 78) [16CDA978]
Track 6 accurately ripped (confidence 77) [5B44AEC9]
Track 7 accurately ripped (confidence 77) [366BAC8D]
Track 8 accurately ripped (confidence 77) [30FCE416]
Track 9 accurately ripped (confidence 78) [E646F2F8]
Track 10 accurately ripped (confidence 77) [A4B3D305]
Track 11 accurately ripped (confidence 73) [782571A1]

All tracks accurately ripped

End of status report


[CUETools log; Date: 20.04.2018 19:47:38; Version: 2.1.5]
[CTDB TOCID: ob4MtjbJNri20ACdeqSQybgRArU-] found.
Track | CTDB Status
1 | (237/239) Accurately ripped
2 | (239/239) Accurately ripped
3 | (237/239) Accurately ripped
4 | (238/239) Accurately ripped
5 | (237/239) Accurately ripped
6 | (236/239) Accurately ripped
7 | (236/239) Accurately ripped
8 | (235/239) Accurately ripped
9 | (236/239) Accurately ripped
10 | (236/239) Accurately ripped
11 | (225/239) Accurately ripped
[AccurateRip ID: 00177be4-00cba5bb-8c0d690b] found.
Track [ CRC | V2 ] Status
01 [8f72d0dc|ccd5270f] (079+100/181) Accurately ripped
02 [b8c491e2|3b8fc23f] (079+100/181) Accurately ripped
03 [5a0bbc87|a7becd36] (078+099/179) Accurately ripped
04 [b6398de4|80202d24] (078+100/180) Accurately ripped
05 [16cda978|f8e76950] (079+100/181) Accurately ripped
06 [5b44aec9|c2828f3a] (078+098/180) Accurately ripped
07 [366bac8d|a8253748] (078+100/180) Accurately ripped
08 [30fce416|6ab39875] (078+100/180) Accurately ripped
09 [e646f2f8|fb0ec3b4] (079+099/180) Accurately ripped
10 [a4b3d305|a5c25b71] (078+098/178) Accurately ripped
11 [782571a1|c9cd649b] (074+096/170) Accurately ripped
Offsetted by -97:
01 [e4339159] (002/181) Accurately ripped
02 [19eaf346] (002/181) Accurately ripped
03 [bcd842e9] (002/179) Accurately ripped
04 [da8b689a] (002/180) Accurately ripped
05 [2eccb909] (002/181) Accurately ripped
06 [09111f65] (002/180) Accurately ripped
07 [e5f7efc6] (002/180) Accurately ripped
08 [67cef31e] (002/180) Accurately ripped
09 [94fc88cb] (002/180) Accurately ripped
10 [0dc7fa90] (002/178) Accurately ripped
11 [251eff47] (000/170) No match (V2 was not tested)

Track Peak [ CRC32 ] [W/O NULL] [ LOG ]
– 96,3 [CA0481F4] [5C1B3AB7] CRC32
01 95,6 [06C57DE1] [1B5A153C]
02 95,3 [F991DB40] [324E078B]
03 96,3 [1FC8C726] [9C030D73]
04 95,0 [1439B0C3] [F89FA84C]
05 94,6 [5CEECE11] [D65E2AFD]
06 95,8 [CA517CF0] [7C66468F]
07 95,9 [F2C520B4] [913DD73F]
08 95,0 [DA086DB2] [50CFF0FA]
09 95,7 [3DCAD67A] [E42D8C14]
10 95,4 [16FB4A54] [63AEC385]
11 95,3 [4A21C02C] [F5E98888]


Anthrax: Collection (1983-2016) [18CDs, Non Rematered]

Tracklist CD7 - 1994 - Live - The Island Years (Canada Island 314 518-920-2):

01. (Efilnikufesin) N.F.L. (6:23)
02. A.I.R. (3:18)
03. Parasite (4:23)
04. Keep It In The Family (7:43)
05. Caught In A Mosh (5:40)
06. Indians (6:52)
07. Antisocial (6:37)
08. Bring The Noise (7:41)
09. I Am The Law (6:07)
10. Metal Trashing Mad (2:49)
11. In My World (6:38)
12. Now It's Dark (5:50)

Exact Audio Copy V0.99 prebeta 5 from 4. May 2009

EAC extraction logfile from 15. May 2013, 15:08

Anthrax / Live - The Island Years (Canada Island 314 518-920-2)

Used drive : PIONEER DVD-RW DVR-215 Adapter: 5 ID: 0

Read mode : Secure
Utilize accurate stream : Yes
Defeat audio cache : Yes
Make use of C2 pointers : No

Read offset correction : 48
Overread into Lead-In and Lead-Out : No
Fill up missing offset samples with silence : Yes
Delete leading and trailing silent blocks : No
Null samples used in CRC calculations : Yes
Used interface : Native Win32 interface for Win NT & 2000

Used output format : User Defined Encoder
Selected bitrate : 1024 kBit/s
Quality : High
Add ID3 tag : No
Command line compressor : C:\Program Files (x86)\Exact Audio Copy\Flac\flac.exe
Additional command line options : -8 -V %s


TOC of the extracted CD

Track | Start | Length | Start sector | End sector
––––––––––––––––––––––––––––-
1 | 0:00.00 | 6:22.62 | 0 | 28711
2 | 6:22.62 | 3:17.63 | 28712 | 43549
3 | 9:40.50 | 4:22.67 | 43550 | 63266
4 | 14:03.42 | 7:43.13 | 63267 | 98004
5 | 21:46.55 | 5:39.50 | 98005 | 123479
6 | 27:26.30 | 6:52.12 | 123480 | 154391
7 | 34:18.42 | 6:37.05 | 154392 | 184171
8 | 40:55.47 | 7:40.63 | 184172 | 218734
9 | 48:36.35 | 6:06.50 | 218735 | 246234
10 | 54:43.10 | 2:48.52 | 246235 | 258886
11 | 57:31.62 | 6:37.58 | 258887 | 288719
12 | 64:09.45 | 5:49.65 | 288720 | 314959


Range status and errors

Selected range

Filename D:\bki71\Anthrax\Anthrax - Live - The Island Years (Canada Island 314 518-920-2).wav

Peak level 100.0 %
Range quality 99.9 %
Test CRC 31BFC4D3
Copy CRC 31BFC4D3
Copy OK

No errors occurred


AccurateRip summary

Track 1 accurately ripped (confidence 2) [373F3B72]
Track 2 accurately ripped (confidence 3) [B854B81D]
Track 3 accurately ripped (confidence 3) [2795FB05]
Track 4 accurately ripped (confidence 3) [EC4F89B8]
Track 5 accurately ripped (confidence 3) [73764203]
Track 6 accurately ripped (confidence 3) [F6041D8C]
Track 7 accurately ripped (confidence 3) [0CF5280F]
Track 8 accurately ripped (confidence 3) [1B6016A4]
Track 9 accurately ripped (confidence 3) [02E8FE7E]
Track 10 accurately ripped (confidence 3) [CA39C7B7]
Track 11 accurately ripped (confidence 3) [13CE59CA]
Track 12 not present in database

11 track(s) accurately ripped
1 track(s) not present in the AccurateRip database

Some tracks could not be verified as accurate

End of status report


[CUETools log; Date: 20.04.2018 19:48:14; Version: 2.1.5]
[CTDB TOCID: FCidV2cvgo9QOj8KOH_IAzVe8SE-] found.
Track | CTDB Status
1 | (2/2) Accurately ripped
2 | (2/2) Accurately ripped
3 | (2/2) Accurately ripped
4 | (2/2) Accurately ripped
5 | (2/2) Accurately ripped
6 | (2/2) Accurately ripped
7 | (2/2) Accurately ripped
8 | (2/2) Accurately ripped
9 | (2/2) Accurately ripped
10 | (2/2) Accurately ripped
11 | (2/2) Accurately ripped
12 | (2/2) Accurately ripped
[AccurateRip ID: 001edecb-0122e4ca-b010670c] found.
Track [ CRC | V2 ] Status
01 [373f3b72|5d440a75] (3+0/3) Accurately ripped
02 [b854b81d|bbac8c85] (4+0/4) Accurately ripped
03 [2795fb05|83fb612e] (4+0/4) Accurately ripped
04 [ec4f89b8|3e4baba9] (4+0/4) Accurately ripped
05 [73764203|ad91ac41] (4+0/4) Accurately ripped
06 [f6041d8c|4b9ff275] (4+0/4) Accurately ripped
07 [0cf5280f|0b9a36e0] (4+0/4) Accurately ripped
08 [1b6016a4|7095f7bb] (4+0/4) Accurately ripped
09 [02e8fe7e|d21fb3f6] (4+0/4) Accurately ripped
10 [ca39c7b7|41b3a06c] (4+0/4) Accurately ripped
11 [13ce59ca|d9339f47] (4+0/4) Accurately ripped
12 [9173b0a1|315fd2a2] (2+0/2) Accurately ripped

Track Peak [ CRC32 ] [W/O NULL] [ LOG ]
– 99,9 [31BFC4D3] [F7D798DD] CRC32
01 99,9 [38B11B70] [F2698DE1]
02 99,9 [5A4C4C07] [A63C1B25]
03 99,9 [FF30FCE7] [6D0FADD6]
04 99,9 [EE839019] [7206291E]
05 99,9 [AF185140] [AA5EFFF2]
06 99,9 [9ACA6BE4] [FFDD7CC3]
07 99,9 [CC4CBD1E] [2C548E51]
08 99,9 [D4515594] [8AB101E6]
09 99,9 [44EA182B] [ACB8DD46]
10 99,9 [E4450485] [73914F06]
11 99,9 [CAF39E0E] [8D9F9155]
12 99,9 [F9DD85DD] [0538426E]


Anthrax: Collection (1983-2016) [18CDs, Non Rematered]

Tracklist CD8 - 1995 - Stomp 442 (Germany Elektra 7559-61856-2):

01. Random Acts Of Senseless Violence (4:04)
02. Fueled (4:02)
03. King Size (4:00)
04. Riding Shotgun (4:27)
05. Perpetual Motion (4:21)
06. In A Zone (5:08)
07. Nothing (4:34)
08. American Pompeii (5:31)
09. Drop The Ball (4:59)
10. Tester (4:22)
11. Bare (5:30)

Exact Audio Copy V0.99 prebeta 5 from 4. May 2009

EAC extraction logfile from 15. May 2013, 12:47

Anthrax / Stomp 442 (Germany Elektra 7559-61856-2)

Used drive : PIONEER DVD-RW DVR-215 Adapter: 5 ID: 0

Read mode : Secure
Utilize accurate stream : Yes
Defeat audio cache : Yes
Make use of C2 pointers : No

Read offset correction : 48
Overread into Lead-In and Lead-Out : No
Fill up missing offset samples with silence : Yes
Delete leading and trailing silent blocks : No
Null samples used in CRC calculations : Yes
Used interface : Native Win32 interface for Win NT & 2000

Used output format : User Defined Encoder
Selected bitrate : 1024 kBit/s
Quality : High
Add ID3 tag : No
Command line compressor : C:\Program Files (x86)\Exact Audio Copy\Flac\flac.exe
Additional command line options : -8 -V %s


TOC of the extracted CD

Track | Start | Length | Start sector | End sector
––––––––––––––––––––––––––––-
1 | 0:00.00 | 4:03.45 | 0 | 18269
2 | 4:03.45 | 4:02.05 | 18270 | 36424
3 | 8:05.50 | 4:00.00 | 36425 | 54424
4 | 12:05.50 | 4:26.62 | 54425 | 74436
5 | 16:32.37 | 4:20.38 | 74437 | 93974
6 | 20:53.00 | 5:07.55 | 93975 | 117054
7 | 26:00.55 | 4:33.67 | 117055 | 137596
8 | 30:34.47 | 5:30.53 | 137597 | 162399
9 | 36:05.25 | 4:59.27 | 162400 | 184851
10 | 41:04.52 | 4:21.53 | 184852 | 204479
11 | 45:26.30 | 5:29.57 | 204480 | 229211


Range status and errors

Selected range

Filename D:\bki71\Anthrax\Anthrax - Stomp 442 (Germany Elektra 7559-61856-2).wav

Peak level 96.0 %
Range quality 100.0 %
Test CRC 50ABBDE3
Copy CRC 50ABBDE3
Copy OK

No errors occurred


AccurateRip summary

Track 1 accurately ripped (confidence 49) [C9A86E1D]
Track 2 accurately ripped (confidence 51) [A8E9144B]
Track 3 accurately ripped (confidence 50) [07F88FAA]
Track 4 accurately ripped (confidence 50) [59367A3B]
Track 5 accurately ripped (confidence 49) [B73CC566]
Track 6 accurately ripped (confidence 50) [981A4493]
Track 7 accurately ripped (confidence 50) [4852EC2F]
Track 8 accurately ripped (confidence 49) [A6C6B40D]
Track 9 accurately ripped (confidence 50) [A0478B84]
Track 10 accurately ripped (confidence 49) [2818E6BF]
Track 11 accurately ripped (confidence 49) [0A9FDEDB]

All tracks accurately ripped

End of status report


[CUETools log; Date: 20.04.2018 19:48:36; Version: 2.1.5]
[CTDB TOCID: 8fLo69QMuYFWm81lCFHtt9J1rPs-] found.
Track | CTDB Status
1 | (101/101) Accurately ripped
2 | ( 99/101) Accurately ripped
3 | (101/101) Accurately ripped
4 | (101/101) Accurately ripped
5 | (101/101) Accurately ripped
6 | (101/101) Accurately ripped
7 | ( 99/101) Accurately ripped
8 | (101/101) Accurately ripped
9 | (100/101) Accurately ripped
10 | (101/101) Accurately ripped
11 | (101/101) Accurately ripped
[AccurateRip ID: 00140968-00afedb8-a80bf00b] found.
Track [ CRC | V2 ] Status
01 [c9a86e1d|c4578d95] (50+39/89) Accurately ripped
02 [a8e9144b|3748c35a] (52+37/89) Accurately ripped
03 [07f88faa|ea306606] (51+38/89) Accurately ripped
04 [59367a3b|5ecb68fb] (51+40/91) Accurately ripped
05 [b73cc566|93c59200] (50+40/90) Accurately ripped
06 [981a4493|d715a351] (51+39/90) Accurately ripped
07 [4852ec2f|8d2a043f] (51+38/89) Accurately ripped
08 [a6c6b40d|81de3438] (50+39/89) Accurately ripped
09 [a0478b84|5de54353] (51+39/90) Accurately ripped
10 [2818e6bf|6d29aabd] (50+39/89) Accurately ripped
11 [0a9fdedb|740fc593] (50+39/89) Accurately ripped

Track Peak [ CRC32 ] [W/O NULL] [ LOG ]
– 96,0 [50ABBDE3] [F525477A] CRC32
01 96,0 [5756863C] [F32C0E1D]
02 96,0 [92C688A1] [CF5721A7]
03 96,0 [74111F16] [25D1A259]
04 96,0 [1C1A1642] [05819687]
05 96,0 [DD4A4B52] [7470B692]
06 96,0 [BBDC8E9E] [F6DDB9B8]
07 96,0 [AA5898B6] [18EB1EF4]
08 96,0 [AC426F8D] [14649318]
09 96,0 [C067E384] [928EC25B]
10 96,0 [641A4FB3] [F26049B8]
11 96,0 [FD67C613] [716403EF]


Anthrax: Collection (1983-2016) [18CDs, Non Rematered]

Tracklist CD9 - 1998 - Volume 8 - The Threat Is Real (Canada Ignition IGN 4034):

01. Crush (4:21)
02. Catharsis (4:54)
03. Inside Out (5:31)
04. P & V (3:13)
05. 604 (0:35)
06. Toast To The Extras (4:25)
07. Born Again Idiot (4:17)
08. Killing Box (3:38)
09. Harms Way (5:14)
10. Hog Tied (4:36)
11. Big Fat (6:01)
12. Cupajoe (0:46)
13. Alpha Male (3:05)
14. Stealing From A Thief + Pieces (13:02)

Exact Audio Copy V0.99 prebeta 5 from 4. May 2009

EAC extraction logfile from 11. August 2013, 2:05

Anthrax / Volume 8 - The Threat Is Real (Canada Ignition IGN 4034)

Used drive : PIONEER DVD-RW DVR-215 Adapter: 5 ID: 0

Read mode : Secure
Utilize accurate stream : Yes
Defeat audio cache : Yes
Make use of C2 pointers : No

Read offset correction : 48
Overread into Lead-In and Lead-Out : No
Fill up missing offset samples with silence : Yes
Delete leading and trailing silent blocks : No
Null samples used in CRC calculations : Yes
Used interface : Native Win32 interface for Win NT & 2000

Used output format : User Defined Encoder
Selected bitrate : 1024 kBit/s
Quality : High
Add ID3 tag : No
Command line compressor : C:\Program Files (x86)\Exact Audio Copy\Flac\flac.exe
Additional command line options : -8 -V %s


TOC of the extracted CD

Track | Start | Length | Start sector | End sector
––––––––––––––––––––––––––––-
1 | 0:00.32 | 4:21.13 | 32 | 19619
2 | 4:21.45 | 4:53.55 | 19620 | 41649
3 | 9:15.25 | 5:31.25 | 41650 | 66499
4 | 14:46.50 | 3:12.60 | 66500 | 80959
5 | 17:59.35 | 0:35.05 | 80960 | 83589
6 | 18:34.40 | 4:24.50 | 83590 | 103439
7 | 22:59.15 | 4:17.10 | 103440 | 122724
8 | 27:16.25 | 3:37.57 | 122725 | 139056
9 | 30:54.07 | 5:13.48 | 139057 | 162579
10 | 36:07.55 | 4:36.32 | 162580 | 183311
11 | 40:44.12 | 6:01.03 | 183312 | 210389
12 | 46:45.15 | 0:46.27 | 210390 | 213866
13 | 47:31.42 | 3:05.25 | 213867 | 227766
14 | 50:36.67 | 13:02.13 | 227767 | 286429


Range status and errors

Selected range

Filename D:\bki71\Anthrax\Anthrax - Volume 8 - The Threat Is Real (Canada Ignition IGN 4034).wav

Peak level 100.0 %
Range quality 99.9 %
Test CRC 7A300586
Copy CRC 7A300586
Copy OK

No errors occurred


AccurateRip summary

Track 1 accurately ripped (confidence 2) [3F0D185C]
Track 2 accurately ripped (confidence 2) [EFC9295C]
Track 3 accurately ripped (confidence 2) [153826A0]
Track 4 accurately ripped (confidence 2) [6E3FA95D]
Track 5 accurately ripped (confidence 2) [5FC8740B]
Track 6 accurately ripped (confidence 2) [BB61ECAD]
Track 7 accurately ripped (confidence 2) [50B415D2]
Track 8 accurately ripped (confidence 2) [8BFE2DBB]
Track 9 accurately ripped (confidence 2) [4D35B35C]
Track 10 accurately ripped (confidence 2) [DD260F62]
Track 11 accurately ripped (confidence 2) [489C5452]
Track 12 accurately ripped (confidence 2) [0DB6EC0E]
Track 13 accurately ripped (confidence 2) [AC2D35F1]
Track 14 accurately ripped (confidence 2) [8EB125E7]

All tracks accurately ripped

End of status report


[CUETools log; Date: 20.04.2018 19:49:02; Version: 2.1.5]
Pregap length 00:00:32.
[CTDB TOCID: ZxsJt1Pg.rcqra9unid79Neg1T4-] found.
Track | CTDB Status
1 | (41/41) Accurately ripped
2 | (41/41) Accurately ripped
3 | (41/41) Accurately ripped
4 | (41/41) Accurately ripped
5 | (41/41) Accurately ripped
6 | (41/41) Accurately ripped
7 | (41/41) Accurately ripped
8 | (41/41) Accurately ripped
9 | (41/41) Accurately ripped
10 | (41/41) Accurately ripped
11 | (40/41) Accurately ripped
12 | (41/41) Accurately ripped
13 | (41/41) Accurately ripped
14 | (40/41) Accurately ripped
[AccurateRip ID: 001da1a0-013c4236-cf0eeb0e] found.
Track [ CRC | V2 ] Status
01 [3f0d185c|d0d24310] (03+00/64) Accurately ripped
02 [efc9295c|65a241c6] (03+00/64) Accurately ripped
03 [153826a0|042b0ad2] (03+00/64) Accurately ripped
04 [6e3fa95d|201f285e] (03+00/64) Accurately ripped
05 [5fc8740b|6e9c1d8d] (03+00/63) Accurately ripped
06 [bb61ecad|ea7bf487] (03+00/64) Accurately ripped
07 [50b415d2|d3f5cbe1] (03+00/61) Accurately ripped
08 [8bfe2dbb|8bc71e73] (03+00/62) Accurately ripped
09 [4d35b35c|0feeb4b8] (03+00/64) Accurately ripped
10 [dd260f62|da36720c] (03+00/64) Accurately ripped
11 [489c5452|89bb4e73] (03+00/62) Accurately ripped
12 [0db6ec0e|836ba7d9] (03+00/63) Accurately ripped
13 [ac2d35f1|0ca0cd68] (03+00/63) Accurately ripped
14 [8eb125e7|071bb6a6] (03+00/62) Accurately ripped
Offsetted by 900:
01 [d7e93f8e] (27/64) Accurately ripped
02 [952f1a57] (27/64) Accurately ripped
03 [4ece46bb] (26/64) Accurately ripped
04 [ae8fd6c0] (27/64) Accurately ripped
05 [120a9028] (26/63) Accurately ripped
06 [593d9392] (27/64) Accurately ripped
07 [f2f2b5a1] (26/61) Accurately ripped
08 [d3aafd1f] (26/62) Accurately ripped
09 [a63eb087] (27/64) Accurately ripped
10 [5bb5c0d5] (27/64) Accurately ripped
11 [bb5ebf74] (26/62) Accurately ripped
12 [716d79fc] (26/63) Accurately ripped
13 [49759b03] (27/63) Accurately ripped
14 [be8466b2] (27/62) Accurately ripped

Track Peak [ CRC32 ] [W/O NULL] [ LOG ]
– 99,9 [7A300586] [5FB32DDF] CRC32
01 99,9 [3CA49DDC] [B34A875E]
02 99,9 [F290E093] [5C8F5FE9]
03 99,9 [07AFA14A] [E0B2396B]
04 99,9 [E290D527] [53C73919]
05 99,9 [FF3500B3] [9DE5FF15]
06 99,9 [A8D4CB44] [336543FD]
07 99,9 [F6BF83DF] [F68FF4BF]
08 99,9 [2F047619] [1BD0848E]
09 99,9 [F0FA4661] [436658E9]
10 99,9 [AC548D95] [349D0634]
11 99,9 [85523C14] [A2E2B721]
12 99,9 [120F7869] [F07BB894]
13 99,9 [A923B8A8] [E721BAE4]
14 99,9 [26F5BF86] [4E484099]


Anthrax: Collection (1983-2016) [18CDs, Non Rematered]

Tracklist CD10 - 2003 - We've Come For You All (Germany Nuclear Blast 27361 66992):

01. Contact (1:16)
02. What Doesn't Die (4:09)
03. Superhero (4:03)
04. Refuse To Be Denied (3:20)
05. Safe Home (5:11)
06. Any Place But Here (5:49)
07. Nobody Knows Anything (2:57)
08. Strap It On (3:32)
09. Black Dahlia (2:38)
10. Cadillac Rock Box (3:41)
11. Taking The Music Back (3:11)
12. Crash (0:58)
13. Think About An End (5:09)
14. W.C.F.Y.A. (4:12)
15. Safe Home (Acoustic) (Bonus Track) (5:55)
16. We're A Happy Family (Bonus Track) (5:07)

Exact Audio Copy V0.99 prebeta 5 from 4. May 2009

EAC extraction logfile from 1. June 2012, 13:19

Anthrax / We've Come For You All (Germany Nuclear Blast 27361 66992)

Used drive : PLEXTOR DVDR PX-760A Adapter: 0 ID: 0

Read mode : Secure
Utilize accurate stream : Yes
Defeat audio cache : Yes
Make use of C2 pointers : No

Read offset correction : 30
Overread into Lead-In and Lead-Out : No
Fill up missing offset samples with silence : Yes
Delete leading and trailing silent blocks : No
Null samples used in CRC calculations : Yes
Used interface : Native Win32 interface for Win NT & 2000

Used output format : User Defined Encoder
Selected bitrate : 1024 kBit/s
Quality : High
Add ID3 tag : No
Command line compressor : C:\Program Files (x86)\Exact Audio Copy\Flac\flac.exe
Additional command line options : -8 -V %s


TOC of the extracted CD

Track | Start | Length | Start sector | End sector
––––––––––––––––––––––––––––-
1 | 0:00.00 | 1:15.70 | 0 | 5694
2 | 1:15.70 | 4:09.07 | 5695 | 24376
3 | 5:25.02 | 4:03.20 | 24377 | 42621
4 | 9:28.22 | 3:20.06 | 42622 | 57627
5 | 12:48.28 | 5:10.65 | 57628 | 80942
6 | 17:59.18 | 5:49.02 | 80943 | 107119
7 | 23:48.20 | 2:57.16 | 107120 | 120410
8 | 26:45.36 | 3:31.72 | 120411 | 136307
9 | 30:17.33 | 2:38.27 | 136308 | 148184
10 | 32:55.60 | 3:41.01 | 148185 | 164760
11 | 36:36.61 | 3:10.67 | 164761 | 179077
12 | 39:47.53 | 0:57.72 | 179078 | 183424
13 | 40:45.50 | 5:09.13 | 183425 | 206612
14 | 45:54.63 | 4:11.58 | 206613 | 225495
15 | 50:06.46 | 5:54.46 | 225496 | 252091
16 | 56:01.17 | 5:07.19 | 252092 | 275135


Range status and errors

Selected range

Filename D:\bki71\Anthrax\Anthrax - We've Come For You All (Germany Nuclear Blast 27361 66992).wav

Peak level 98.1 %
Range quality 100.0 %
Test CRC F48A71EC
Copy CRC F48A71EC
Copy OK

No errors occurred


AccurateRip summary

Track 1 accurately ripped (confidence 25) [7A79F205]
Track 2 accurately ripped (confidence 25) [C7332034]
Track 3 accurately ripped (confidence 25) [09749D90]
Track 4 accurately ripped (confidence 25) [5834414E]
Track 5 accurately ripped (confidence 26) [09AADCBF]
Track 6 accurately ripped (confidence 25) [27817F93]
Track 7 accurately ripped (confidence 25) [95FBD06C]
Track 8 accurately ripped (confidence 25) [1DC0B355]
Track 9 accurately ripped (confidence 25) [B2D505DE]
Track 10 accurately ripped (confidence 24) [3B98E3DD]
Track 11 accurately ripped (confidence 25) [F817F6DF]
Track 12 accurately ripped (confidence 25) [ACDBAEE5]
Track 13 accurately ripped (confidence 24) [79925DF7]
Track 14 accurately ripped (confidence 24) [89EADE68]
Track 15 accurately ripped (confidence 25) [7260038C]
Track 16 accurately ripped (confidence 25) [E60AF676]

All tracks accurately ripped

End of status report


[CUETools log; Date: 20.04.2018 19:49:26; Version: 2.1.5]
[CTDB TOCID: meceUQlYo0DEw8nXItn7FV0vhVw-] found.
Track | CTDB Status
1 | ( 59/138) Accurately ripped
2 | ( 58/138) Accurately ripped
3 | ( 58/138) Accurately ripped
4 | ( 58/138) Accurately ripped
5 | ( 57/138) Accurately ripped
6 | ( 57/138) Accurately ripped
7 | ( 58/138) Accurately ripped
8 | ( 57/138) Accurately ripped
9 | ( 58/138) Accurately ripped
10 | ( 58/138) Accurately ripped
11 | ( 58/138) Accurately ripped
12 | ( 58/138) Accurately ripped
13 | ( 58/138) Accurately ripped
14 | ( 57/138) Accurately ripped
15 | ( 57/138) Accurately ripped
16 | ( 58/138) Accurately ripped
[AccurateRip ID: 0021b862-0198a9f4-ea0e5410] found.
Track [ CRC | V2 ] Status
01 [7a79f205|af33cadb] (026+033/131) Accurately ripped
02 [c7332034|a41d7c4f] (026+033/131) Accurately ripped
03 [09749d90|1c3648a7] (026+033/130) Accurately ripped
04 [5834414e|bba208ef] (026+033/131) Accurately ripped
05 [09aadcbf|ff109bef] (027+033/132) Accurately ripped
06 [27817f93|8d2fcc6d] (026+033/131) Accurately ripped
07 [95fbd06c|6ac4dba7] (026+033/131) Accurately ripped
08 [1dc0b355|d55aa749] (026+033/131) Accurately ripped
09 [b2d505de|e9fad082] (026+033/131) Accurately ripped
10 [3b98e3dd|b5993ec6] (025+033/130) Accurately ripped
11 [f817f6df|649e56f4] (026+032/129) Accurately ripped
12 [acdbaee5|492f9f7d] (026+033/130) Accurately ripped
13 [79925df7|568cc09e] (025+033/123) Accurately ripped
14 [89eade68|4aeb3230] (025+032/122) Accurately ripped
15 [7260038c|349ed6b4] (026+032/127) Accurately ripped
16 [e60af676|f7b00393] (026+031/125) Accurately ripped
Offsetted by -676:
01 [8e52bd15] (000/131) No match (V2 was not tested)
02 [7d7e5d08] (000/131) No match (V2 was not tested)
03 [f4075f92] (000/130) No match (V2 was not tested)
04 [07441874] (000/131) No match (V2 was not tested)
05 [f162d027] (000/132) No match (V2 was not tested)
06 [527c28d1] (000/131) No match (V2 was not tested)
07 [10ad8ed1] (000/131) No match (V2 was not tested)
08 [8a1ed460] (000/131) No match (V2 was not tested)
09 [bb2cb4a7] (000/131) No match (V2 was not tested)
10 [5584c4bb] (000/130) No match (V2 was not tested)
11 [8e3437bc] (000/129) No match (V2 was not tested)
12 [64e7f448] (000/130) No match (V2 was not tested)
13 [6d480dec] (000/123) No match (V2 was not tested)
14 [cb5b039d] (000/122) No match (V2 was not tested)
15 [0a10dd86] (000/127) No match (V2 was not tested)
16 [e6084a99] (000/125) No match (V2 was not tested)

Track Peak [ CRC32 ] [W/O NULL] [ LOG ]
– 98,1 [F48A71EC] [96B29216] CRC32
01 97,9 [E8583F3F] [5B300277]
02 97,9 [5F34316A] [29935483]
03 97,9 [8B6DC31B] [D17D194D]
04 97,9 [98E7F2AC] [0EC5F67F]
05 97,9 [7913D6AA] [E35FEC58]
06 97,9 [6BB76FDE] [C5F76D17]
07 97,9 [6EE67810] [D61597D5]
08 97,9 [BAD937D7] [1E9F656B]
09 97,9 [2ED64508] [CAC315C8]
10 97,9 [6D9807C0] [BEF872B4]
11 97,9 [203F9456] [28944272]
12 49,9 [C31CBA9B] [25BEB832]
13 97,9 [E36EBD9E] [ADFF19A0]
14 97,9 [61280B5E] [3A8F8CA7]
15 89,1 [C9C2D403] [67C77CED]
16 98,1 [A98E31C9] [140A8AFB]


Anthrax: Collection (1983-2016) [18CDs, Non Rematered]

Tracklist CD11 - 2004 - Music Of Mass Destruction (USA Sanctuary 06076-84688-2):

01. What Doesn't Die (5:27)
02. Got The Time (3:25)
03. Caught In A Mosh (5:28)
04. Safe Home (5:37)
05. Room For One More (5:53)
06. Antisocial (4:51)
07. Nobody Knows Anything (4:04)
08. Fueled (4:26)
09. Inside Out (5:47)
10. Refuse To Be Denied (5:11)
11. I Am The Law (6:10)
12. Only (5:28)

Exact Audio Copy V0.99 prebeta 5 from 4. May 2009

EAC extraction logfile from 8. June 2012, 14:49

Anthrax / Music Of Mass Destruction (USA Sanctuary 06076-84688-2)

Used drive : PIONEER DVD-RW DVR-215 Adapter: 5 ID: 0

Read mode : Secure
Utilize accurate stream : Yes
Defeat audio cache : Yes
Make use of C2 pointers : No

Read offset correction : 48
Overread into Lead-In and Lead-Out : No
Fill up missing offset samples with silence : Yes
Delete leading and trailing silent blocks : No
Null samples used in CRC calculations : Yes
Used interface : Native Win32 interface for Win NT & 2000

Used output format : User Defined Encoder
Selected bitrate : 1024 kBit/s
Quality : High
Add ID3 tag : No
Command line compressor : C:\Program Files (x86)\Exact Audio Copy\Flac\flac.exe
Additional command line options : -8 -V %s


TOC of the extracted CD

Track | Start | Length | Start sector | End sector
––––––––––––––––––––––––––––-
1 | 0:00.00 | 5:26.56 | 0 | 24505
2 | 5:26.56 | 3:25.27 | 24506 | 39907
3 | 8:52.08 | 5:28.29 | 39908 | 64536
4 | 14:20.37 | 5:36.43 | 64537 | 89779
5 | 19:57.05 | 5:52.73 | 89780 | 116252
6 | 25:50.03 | 4:51.29 | 116253 | 138106
7 | 30:41.32 | 4:03.69 | 138107 | 156400
8 | 34:45.26 | 4:26.16 | 156401 | 176366
9 | 39:11.42 | 5:47.14 | 176367 | 202405
10 | 44:58.56 | 5:10.66 | 202406 | 225721
11 | 50:09.47 | 6:09.59 | 225722 | 253455
12 | 56:19.31 | 5:28.06 | 253456 | 278061


Range status and errors

Selected range

Filename D:\bki71\Anthrax\Anthrax - Music Of Mass Destruction (USA Sanctuary 06076-84688-2).wav

Peak level 96.6 %
Range quality 99.9 %
Test CRC AA971573
Copy CRC AA971573
Copy OK

No errors occurred


AccurateRip summary

Track 1 accurately ripped (confidence 5) [9C52F669]
Track 2 accurately ripped (confidence 5) [3DDF552F]
Track 3 accurately ripped (confidence 5) [16455CE0]
Track 4 accurately ripped (confidence 5) [98151995]
Track 5 accurately ripped (confidence 5) [593DD94B]
Track 6 accurately ripped (confidence 5) [79DD48A9]
Track 7 accurately ripped (confidence 5) [BA49D363]
Track 8 accurately ripped (confidence 5) [FFE9EA70]
Track 9 accurately ripped (confidence 5) [58C4B750]
Track 10 accurately ripped (confidence 5) [0325AC09]
Track 11 accurately ripped (confidence 5) [D2934C91]
Track 12 accurately ripped (confidence 5) [654AD265]

All tracks accurately ripped

End of status report


[CUETools log; Date: 20.04.2018 19:50:32; Version: 2.1.5]
[CTDB TOCID: SeBbJIJ7jGsTjYa.o3Qi9g1S0Jc-] found.
Track | CTDB Status
1 | (50/51) Accurately ripped
2 | (51/51) Accurately ripped
3 | (50/51) Accurately ripped
4 | (50/51) Accurately ripped
5 | (49/51) Accurately ripped
6 | (49/51) Accurately ripped
7 | (50/51) Accurately ripped
8 | (50/51) Accurately ripped
9 | (50/51) Accurately ripped
10 | (50/51) Accurately ripped
11 | (50/51) Accurately ripped
12 | (49/51) Accurately ripped
[AccurateRip ID: 001af081-00fc6893-970e7b0c] found.
Track [ CRC | V2 ] Status
01 [9c52f669|e4bc491b] (09+11/40) Accurately ripped
02 [3ddf552f|c7135949] (09+11/39) Accurately ripped
03 [16455ce0|959b2e49] (09+11/40) Accurately ripped
04 [98151995|cc7848cd] (09+11/40) Accurately ripped
05 [593dd94b|4f7f2ebc] (09+11/40) Accurately ripped
06 [79dd48a9|537b97ef] (09+11/40) Accurately ripped
07 [ba49d363|67b72f34] (09+11/40) Accurately ripped
08 [ffe9ea70|da2d7478] (09+11/39) Accurately ripped
09 [58c4b750|c6d52d71] (09+11/40) Accurately ripped
10 [0325ac09|c58b9621] (09+11/40) Accurately ripped
11 [d2934c91|8ccb6544] (09+11/40) Accurately ripped
12 [654ad265|fb10cec4] (09+11/40) Accurately ripped
Offsetted by -664:
01 [5162aa67] (09/40) Accurately ripped
02 [ae5240b0] (09/39) Accurately ripped
03 [95daa64f] (09/40) Accurately ripped
04 [10e45ddc] (09/40) Accurately ripped
05 [d3576c39] (09/40) Accurately ripped
06 [244f7f19] (09/40) Accurately ripped
07 [9ab59c14] (09/40) Accurately ripped
08 [2d11a16d] (09/39) Accurately ripped
09 [0136a413] (09/40) Accurately ripped
10 [2500dab9] (09/40) Accurately ripped
11 [6566b603] (09/40) Accurately ripped
12 [a65e6d43] (09/40) Accurately ripped
Offsetted by 510:
01 [f22c317c] (00/40) No match (V2 was not tested)
02 [b2bc9456] (00/39) No match (V2 was not tested)
03 [c6fd1e8b] (00/40) No match (V2 was not tested)
04 [0b016080] (00/40) No match (V2 was not tested)
05 [f2acdf19] (00/40) No match (V2 was not tested)
06 [87fe0e5f] (00/40) No match (V2 was not tested)
07 [40d36838] (00/40) No match (V2 was not tested)
08 [03a4b900] (00/39) No match (V2 was not tested)
09 [9d362c82] (00/40) No match (V2 was not tested)
10 [c9607a88] (00/40) No match (V2 was not tested)
11 [1749957d] (00/40) No match (V2 was not tested)
12 [26515b72] (00/40) No match (V2 was not tested)

Track Peak [ CRC32 ] [W/O NULL] [ LOG ]
– 96,6 [AA971573] [937EF395] CRC32
01 96,6 [D80CF91E] [6F8A7229]
02 96,6 [0C706989] [BD862940]
03 96,6 [0FF16D40] [CAFFA7BC]
04 96,6 [F8A2C44F] [994BC574]
05 96,6 [2DE5B9A4] [991F86EE]
06 96,6 [C2A5000D] [001F87E2]
07 96,6 [6A6F31D7] [5CE96E30]
08 96,6 [FA8D27CA] [3662E172]
09 96,6 [C35A0E1F] [0F398988]
10 96,6 [512AEA42] [241211FC]
11 96,6 [FF4A91A7] [FD02589D]
12 96,6 [499F249B] [FBAB6862]


Anthrax: Collection (1983-2016) [18CDs, Non Rematered]

Tracklist CD12 - 2004 - The Greater Of Two Evils (USA Sanctuary 06076-84709-2):

01. Deathrider (3:04)
02. Metal Thrashing Mad (2:47)
03. Caught In A Mosh (5:27)
04. A.I.R. (6:21)
05. Among The Living (5:52)
06. Keep It In The Family (7:24)
07. Indians (6:39)
08. Madhouse (4:26)
09. Panic (3:34)
10. I Am The Law (6:03)
11. Belly Of The Beast (5:41)
12. N.F.L. (5:57)
13. Be All End All (6:28)
14. Gung-Ho + Lone Justice (8:49)

Exact Audio Copy V0.99 prebeta 5 from 4. May 2009

EAC extraction logfile from 27. June 2012, 16:45

Anthrax / The Greater Of Two Evils (USA Sanctuary 06076-84709-2)

Used drive : PIONEER DVD-RW DVR-215 Adapter: 5 ID: 0

Read mode : Secure
Utilize accurate stream : Yes
Defeat audio cache : Yes
Make use of C2 pointers : No

Read offset correction : 48
Overread into Lead-In and Lead-Out : No
Fill up missing offset samples with silence : Yes
Delete leading and trailing silent blocks : No
Null samples used in CRC calculations : Yes
Used interface : Native Win32 interface for Win NT & 2000

Used output format : User Defined Encoder
Selected bitrate : 1024 kBit/s
Quality : High
Add ID3 tag : No
Command line compressor : C:\Program Files (x86)\Exact Audio Copy\Flac\flac.exe
Additional command line options : -8 -V %s


TOC of the extracted CD

Track | Start | Length | Start sector | End sector
––––––––––––––––––––––––––––-
1 | 0:00.00 | 3:04.31 | 0 | 13830
2 | 3:04.31 | 2:47.23 | 13831 | 26378
3 | 5:51.54 | 5:26.53 | 26379 | 50881
4 | 11:18.32 | 6:20.71 | 50882 | 79452
5 | 17:39.28 | 5:52.02 | 79453 | 105854
6 | 23:31.30 | 7:23.67 | 105855 | 139146
7 | 30:55.22 | 6:38.49 | 139147 | 169045
8 | 37:33.71 | 4:25.73 | 169046 | 188993
9 | 41:59.69 | 3:34.36 | 188994 | 205079
10 | 45:34.30 | 6:03.14 | 205080 | 232318
11 | 51:37.44 | 5:41.28 | 232319 | 257921
12 | 57:18.72 | 5:57.10 | 257922 | 284706
13 | 63:16.07 | 6:28.12 | 284707 | 313818
14 | 69:44.19 | 8:48.40 | 313819 | 353458


Range status and errors

Selected range

Filename D:\bki71\Anthrax\Anthrax - The Greater Of Two Evils (USA Sanctuary 06076-84709-2).wav

Peak level 100.0 %
Range quality 100.0 %
Test CRC DB7408ED
Copy CRC DB7408ED
Copy OK

No errors occurred


AccurateRip summary

Track 1 accurately ripped (confidence 25) [DC1E0EF6]
Track 2 accurately ripped (confidence 24) [90F5273B]
Track 3 accurately ripped (confidence 25) [5011A72A]
Track 4 accurately ripped (confidence 24) [DD13A850]
Track 5 accurately ripped (confidence 24) [628C65DE]
Track 6 accurately ripped (confidence 24) [87C069D4]
Track 7 accurately ripped (confidence 25) [EF117596]
Track 8 accurately ripped (confidence 25) [17A7C9A7]
Track 9 accurately ripped (confidence 25) [5C78514F]
Track 10 accurately ripped (confidence 25) [AB14EEEA]
Track 11 accurately ripped (confidence 24) [6636E3AE]
Track 12 accurately ripped (confidence 25) [D549D3BD]
Track 13 accurately ripped (confidence 24) [472E11E6]
Track 14 accurately ripped (confidence 24) [D3DFA46C]

All tracks accurately ripped

End of status report


[CUETools log; Date: 20.04.2018 19:51:01; Version: 2.1.5]
[CTDB TOCID: k2yH74auG6_tPpEO_gICpUNGfNA-] found.
Track | CTDB Status
1 | (25/26) Accurately ripped
2 | (25/26) Accurately ripped
3 | (25/26) Accurately ripped
4 | (25/26) Accurately ripped
5 | (25/26) Accurately ripped
6 | (24/26) Accurately ripped
7 | (24/26) Accurately ripped
8 | (25/26) Accurately ripped
9 | (25/26) Accurately ripped
10 | (25/26) Accurately ripped
11 | (25/26) Accurately ripped
12 | (25/26) Accurately ripped
13 | (25/26) Accurately ripped
14 | (25/26) Accurately ripped
[AccurateRip ID: 0024f09d-0193de8d-c812680e] found.
Track [ CRC | V2 ] Status
01 [dc1e0ef6|50a7f32d] (28+11/44) Accurately ripped
02 [90f5273b|cdc0e693] (27+11/44) Accurately ripped
03 [5011a72a|424c1ea8] (28+11/45) Accurately ripped
04 [dd13a850|bcbfdb9b] (27+11/44) Accurately ripped
05 [628c65de|274d2cd8] (27+11/44) Accurately ripped
06 [87c069d4|a8260a23] (27+11/44) Accurately ripped
07 [ef117596|b14950dc] (28+11/45) Accurately ripped
08 [17a7c9a7|ff016c26] (28+11/45) Accurately ripped
09 [5c78514f|8382e138] (28+11/45) Accurately ripped
10 [ab14eeea|5902c5d1] (28+11/45) Accurately ripped
11 [6636e3ae|455b69aa] (27+11/44) Accurately ripped
12 [d549d3bd|8f19cb5b] (28+11/45) Accurately ripped
13 [472e11e6|3162564c] (27+11/44) Accurately ripped
14 [d3dfa46c|5a2badfa] (27+11/44) Accurately ripped
Offsetted by -646:
01 [07d1bd20] (03/44) Accurately ripped
02 [cd455bc8] (03/44) Accurately ripped
03 [643beca6] (03/45) Accurately ripped
04 [c2a11871] (03/44) Accurately ripped
05 [16de9067] (03/44) Accurately ripped
06 [779041e1] (03/44) Accurately ripped
07 [dadf2616] (03/45) Accurately ripped
08 [678634a6] (03/45) Accurately ripped
09 [0d16a75c] (03/45) Accurately ripped
10 [a551eb7a] (03/45) Accurately ripped
11 [91338d93] (03/44) Accurately ripped
12 [8e0428e7] (03/45) Accurately ripped
13 [4d50ed91] (03/44) Accurately ripped
14 [330c91aa] (03/44) Accurately ripped
Offsetted by -664:
01 [c740f31e] (00/44) No match (V2 was not tested)
02 [66769cca] (00/44) No match (V2 was not tested)
03 [102c24cd] (00/45) No match (V2 was not tested)
04 [e34eeba6] (00/44) No match (V2 was not tested)
05 [aa19de93] (00/44) No match (V2 was not tested)
06 [0886dff7] (00/44) No match (V2 was not tested)
07 [69c39796] (00/45) No match (V2 was not tested)
08 [b581ef71] (00/45) No match (V2 was not tested)
09 [8ba8c565] (00/45) No match (V2 was not tested)
10 [9916c884] (00/45) No match (V2 was not tested)
11 [c3778a27] (00/44) No match (V2 was not tested)
12 [411119c4] (00/45) No match (V2 was not tested)
13 [b5acfdd8] (00/44) No match (V2 was not tested)
14 [d8f86be4] (00/44) No match (V2 was not tested)

Track Peak [ CRC32 ] [W/O NULL] [ LOG ]
– 100,0 [DB7408ED] [53578CFA] CRC32
01 100,0 [7C5C9AAE] [092FB4A5]
02 99,8 [01CBEA22] [E475C6AC]
03 99,8 [F918F5EA] [E4864A63]
04 99,8 [03C5043D] [E7B10389]
05 99,8 [6FDE2612] [30B56A92]
06 98,8 [453E3C1F] [5BAB01FC]
07 100,0 [F5943083] [75A2DCDB]
08 100,0 [27761D28] [B2EC6373]
09 99,8 [EFAA7BB4] [2B27AAC9]
10 99,7 [74DE9DE8] [BFAF097E]
11 99,8 [94559F8D] [E0D10976]
12 99,8 [CD9B23D9] [E952EBCA]
13 99,8 [A6E9CF3D] [0D8BC1D9]
14 100,0 [A8F9764E] [21A0134B]


Anthrax: Collection (1983-2016) [18CDs, Non Rematered]

Tracklist CD13 - 2005 - Alive 2 (USA Sanctuary BMG Direct D 162509):

01. Among The Living (5:30)
02. Caught In A Mosh (5:42)
03. A.I.R. (6:22)
04. Antisocial (6:05)
05. Efilnickufesin (N.F.L.) (5:59)
06. Deathrider (3:38)
07. Medusa (4:59)
08. In My World (6:09)
09. Indians (7:46)
10. Time (6:53)
11. Be All End All (7:44)
12. I Am The Law (7:04)

Exact Audio Copy V0.99 prebeta 5 from 4. May 2009

EAC extraction logfile from 3. July 2012, 1:41

Anthrax / Alive 2 (USA Sanctuary/BMG Direct D 162509)

Used drive : PIONEER DVD-RW DVR-215 Adapter: 5 ID: 0

Read mode : Secure
Utilize accurate stream : Yes
Defeat audio cache : Yes
Make use of C2 pointers : No

Read offset correction : 48
Overread into Lead-In and Lead-Out : No
Fill up missing offset samples with silence : Yes
Delete leading and trailing silent blocks : No
Null samples used in CRC calculations : Yes
Used interface : Native Win32 interface for Win NT & 2000

Used output format : User Defined Encoder
Selected bitrate : 1024 kBit/s
Quality : High
Add ID3 tag : No
Command line compressor : C:\Program Files (x86)\Exact Audio Copy\Flac\flac.exe
Additional command line options : -8 -V %s


TOC of the extracted CD

Track | Start | Length | Start sector | End sector
––––––––––––––––––––––––––––-
1 | 0:00.00 | 5:29.42 | 0 | 24716
2 | 5:29.42 | 5:42.15 | 24717 | 50381
3 | 11:11.57 | 6:22.05 | 50382 | 79036
4 | 17:33.62 | 6:05.03 | 79037 | 106414
5 | 23:38.65 | 5:58.72 | 106415 | 133336
6 | 29:37.62 | 3:37.50 | 133337 | 149661
7 | 33:15.37 | 4:59.10 | 149662 | 172096
8 | 38:14.47 | 6:09.28 | 172097 | 199799
9 | 44:24.00 | 7:45.40 | 199800 | 234714
10 | 52:09.40 | 6:52.47 | 234715 | 265661
11 | 59:02.12 | 7:44.00 | 265662 | 300461
12 | 66:46.12 | 7:04.08 | 300462 | 332269


Range status and errors

Selected range

Filename D:\bki71\Anthrax\Anthrax - Alive 2 (USA Sanctuary BMG Direct D 162509).wav

Peak level 100.0 %
Range quality 100.0 %
Test CRC 7E433437
Copy CRC 7E433437
Copy OK

No errors occurred


AccurateRip summary

Track 1 cannot be verified as accurate (confidence 5) [245C0651], AccurateRip returned [BBA21941]
Track 2 cannot be verified as accurate (confidence 4) [1DBA4887], AccurateRip returned [65347708]
Track 3 cannot be verified as accurate (confidence 5) [CEF8B993], AccurateRip returned [CC24639F]
Track 4 cannot be verified as accurate (confidence 5) [CD2BFC05], AccurateRip returned [0DD2BCE4]
Track 5 cannot be verified as accurate (confidence 5) [911778F1], AccurateRip returned [7B57B856]
Track 6 cannot be verified as accurate (confidence 5) [81C1ED83], AccurateRip returned [26CC9A8C]
Track 7 cannot be verified as accurate (confidence 5) [09578011], AccurateRip returned [56BF3562]
Track 8 cannot be verified as accurate (confidence 5) [03873AAF], AccurateRip returned [650A5C9C]
Track 9 cannot be verified as accurate (confidence 5) [F90283EA], AccurateRip returned [916C88D9]
Track 10 cannot be verified as accurate (confidence 5) [1F2A70A3], AccurateRip returned [540D4D93]
Track 11 cannot be verified as accurate (confidence 5) [326F4D5C], AccurateRip returned [7FD63CFF]
Track 12 cannot be verified as accurate (confidence 4) [2B843E96], AccurateRip returned [959E45C4]

No tracks could be verified as accurate
You may have a different pressing from the one(s) in the database

End of status report


[CUETools log; Date: 20.04.2018 19:51:30; Version: 2.1.5]
[CTDB TOCID: s_axFua8GaZYgrPvzqCBXcf.6ZM-] found.
Track | CTDB Status
1 | (12/12) Accurately ripped
2 | (12/12) Accurately ripped
3 | (12/12) Accurately ripped
4 | (12/12) Accurately ripped
5 | (12/12) Accurately ripped
6 | (12/12) Accurately ripped
7 | (12/12) Accurately ripped
8 | (12/12) Accurately ripped
9 | (12/12) Accurately ripped
10 | (12/12) Accurately ripped
11 | (12/12) Accurately ripped
12 | (12/12) Accurately ripped
[AccurateRip ID: 001f422c-0125f982-a8114e0c] found.
Track [ CRC | V2 ] Status
01 [245c0651|b1549e41] (02+02/15) Accurately ripped
02 [1dba4887|0af3e673] (02+02/14) Accurately ripped
03 [cef8b993|a98b0a4f] (02+02/15) Accurately ripped
04 [cd2bfc05|caed8d23] (02+02/15) Accurately ripped
05 [911778f1|bfecd51a] (02+02/15) Accurately ripped
06 [81c1ed83|39a4c36f] (02+03/16) Accurately ripped
07 [09578011|ba0caeb1] (02+02/15) Accurately ripped
08 [03873aaf|57d84d25] (02+02/15) Accurately ripped
09 [f90283ea|4f9fce77] (02+02/15) Accurately ripped
10 [1f2a70a3|310be7ab] (02+02/15) Accurately ripped
11 [326f4d5c|11e8dac7] (02+03/16) Accurately ripped
12 [2b843e96|ab3a220c] (02+03/15) Accurately ripped
Offsetted by 30:
01 [bba21941] (05/15) Accurately ripped
02 [65347708] (04/14) Accurately ripped
03 [cc24639f] (05/15) Accurately ripped
04 [0dd2bce4] (05/15) Accurately ripped
05 [7b57b856] (05/15) Accurately ripped
06 [26cc9a8c] (05/16) Accurately ripped
07 [56bf3562] (05/15) Accurately ripped
08 [650a5c9c] (05/15) Accurately ripped
09 [916c88d9] (05/15) Accurately ripped
10 [540d4d93] (05/15) Accurately ripped
11 [7fd63cff] (05/16) Accurately ripped
12 [959e45c4] (04/15) Accurately ripped

Track Peak [ CRC32 ] [W/O NULL] [ LOG ]
– 100,0 [7E433437] [8B7F37A8] CRC32
01 100,0 [DF1464D9] [18BBAD1A]
02 100,0 [1593756F] [C587F8C3]
03 100,0 [58504813] [97034818]
04 100,0 [129F1876] [080A9DDD]
05 100,0 [7672AC6F] [70903D2B]
06 100,0 [769395E6] [649141A4]
07 100,0 [EC5C6BCD] [A68EB885]
08 100,0 [75FD8349] [BA55B515]
09 100,0 [234A044E] [7A0F9824]
10 100,0 [BEA14274] [8809B90E]
11 100,0 [A919CDBF] [1666AB81]
12 100,0 [050C120C] [C1AF0C62]


Anthrax: Collection (1983-2016) [18CDs, Non Rematered]

Tracklist CD14 - 2011 - Worship Music (Megaforce Records):

01. Worship (1:41)
02. Earth On Hell (3:11)
03. The Devil You Know (4:46)
04. Fight 'Em 'Til You Can't (5:48)
05. I'm Alive (5:37)
06. Hymn 1 (0:38)
07. In The End (6:48)
08. The Giant (3:47)
09. Hymn 2 (0:44)
10. Judas Priest (6:24)
11. Crawl (5:29)
12. The Constant (5:01)
13. Revolution Screams + New Noise (Hidden Track) (15:54)

Exact Audio Copy V0.99 prebeta 5 from 4. May 2009

EAC extraction logfile from 30. September 2011, 14:03

Anthrax / Worship Music (Megaforce Records)

Used drive : PLEXTOR DVDR PX-760A Adapter: 0 ID: 0

Read mode : Secure
Utilize accurate stream : Yes
Defeat audio cache : Yes
Make use of C2 pointers : No

Read offset correction : 30
Overread into Lead-In and Lead-Out : No
Fill up missing offset samples with silence : Yes
Delete leading and trailing silent blocks : No
Null samples used in CRC calculations : Yes
Used interface : Native Win32 interface for Win NT & 2000

Used output format : User Defined Encoder
Selected bitrate : 1024 kBit/s
Quality : High
Add ID3 tag : No
Command line compressor : C:\Program Files (x86)\Exact Audio Copy\Flac\flac.exe
Additional command line options : -8 -V %s


TOC of the extracted CD

Track | Start | Length | Start sector | End sector
––––––––––––––––––––––––––––-
1 | 0:00.00 | 1:40.60 | 0 | 7559
2 | 1:40.60 | 3:10.65 | 7560 | 21874
3 | 4:51.50 | 4:46.21 | 21875 | 43345
4 | 9:37.71 | 5:48.33 | 43346 | 69478
5 | 15:26.29 | 5:36.47 | 69479 | 94725
6 | 21:03.01 | 0:38.32 | 94726 | 97607
7 | 21:41.33 | 6:48.04 | 97608 | 128211
8 | 28:29.37 | 3:47.00 | 128212 | 145236
9 | 32:16.37 | 0:44.10 | 145237 | 148546
10 | 33:00.47 | 6:24.29 | 148547 | 177375
11 | 39:25.01 | 5:28.73 | 177376 | 202048
12 | 44:53.74 | 5:01.06 | 202049 | 224629
13 | 49:55.05 | 15:54.07 | 224630 | 296186


Range status and errors

Selected range

Filename D:\bki71\Anthrax - Worship Music (Megaforce Records).wav

Peak level 100.0 %
Range quality 100.0 %
Test CRC 7D9249C2
Copy CRC 7D9249C2
Copy OK

No errors occurred


AccurateRip summary

Track 1 not present in database
Track 2 not present in database
Track 3 not present in database
Track 4 not present in database
Track 5 not present in database
Track 6 not present in database
Track 7 not present in database
Track 8 not present in database
Track 9 not present in database
Track 10 not present in database
Track 11 not present in database
Track 12 not present in database
Track 13 not present in database

None of the tracks are present in the AccurateRip database

End of status report


[CUETools log; Date: 20.04.2018 19:51:54; Version: 2.1.5]
[CTDB TOCID: kj9lXagwrXckhdbIYQfSiTgRiX0-] found.
Track | CTDB Status
1 | (132/132) Accurately ripped
2 | (132/132) Accurately ripped
3 | (131/132) Accurately ripped
4 | (132/132) Accurately ripped
5 | (132/132) Accurately ripped
6 | (132/132) Accurately ripped
7 | (132/132) Accurately ripped
8 | (132/132) Accurately ripped
9 | (132/132) Accurately ripped
10 | (132/132) Accurately ripped
11 | (132/132) Accurately ripped
12 | (132/132) Accurately ripped
13 | (124/132) Accurately ripped, or (2/132) differs in 3179 samples @15:53:61-15:53:64
[AccurateRip ID: 00194800-01052370-c60f6d0d] found.
Track [ CRC | V2 ] Status
01 [3bc404ea|8eb817de] (016+090/106) Accurately ripped
02 [14fdf091|07c36f02] (016+089/105) Accurately ripped
03 [002145e1|c315bc1c] (015+089/104) Accurately ripped
04 [e9874112|0a2a6b9e] (016+090/106) Accurately ripped
05 [deee2ba0|0e6f1d9b] (016+090/106) Accurately ripped
06 [9e0c18bb|6a165e0f] (016+089/105) Accurately ripped
07 [987f70b3|dcb65072] (016+089/105) Accurately ripped
08 [53f75a42|cd019024] (016+089/105) Accurately ripped
09 [ef9a96f9|f9c5b0c2] (016+089/105) Accurately ripped
10 [033faafe|8a829f3c] (016+089/105) Accurately ripped
11 [01650780|e645960b] (016+089/105) Accurately ripped
12 [4dab251e|0884d655] (016+089/105) Accurately ripped
13 [efca7cfd|cff39910] (017+088/105) Accurately ripped

Track Peak [ CRC32 ] [W/O NULL] [ LOG ]
– 100,0 [7D9249C2] [F3E20934] CRC32
01 78,7 [5CCE539E] [A4CFF95D]
02 100,0 [390FAFAE] [BB7A5834]
03 99,8 [673BE659] [3CBCDD14]
04 99,5 [DF24F011] [D1A53393]
05 99,5 [948E5081] [9AEF377B]
06 87,1 [E34FA379] [92ED52E0]
07 99,5 [EAA3CAF4] [5B4A9E79]
08 99,5 [F8E49C15] [8636835C]
09 76,7 [2ED156BA] [FF616A7A]
10 100,0 [05F29056] [26599A15]
11 99,5 [D7B004C0] [77DAAC8D]
12 100,0 [8B6650A9] [3F43EBCE]
13 100,0 [DB5F69B1] [E846E783]


Anthrax: Collection (1983-2016) [18CDs, Non Rematered]

Tracklist CD15-16 - 2014 - Chile On Hell (2 CD, Nuclear Blast 27361 3280):
CD1

01. Among The Living (5:55)
02. Caught In A Mosh (6:10)
03. I Am The Law (7:04)
04. Efilnikufesin (N.F.L.) (6:04)
05. A Skeleton In The Closet (6:49)
06. In The End (8:51)
07. T.N.T. (3:40)
08. I'm Alive (6:28)

Exact Audio Copy V1.0 beta 3 from 29. August 2011

EAC extraction logfile from 27. October 2014, 9:47

Anthrax / Chile On Hell (Disc 1)

Used drive : PIONEER DVD-RW DVR-215 Adapter: 0 ID: 0

Read mode : Secure
Utilize accurate stream : Yes
Defeat audio cache : Yes
Make use of C2 pointers : No

Read offset correction : 48
Overread into Lead-In and Lead-Out : No
Fill up missing offset samples with silence : Yes
Delete leading and trailing silent blocks : No
Null samples used in CRC calculations : Yes
Used interface : Native Win32 interface for Win NT & 2000

Used output format : User Defined Encoder
Selected bitrate : 1024 kBit/s
Quality : High
Add ID3 tag : No
Command line compressor : C:\Program Files (x86)\Exact Audio Copy\Flac\flac.exe
Additional command line options : -V -8 -T "Date=%year%" -T "Genre=%genre%" %source%


TOC of the extracted CD

Track | Start | Length | Start sector | End sector
––––––––––––––––––––––––––––-
1 | 0:00.00 | 5:55.35 | 0 | 26659
2 | 5:55.35 | 6:10.15 | 26660 | 54424
3 | 12:05.50 | 7:04.15 | 54425 | 86239
4 | 19:09.65 | 6:04.29 | 86240 | 113568
5 | 25:14.19 | 6:49.15 | 113569 | 144258
6 | 32:03.34 | 8:51.21 | 144259 | 184104
7 | 40:54.55 | 3:39.51 | 184105 | 200580
8 | 44:34.31 | 6:27.63 | 200581 | 229668


Range status and errors

Selected range

Filename F:\metallihead\Anthrax - Chile On Hell (Disc 1).wav

Peak level 100.0 %
Extraction speed 7.1 X
Range quality 100.0 %
Test CRC F7CF0890
Copy CRC F7CF0890
Copy OK

No errors occurred


AccurateRip summary

Track 1 not present in database
Track 2 not present in database
Track 3 not present in database
Track 4 not present in database
Track 5 not present in database
Track 6 not present in database
Track 7 not present in database
Track 8 not present in database

None of the tracks are present in the AccurateRip database

End of status report

==== Log checksum 91E578DFF03A8F2EA2273073F712A7ABA90343D113983A78E934AFAEE188F8A9 ====


[CUETools log; Date: 20.04.2018 19:52:19; Version: 2.1.5]
[CTDB TOCID: 0FDr9e7axitjZzzlh809530P0D8-] found.
Track | CTDB Status
1 | (23/23) Accurately ripped
2 | (23/23) Accurately ripped
3 | (23/23) Accurately ripped
4 | (23/23) Accurately ripped
5 | (23/23) Accurately ripped
6 | (23/23) Accurately ripped
7 | (23/23) Accurately ripped
8 | (23/23) Accurately ripped
[AccurateRip ID: 000fdc94-006a215f-6d0bf608] found.
Track [ CRC | V2 ] Status
01 [6f25fb5e|647c0132] (0+9/9) Accurately ripped
02 [0eb8e254|c39cf641] (0+9/9) Accurately ripped
03 [6453ce6a|a6fbe272] (0+9/9) Accurately ripped
04 [1843b0e8|cb8996c4] (0+9/9) Accurately ripped
05 [259b259f|0b56c486] (0+9/9) Accurately ripped
06 [6ca128eb|8f288002] (0+9/9) Accurately ripped
07 [17cf3ce0|f4cb5c96] (0+9/9) Accurately ripped
08 [ed9d14cb|1a504e65] (0+9/9) Accurately ripped

Track Peak [ CRC32 ] [W/O NULL] [ LOG ]
– 100,0 [F7CF0890] [4B361E8F] CRC32
01 100,0 [6EAA8990] [C4B850DB]
02 94,4 [57E3B648] [DB51F9E9]
03 100,0 [AE3F2B9E] [9EBFF1E1]
04 94,4 [36EF606B] [17A11E84]
05 100,0 [97DC8B28] [B00DBBDA]
06 100,0 [24F2EE96] [F9FEB4A4]
07 100,0 [FC21AFE1] [ACEDB285]
08 96,3 [5026D591] [666FA48F]


CD2

01. Indians (8:47)
02. Medusa (5:48)
03. In My World (7:24)
04. Fight 'Em Til You Can't (6:34)
05. I'm The Man (3:08)
06. Madhouse (4:31)
07. Antisocial (7:18)

Exact Audio Copy V1.0 beta 3 from 29. August 2011

EAC extraction logfile from 27. October 2014, 10:08

Anthrax / Chile On Hell (Disc 2)

Used drive : PIONEER DVD-RW DVR-215 Adapter: 0 ID: 0

Read mode : Secure
Utilize accurate stream : Yes
Defeat audio cache : Yes
Make use of C2 pointers : No

Read offset correction : 48
Overread into Lead-In and Lead-Out : No
Fill up missing offset samples with silence : Yes
Delete leading and trailing silent blocks : No
Null samples used in CRC calculations : Yes
Used interface : Native Win32 interface for Win NT & 2000

Used output format : User Defined Encoder
Selected bitrate : 1024 kBit/s
Quality : High
Add ID3 tag : No
Command line compressor : C:\Program Files (x86)\Exact Audio Copy\Flac\flac.exe
Additional command line options : -V -8 -T "Date=%year%" -T "Genre=%genre%" %source%


TOC of the extracted CD

Track | Start | Length | Start sector | End sector
––––––––––––––––––––––––––––-
1 | 0:00.00 | 8:46.63 | 0 | 39512
2 | 8:46.63 | 5:48.22 | 39513 | 65634
3 | 14:35.10 | 7:24.03 | 65635 | 98937
4 | 21:59.13 | 6:34.26 | 98938 | 128513
5 | 28:33.39 | 3:07.68 | 128514 | 142606
6 | 31:41.32 | 4:31.20 | 142607 | 162951
7 | 36:12.52 | 7:18.16 | 162952 | 195817


Range status and errors

Selected range

Filename F:\metallihead\Anthrax - Chile On Hell (Disc 2).wav

Peak level 100.0 %
Extraction speed 6.9 X
Range quality 100.0 %
Test CRC C1F3437B
Copy CRC C1F3437B
Copy OK

No errors occurred


AccurateRip summary

Track 1 not present in database
Track 2 not present in database
Track 3 not present in database
Track 4 not present in database
Track 5 not present in database
Track 6 not present in database
Track 7 not present in database

None of the tracks are present in the AccurateRip database

End of status report

==== Log checksum 9D8AD0FCA902ACF881A26B2D51D5C4C00701E4FF45F39E3CADDF20A5E815BC8B ====


[CUETools log; Date: 20.04.2018 19:52:53; Version: 2.1.5]
[CTDB TOCID: xdqVrWDSs8hju.0ONEQvZa6SdeM-] found.
Track | CTDB Status
1 | (24/24) Accurately ripped
2 | (24/24) Accurately ripped
3 | (24/24) Accurately ripped
4 | (24/24) Accurately ripped
5 | (24/24) Accurately ripped
6 | (24/24) Accurately ripped
7 | (24/24) Accurately ripped
[AccurateRip ID: 000cb9b9-004a6b30-570a3207] found.
Track [ CRC | V2 ] Status
01 [bddf9692|42201a69] (0+9/9) Accurately ripped
02 [969c2f92|9a6067d3] (0+9/9) Accurately ripped
03 [7b1fa31d|a78da018] (0+9/9) Accurately ripped
04 [539d5ffd|51bb23d5] (0+9/9) Accurately ripped
05 [28fd6579|a266a992] (0+9/9) Accurately ripped
06 [9e4d044f|02db9600] (0+9/9) Accurately ripped
07 [1c777c6a|2f61fce1] (0+9/9) Accurately ripped

Track Peak [ CRC32 ] [W/O NULL] [ LOG ]
– 100,0 [C1F3437B] [FFF435E2] CRC32
01 97,6 [9B8CEAB6] [676ACD8D]
02 100,0 [055E7485] [E9545148]
03 100,0 [AAA86BE4] [B29E135D]
04 94,4 [F7FB0DB1] [C62633AC]
05 100,0 [B7EE14F2] [4E808D16]
06 100,0 [23617700] [193A7691]
07 100,0 [05ADB324] [5ED16499]


Anthrax: Collection (1983-2016) [18CDs, Non Rematered]

Tracklist CD17-18 - 2016 - For All Kings (Nuclear Blast NB 3567-0):
CD1

01. Impaled (1:32)
02. You Gotta Believe (6:01)
03. Monster At The End (3:56)
04. For All Kings (5:01)
05. Breathing Lightning (5:37)
06. Breathing Out (0:56)
07. Suzerain (4:53)
08. Evil Twin (4:41)
09. Blood Eagle Wings (7:53)
10. Defend - Avenge (5:14)
11. All Of Them Thieves (5:15)
12. This Battle Chose Us! (4:53)
13. Zero Tolerance (3:48)

aExact Audio Copy V1.1 from 23. June 2015

EAC extraction logfile from 25. September 2016, 14:44

Anthrax / For All Kings (NB 3567-0)

Used drive : TEAC CD-W524E Adapter: 0 ID: 1

Read mode : Secure
Utilize accurate stream : Yes
Defeat audio cache : Yes
Make use of C2 pointers : No

Read offset correction : 686
Overread into Lead-In and Lead-Out : No
Fill up missing offset samples with silence : Yes
Delete leading and trailing silent blocks : No
Null samples used in CRC calculations : Yes
Used interface : Installed external ASPI interface

Used output format : User Defined Encoder
Selected bitrate : 1024 kBit/s
Quality : High
Add ID3 tag : No
Command line compressor : C:\Program Files (x86)\Exact Audio Copy\Flac\flac.exe
Additional command line options : -V -8 -T "Date=%year%" -T "Genre=%genre%" %source%


TOC of the extracted CD

Track | Start | Length | Start sector | End sector
––––––––––––––––––––––––––––-
1 | 0:00.00 | 1:31.41 | 0 | 6865
2 | 1:31.41 | 6:00.63 | 6866 | 33928
3 | 7:32.29 | 3:55.62 | 33929 | 51615
4 | 11:28.16 | 5:00.55 | 51616 | 74170
5 | 16:28.71 | 5:37.36 | 74171 | 99481
6 | 22:06.32 | 0:55.42 | 99482 | 103648
7 | 23:01.74 | 4:53.26 | 103649 | 125649
8 | 27:55.25 | 4:40.64 | 125650 | 146713
9 | 32:36.14 | 7:53.24 | 146714 | 182212
10 | 40:29.38 | 5:13.60 | 182213 | 205747
11 | 45:43.23 | 5:14.58 | 205748 | 229355
12 | 50:58.06 | 4:53.18 | 229356 | 251348
13 | 55:51.24 | 3:48.33 | 251349 | 268481


Range status and errors

Selected range

Filename D:\Ripped By liveevil\Anthrax - For All Kings (NB 3567-0).wav

Peak level 100.0 %
Extraction speed 5.4 X
Range quality 100.0 %
Test CRC E591C47A
Copy CRC E591C47A
Copy OK

No errors occurred


AccurateRip summary

Track 1 accurately ripped (confidence 36) [A1D04B3F] (AR v2)
Track 2 accurately ripped (confidence 36) [13CA56CC] (AR v2)
Track 3 accurately ripped (confidence 36) [17BDE085] (AR v2)
Track 4 accurately ripped (confidence 36) [D9C0A8A0] (AR v2)
Track 5 accurately ripped (confidence 36) [1230F928] (AR v2)
Track 6 accurately ripped (confidence 36) [AC4D243D] (AR v2)
Track 7 accurately ripped (confidence 36) [E72BD9B8] (AR v2)
Track 8 accurately ripped (confidence 36) [F0AD9D63] (AR v2)
Track 9 accurately ripped (confidence 36) [9DDAD41A] (AR v2)
Track 10 accurately ripped (confidence 36) [5087EE43] (AR v2)
Track 11 accurately ripped (confidence 36) [6CCC8497] (AR v2)
Track 12 accurately ripped (confidence 36) [1A7A82CA] (AR v2)
Track 13 accurately ripped (confidence 36) [4F139110] (AR v2)

All tracks accurately ripped

End of status report

==== Log checksum DB34D79A6F3D3AA2A79B987E64C84EE1ECD6E21FD8B1649928B837D112E6975A ====


[CUETools log; Date: 20.04.2018 19:53:28; Version: 2.1.5]
[CTDB TOCID: 5KpR2wQq8uRFjztMSw5q7ixG0y4-] found.
Track | CTDB Status
1 | (315/316) Accurately ripped
2 | (315/316) Accurately ripped
3 | (315/316) Accurately ripped
4 | (315/316) Accurately ripped
5 | (315/316) Accurately ripped
6 | (315/316) Accurately ripped
7 | (315/316) Accurately ripped
8 | (315/316) Accurately ripped
9 | (314/316) Accurately ripped
10 | (315/316) Accurately ripped
11 | (315/316) Accurately ripped
12 | (315/316) Accurately ripped
13 | (314/316) Accurately ripped
[AccurateRip ID: 001b2619-0115c88f-b80dfb0d] found.
Track [ CRC | V2 ] Status
01 [4ee56998|a1d04b3f] (00+72/72) Accurately ripped
02 [1c28d7fd|13ca56cc] (00+71/71) Accurately ripped
03 [1c78bd8f|17bde085] (00+73/73) Accurately ripped
04 [b24df6ec|d9c0a8a0] (00+73/73) Accurately ripped
05 [3cd3ebb9|1230f928] (00+72/72) Accurately ripped
06 [538b391c|ac4d243d] (00+72/72) Accurately ripped
07 [97bcae46|e72bd9b8] (00+73/73) Accurately ripped
08 [055836bb|f0ad9d63] (00+73/73) Accurately ripped
09 [0bb1f19e|9ddad41a] (00+73/73) Accurately ripped
10 [c86622a2|5087ee43] (00+73/73) Accurately ripped
11 [ad998d14|6ccc8497] (00+73/73) Accurately ripped
12 [a0eb9482|1a7a82ca] (00+72/72) Accurately ripped
13 [12bcd7cc|4f139110] (00+72/72) Accurately ripped

Track Peak [ CRC32 ] [W/O NULL] [ LOG ]
– 100,0 [E591C47A] [288CC9D6] CRC32
01 98,8 [A7616435] [833E0289]
02 100,0 [EF01871A] [498F7AB6]
03 98,8 [3F2FA7D5] [707E7397]
04 98,8 [A1BA5210] [5A0282FB]
05 98,8 [3D772D9A] [D11FFC0A]
06 71,2 [975D5AA2] [28DA0D18]
07 98,8 [88042F8F] [30A328D4]
08 98,8 [7FD1FC90] [1936EB03]
09 98,8 [676DD50C] [BC3B87BB]
10 98,8 [1F3B48FF] [9DA4AA49]
11 98,8 [45EB2DEB] [CB106930]
12 99,1 [95C2B00E] [A9E1B07D]
13 98,8 [3982DAED] [D1C36A4A]


CD2

01. Fight 'Em 'Til You Can't (6:11)
02. A.I.R. (6:37)
03. Caught In A Mosh (5:18)
04. Madhouse (4:06)

Exact Audio Copy V1.1 from 23. June 2015

EAC extraction logfile from 25. September 2016, 15:26

Anthrax / For All Kings (NB 3567-0, Bonus Live EP)

Used drive : TEAC CD-W524E Adapter: 0 ID: 1

Read mode : Secure
Utilize accurate stream : Yes
Defeat audio cache : Yes
Make use of C2 pointers : No

Read offset correction : 686
Overread into Lead-In and Lead-Out : No
Fill up missing offset samples with silence : Yes
Delete leading and trailing silent blocks : No
Null samples used in CRC calculations : Yes
Used interface : Installed external ASPI interface

Used output format : User Defined Encoder
Selected bitrate : 1024 kBit/s
Quality : High
Add ID3 tag : No
Command line compressor : C:\Program Files (x86)\Exact Audio Copy\Flac\flac.exe
Additional command line options : -V -8 -T "Date=%year%" -T "Genre=%genre%" %source%


TOC of the extracted CD

Track | Start | Length | Start sector | End sector
––––––––––––––––––––––––––––-
1 | 0:00.00 | 6:10.44 | 0 | 27793
2 | 6:10.44 | 6:37.34 | 27794 | 57602
3 | 12:48.03 | 5:18.27 | 57603 | 81479
4 | 18:06.30 | 4:05.72 | 81480 | 99926


Range status and errors

Selected range

Filename D:\Ripped By liveevil\Anthrax - For All Kings (NB 3567-0, Bonus Live EP).wav

Peak level 70.6 %
Extraction speed 5.4 X
Range quality 99.9 %
Test CRC A6AE8D8D
Copy CRC A6AE8D8D
Copy OK

No errors occurred


AccurateRip summary

Track 1 accurately ripped (confidence 29) [0FE825D8] (AR v2)
Track 2 accurately ripped (confidence 29) [13DB1B40] (AR v2)
Track 3 accurately ripped (confidence 29) [180ED0CF] (AR v2)
Track 4 accurately ripped (confidence 29) [CA24F70B] (AR v2)

All tracks accurately ripped

End of status report

==== Log checksum 988D280343510747906D4FA595037D163BAF40C4816E719FC79FA8DF39DB7C72 ====


[CUETools log; Date: 20.04.2018 19:54:05; Version: 2.1.5]
[CTDB TOCID: jwQ1rCu20Z2QIlAkmQapvQtZ.ms-] found.
Track | CTDB Status
1 | (175/176) Accurately ripped
2 | (176/176) Accurately ripped
3 | (175/176) Accurately ripped
4 | (175/176) Accurately ripped
[AccurateRip ID: 00041234-00101501-2d053404] found.
Track [ CRC | V2 ] Status
01 [19b05a6b|0fe825d8] (00+50/53) Accurately ripped
02 [c94bc697|13db1b40] (00+50/53) Accurately ripped
03 [e594ca30|180ed0cf] (00+50/53) Accurately ripped
04 [504966ec|ca24f70b] (00+50/53) Accurately ripped
Offsetted by -12:
01 [7701653d] (00/53) No match (V2 was not tested)
02 [90210b46] (00/53) No match (V2 was not tested)
03 [cbe829c0] (00/53) No match (V2 was not tested)
04 [9947be4e] (00/53) No match (V2 was not tested)

Track Peak [ CRC32 ] [W/O NULL] [ LOG ]
– 70,6 [A6AE8D8D] [18CFE2D5] CRC32
01 70,3 [71F5742C] [A13744B9]
02 70,2 [5260A125] [6693E07B]
03 70,6 [FC4EE902] [71D008CB]
04 70,6 [99F31883] [00FCC2BE]


All thanks go to the original releasers

Anthrax or Anthrax in my Blog

Download Anthrax: Collection (1983-2016):