Subcategories

Anthrax: Singles & EP's Collection part 1 (1985-1990)

Posted By: v3122
Anthrax: Singles & EP's Collection part 1 (1985-1990)

Anthrax: Singles & EP's Collection part 1 (1985-1990)
EAC | Flac(Image) + Cue + Log & MP3 CBR 320Kbps
6CD | Label: Various | ~ 757 or 302 Mb | Scans(jpg) -> 75 Mb
Thrash Metal

Anthrax is an American heavy metal band from New York City, formed in 1981 by rhythm guitarist Scott Ian and bassist Dan Lilker. The group was considered one of the leaders of the thrash metal scene during the 1980s and is one of the "Big Four" thrash metal bands with Metallica, Megadeth, and Slayer; Anthrax is the only one of the four from the East Coast. As of April 2017, the band has released 11 studio albums, several other albums, and 26 singles, including collaborating on a single with American hip hop group Public Enemy. According to Nielsen SoundScan, Anthrax sold 2.5 million records in the United States from 1991 to 2004, with worldwide sales of 10 million.

Noted for its live performances, Anthrax signed with the independent label Megaforce Records, which released the band's debut studio album in 1984. Lilker soon left the band to form Nuclear Assault, and was replaced by roadie Frank Bello. Lead vocalist Neil Turbin was replaced after two years by Matt Fallon, who was then subsequently replaced in 1984 by Joey Belladonna. With a new lineup, the band recorded Spreading the Disease (distributed by Island Records) in 1985. Anthrax's third album, Among the Living, was released in 1987 to critical praise. The band experienced another lineup change in 1992, when John Bush from Armored Saint replaced Belladonna as lead vocalist. Sound of White Noise was released the following year, peaking at number seven on the Billboard 200. Studio recordings during the 1990s saw the band, influenced by other genres, experimenting with its sound.

Anthrax's lineup has changed several times over their career. The band has had a number of vocalists including Neil Turbin, Joey Belladonna, Dan Nelson and John Bush. Founding member Scott Ian and early arrival Charlie Benante, who joined Anthrax in 1983, are the only band members to appear on every album. Bassist Frank Bello has played on every album, except for the band's debut Fistful of Metal, which featured Dan Lilker. After briefly rejoining the band from 2005 to 2007, Belladonna returned to Anthrax once again in 2010, and the band has since recorded two more studio albums with him: Worship Music (2011) and For All Kings (2016)…

~ wiki
Anthrax: Singles & EP's Collection part 1 (1985-1990)


Anthrax: Singles & EP's Collection part 1 (1985-1990):

Anthrax: Singles & EP's Collection part 1 (1985-1990)

Tracklist CD1 - 1985 - Armed And Dangerous:
1990, Megaforce Records CAROL CD 1382

01. Armed And Dangerous (Studio) (6:06)
02. Raise Hell (Studio) (4:03)
03. God Save The Queen (Studio - Non Lp) (3:02)
04. Metal Thrashing Mad (Live) (2:51)
05. Panic (Live) (3:45)
06. Soldiers Of Metal (Collector's Rare Track) (3:09)
07. Howling Furies (Collector's Rare Track) (4:05)

Exact Audio Copy V0.99 prebeta 5 from 4. May 2009

EAC extraction logfile from 7. June 2012, 16:14

Anthrax / Armed And Dangerous (USA Caroline Records CAROL CD 1382)

Used drive : PIONEER DVD-RW DVR-215 Adapter: 5 ID: 0

Read mode : Secure
Utilize accurate stream : Yes
Defeat audio cache : Yes
Make use of C2 pointers : No

Read offset correction : 48
Overread into Lead-In and Lead-Out : No
Fill up missing offset samples with silence : Yes
Delete leading and trailing silent blocks : No
Null samples used in CRC calculations : Yes
Used interface : Native Win32 interface for Win NT & 2000

Used output format : User Defined Encoder
Selected bitrate : 1024 kBit/s
Quality : High
Add ID3 tag : No
Command line compressor : C:\Program Files (x86)\Exact Audio Copy\Flac\flac.exe
Additional command line options : -8 -V %s


TOC of the extracted CD

Track | Start | Length | Start sector | End sector
––––––––––––––––––––––––––––-
1 | 0:00.00 | 6:06.15 | 0 | 27464
2 | 6:06.15 | 4:02.52 | 27465 | 45666
3 | 10:08.67 | 3:01.73 | 45667 | 59314
4 | 13:10.65 | 2:50.67 | 59315 | 72131
5 | 16:01.57 | 3:45.10 | 72132 | 89016
6 | 19:46.67 | 3:08.50 | 89017 | 103166
7 | 22:55.42 | 4:05.20 | 103167 | 121561


Range status and errors

Selected range

Filename D:\bki71\Anthrax\Anthrax - Armed And Dangerous (USA Caroline Records CAROL CD 1382).wav

Peak level 100.0 %
Range quality 99.9 %
Test CRC 7F13BD5D
Copy CRC 7F13BD5D
Copy OK

No errors occurred


AccurateRip summary

Track 1 accurately ripped (confidence 5) [9992334F]
Track 2 accurately ripped (confidence 5) [B7D0C57A]
Track 3 accurately ripped (confidence 5) [3E24BA83]
Track 4 accurately ripped (confidence 6) [2DF3EB77]
Track 5 accurately ripped (confidence 5) [2649A8C6]
Track 6 accurately ripped (confidence 6) [D025396F]
Track 7 accurately ripped (confidence 6) [168478ED]

All tracks accurately ripped

End of status report


[CUETools log; Date: 08.02.2018 14:31:22; Version: 2.1.5]
[CTDB TOCID: EjM8TikJxGFVK0l3vkVux6K6Hqk-] found.
Track | CTDB Status
1 | (12/14) Accurately ripped
2 | (13/14) Accurately ripped
3 | (14/14) Accurately ripped
4 | (14/14) Accurately ripped
5 | (14/14) Accurately ripped
6 | (14/14) Accurately ripped
7 | (14/14) Accurately ripped
[AccurateRip ID: 0007e8b5-002e0f7b-62065407] found.
Track [ CRC | V2 ] Status
01 [9992334f|d0abc19d] (06+02/08) Accurately ripped
02 [b7d0c57a|aff986ae] (06+03/09) Accurately ripped
03 [3e24ba83|9a5e5945] (06+03/09) Accurately ripped
04 [2df3eb77|cf5e5b7b] (07+03/10) Accurately ripped
05 [2649a8c6|c8436401] (06+03/09) Accurately ripped
06 [d025396f|766da96a] (07+03/10) Accurately ripped
07 [168478ed|36b6f604] (07+03/10) Accurately ripped

Track Peak [ CRC32 ] [W/O NULL] [ LOG ]
– 100,0 [7F13BD5D] [EC48087C] CRC32
01 94,5 [F32629C4] [076E9843]
02 93,8 [BF3DC3FB] [9571BED0]
03 93,7 [DC23FF3E] [91DAD061]
04 100,0 [2F765B3D] [14E9D463]
05 93,4 [4DC2C924] [090AF731]
06 93,7 [63A632F6] [F4FD5BCC]
07 91,1 [3FE68884] [8ABA6DF6]


Anthrax: Singles & EP's Collection part 1 (1985-1990)

Tracklist CD2 - 1987 - I'm The Man:
Megaforce Worldwide 7 90685-2

01. I'm The Man (Censored Radio Version) (3:04)
02. I'm The Man (Def Uncensored Version) (3:04)
03. Sabbath Bloody Sabbath (5:48)
04. I'm The Man - Live (Extremely Def Ill Uncensored Version) (4:40)
05. Caught In A Mosh - Live (5:34)
06. I Am The Law - Live (5:49)

Exact Audio Copy V0.99 prebeta 5 from 4. May 2009

EAC extraction logfile from 10. August 2013, 1:33

Anthrax / I'm The Man (USA Island 7 90685-2)

Used drive : PIONEER DVD-RW DVR-215 Adapter: 5 ID: 0

Read mode : Secure
Utilize accurate stream : Yes
Defeat audio cache : Yes
Make use of C2 pointers : No

Read offset correction : 48
Overread into Lead-In and Lead-Out : No
Fill up missing offset samples with silence : Yes
Delete leading and trailing silent blocks : No
Null samples used in CRC calculations : Yes
Used interface : Native Win32 interface for Win NT & 2000

Used output format : User Defined Encoder
Selected bitrate : 1024 kBit/s
Quality : High
Add ID3 tag : No
Command line compressor : C:\Program Files (x86)\Exact Audio Copy\Flac\flac.exe
Additional command line options : -8 -V %s


TOC of the extracted CD

Track | Start | Length | Start sector | End sector
––––––––––––––––––––––––––––-
1 | 0:00.32 | 3:03.63 | 32 | 13819
2 | 3:04.20 | 3:04.15 | 13820 | 27634
3 | 6:08.35 | 5:48.02 | 27635 | 53736
4 | 11:56.37 | 4:39.40 | 53737 | 74701
5 | 16:36.02 | 5:34.03 | 74702 | 99754
6 | 22:10.05 | 5:49.05 | 99755 | 125934


Range status and errors

Selected range

Filename D:\bki71\Anthrax\Anthrax - I'm The Man (USA Island 7 90685-2).wav

Peak level 99.2 %
Range quality 99.9 %
Test CRC DEDEFE73
Copy CRC DEDEFE73
Copy OK

No errors occurred


AccurateRip summary

Track 1 accurately ripped (confidence 20) [2E431619]
Track 2 accurately ripped (confidence 19) [43053292]
Track 3 accurately ripped (confidence 15) [5CA22F06]
Track 4 accurately ripped (confidence 21) [5E75866C]
Track 5 accurately ripped (confidence 20) [D37ED7C3]
Track 6 accurately ripped (confidence 21) [FC0E367E]

All tracks accurately ripped

End of status report


[CUETools log; Date: 08.02.2018 14:31:47; Version: 2.1.5]
Pregap length 00:00:32.
[CTDB TOCID: .948w1oejntz6PJANzBRWHdAwWE-] found.
Track | CTDB Status
1 | (29/32) Accurately ripped
2 | (30/32) Accurately ripped
3 | (30/32) Accurately ripped
4 | (30/32) Accurately ripped
5 | (29/32) Accurately ripped
6 | (28/32) Accurately ripped
[AccurateRip ID: 00060960-00214026-4e068f06] found.
Track [ CRC | V2 ] Status
01 [2e431619|3e6c1414] (22+18/51) Accurately ripped
02 [43053292|474665ae] (21+18/50) Accurately ripped
03 [5ca22f06|152b3691] (17+18/46) Accurately ripped
04 [5e75866c|6039705b] (23+18/52) Accurately ripped
05 [d37ed7c3|b19d1c5b] (22+18/51) Accurately ripped
06 [fc0e367e|e65d0f43] (23+18/52) Accurately ripped
Offsetted by -281:
01 [66a82404] (06/51) Accurately ripped
02 [78c8e92a] (06/50) Accurately ripped
03 [9ba5275a] (06/46) Accurately ripped
04 [1e011b11] (06/52) Accurately ripped
05 [f872079a] (06/51) Accurately ripped
06 [c82ca809] (06/52) Accurately ripped

Track Peak [ CRC32 ] [W/O NULL] [ LOG ]
– 99,2 [DEDEFE73] [032F69C0] CRC32
01 97,1 [4B63AC73] [A15B4BFA]
02 99,1 [DB3863AD] [89881533]
03 99,2 [6AC0275B] [82F552D2]
04 98,0 [B011A75F] [81E063BC]
05 81,7 [D521E634] [2D2208E0]
06 91,7 [455A535E] [910197DF]


Anthrax: Singles & EP's Collection part 1 (1985-1990)

Tracklist CD3 - 1989 - Antisocial:
Island/Megaforce Worldwide CID X 409

01. Anti-Social (4:26)
02. Parasite (3:19)
03. Le Sects (3:07)

Exact Audio Copy V0.99 prebeta 5 from 4. May 2009

EAC extraction logfile from 4. June 2012, 0:08

Anthrax / Anti-Social (Austria 3'' single, CID X 409)

Used drive : PLEXTOR DVDR PX-760A Adapter: 0 ID: 0

Read mode : Secure
Utilize accurate stream : Yes
Defeat audio cache : Yes
Make use of C2 pointers : No

Read offset correction : 30
Overread into Lead-In and Lead-Out : No
Fill up missing offset samples with silence : Yes
Delete leading and trailing silent blocks : No
Null samples used in CRC calculations : Yes
Used interface : Native Win32 interface for Win NT & 2000

Used output format : User Defined Encoder
Selected bitrate : 1024 kBit/s
Quality : High
Add ID3 tag : No
Command line compressor : C:\Program Files (x86)\Exact Audio Copy\Flac\flac.exe
Additional command line options : -8 -V %s


TOC of the extracted CD

Track | Start | Length | Start sector | End sector
––––––––––––––––––––––––––––-
1 | 0:00.00 | 4:26.22 | 0 | 19971
2 | 4:26.22 | 3:18.43 | 19972 | 34864
3 | 7:44.65 | 3:07.22 | 34865 | 48911


Range status and errors

Selected range

Filename D:\bki71\Anthrax\Anthrax - Anti-Social (Austria 3'' single, CID X 409).wav

Peak level 97.5 %
Range quality 99.9 %
Test CRC C525490E
Copy CRC C525490E
Copy OK

No errors occurred


AccurateRip summary

Track 1 accurately ripped (confidence 2) [84F86C69]
Track 2 accurately ripped (confidence 2) [04A65BBB]
Track 3 accurately ripped (confidence 2) [7983F2D4]

All tracks accurately ripped

End of status report


[CUETools log; Date: 08.02.2018 14:32:17; Version: 2.1.5]
[CTDB TOCID: jqbD5tSapGp4XE5E1U9lI3gXtak-] found.
Track | CTDB Status
1 | (3/3) Accurately ripped
2 | (3/3) Accurately ripped
3 | (3/3) Accurately ripped
[AccurateRip ID: 00019545-000530dc-22028c03] found.
Track [ CRC | V2 ] Status
01 [84f86c69|107912b7] (3+2/5) Accurately ripped
02 [04a65bbb|101e3f94] (3+2/5) Accurately ripped
03 [7983f2d4|3e1930ea] (3+2/5) Accurately ripped

Track Peak [ CRC32 ] [W/O NULL] [ LOG ]
– 97,5 [C525490E] [D22AB75E] CRC32
01 97,5 [21F7B191] [6E3B84DB]
02 86,5 [A2C1E8A5] [BB6EB879]
03 79,8 [A59C2CC3] [06AB482B]


Anthrax: Singles & EP's Collection part 1 (1985-1990)

Tracklist CD4 - 1989 - Penikufesin:
Island/Megaforce Worldwide 259 950

01. Now it's Dark (5:38)
02. Antisocial (French Version) (4:25)
03. Friggin' In The Riggin' (5:20)
04. Parasite (3:16)
05. Sects (3:06)
06. Pipeline (2:03)

Exact Audio Copy V0.99 prebeta 5 from 4. May 2009

EAC extraction logfile from 3. June 2012, 2:23

Anthrax / Penikufesin (Germany 259 950)

Used drive : PIONEER DVD-RW DVR-215 Adapter: 5 ID: 0

Read mode : Secure
Utilize accurate stream : Yes
Defeat audio cache : Yes
Make use of C2 pointers : No

Read offset correction : 48
Overread into Lead-In and Lead-Out : No
Fill up missing offset samples with silence : Yes
Delete leading and trailing silent blocks : No
Null samples used in CRC calculations : Yes
Used interface : Native Win32 interface for Win NT & 2000

Used output format : User Defined Encoder
Selected bitrate : 1024 kBit/s
Quality : High
Add ID3 tag : No
Command line compressor : C:\Program Files (x86)\Exact Audio Copy\Flac\flac.exe
Additional command line options : -8 -V %s


TOC of the extracted CD

Track | Start | Length | Start sector | End sector
––––––––––––––––––––––––––––-
1 | 0:00.00 | 5:37.55 | 0 | 25329
2 | 5:37.55 | 4:25.37 | 25330 | 45241
3 | 10:03.17 | 5:19.45 | 45242 | 69211
4 | 15:22.62 | 3:16.20 | 69212 | 83931
5 | 18:39.07 | 3:06.25 | 83932 | 97906
6 | 21:45.32 | 2:02.43 | 97907 | 107099


Range status and errors

Selected range

Filename D:\bki71\Anthrax\Anthrax - Penikufesin (Germany 259 950).wav

Peak level 90.6 %
Range quality 100.0 %
Test CRC A40FEB81
Copy CRC A40FEB81
Copy OK

No errors occurred


AccurateRip summary

Track 1 accurately ripped (confidence 31) [FBFC97A1]
Track 2 accurately ripped (confidence 31) [A2B16BAA]
Track 3 accurately ripped (confidence 31) [E24B56C1]
Track 4 accurately ripped (confidence 30) [CCB4C2E1]
Track 5 accurately ripped (confidence 30) [372D82F4]
Track 6 accurately ripped (confidence 30) [D314B13C]

All tracks accurately ripped

End of status report


[CUETools log; Date: 08.02.2018 14:32:44; Version: 2.1.5]
[CTDB TOCID: tXNSD3.t14XCfNiqNTpooXgWV6I-] found.
Track | CTDB Status
1 | (69/70) Accurately ripped
2 | (69/70) Accurately ripped
3 | (70/70) Accurately ripped
4 | (69/70) Accurately ripped
5 | (70/70) Accurately ripped
6 | (70/70) Accurately ripped
[AccurateRip ID: 00068ab3-0021e005-3b059406] found.
Track [ CRC | V2 ] Status
01 [fbfc97a1|3a1cea31] (31+27/58) Accurately ripped
02 [a2b16baa|028fdbe9] (31+26/57) Accurately ripped
03 [e24b56c1|a2d34a07] (31+27/58) Accurately ripped
04 [ccb4c2e1|4b9e3edf] (30+27/57) Accurately ripped
05 [372d82f4|caa54803] (30+27/57) Accurately ripped
06 [d314b13c|57a2a0d7] (30+27/57) Accurately ripped

Track Peak [ CRC32 ] [W/O NULL] [ LOG ]
– 90,6 [A40FEB81] [3FB9FEB8] CRC32
01 83,1 [E7418454] [0824C3F5]
02 86,0 [3FFEF29B] [948AB7D6]
03 90,6 [A8DDCF56] [6992C846]
04 71,2 [759859F9] [0D4FAD2F]
05 80,5 [5361AFD2] [3113C5BB]
06 81,2 [8BA0EFC0] [D476661B]


Anthrax: Singles & EP's Collection part 1 (1985-1990)

Tracklist CD5 - 1990 - Got The Time:
Japan Polystar PSDD-1006

01. Got The Time (Edit) (2:17)
02. Got The Time (Album Version) (2:45)

Exact Audio Copy V0.99 prebeta 5 from 4. May 2009

EAC extraction logfile from 7. October 2011, 11:06

Anthrax / Got The Time (PSDD-1006)

Used drive : PLEXTOR DVDR PX-760A Adapter: 0 ID: 0

Read mode : Secure
Utilize accurate stream : Yes
Defeat audio cache : Yes
Make use of C2 pointers : No

Read offset correction : 30
Overread into Lead-In and Lead-Out : No
Fill up missing offset samples with silence : Yes
Delete leading and trailing silent blocks : No
Null samples used in CRC calculations : Yes
Used interface : Native Win32 interface for Win NT & 2000

Used output format : User Defined Encoder
Selected bitrate : 1024 kBit/s
Quality : High
Add ID3 tag : No
Command line compressor : C:\Program Files (x86)\Exact Audio Copy\Flac\flac.exe
Additional command line options : -8 -V %s


TOC of the extracted CD

Track | Start | Length | Start sector | End sector
––––––––––––––––––––––––––––-
1 | 0:00.00 | 2:16.55 | 0 | 10254
2 | 2:16.55 | 2:45.08 | 10255 | 22637


Range status and errors

Selected range

Filename D:\bki71\Anthrax\Anthrax - Got The Time (PSDD-1006).wav

Peak level 100.0 %
Range quality 99.9 %
Test CRC 35295BF9
Copy CRC 35295BF9
Copy OK

No errors occurred


AccurateRip summary

Track 1 not present in database
Track 2 not present in database

None of the tracks are present in the AccurateRip database

End of status report


[CUETools log; Date: 08.02.2018 14:33:08; Version: 2.1.5]
[CTDB TOCID: 2Z2TWsSflqQaW8g3zNwJTW_QgJQ-] disk not present in database.
[AccurateRip ID: 0000807d-00015969-0e012d02] disk not present in database.

Track Peak [ CRC32 ] [W/O NULL] [ LOG ]
– 100,0 [35295BF9] [D0F79749] CRC32
01 98,8 [DD98F27F] [10282B82]
02 100,0 [2DD11378] [D58AEA46]


Anthrax: Singles & EP's Collection part 1 (1985-1990)

Tracklist CD6 - 1990 - Got The Time:
1991, Japan Polystar PSCD-1080

01. Got The Time (2:49)
02. I'm The Man (The Illest Version Ever) (6:02)
03. Who Put This Together (6:13)

Exact Audio Copy V0.99 prebeta 5 from 4. May 2009

EAC extraction logfile from 12. October 2011, 15:53

Anthrax / Got The Time (PSCD-1080)

Used drive : PLEXTOR DVDR PX-760A Adapter: 0 ID: 0

Read mode : Secure
Utilize accurate stream : Yes
Defeat audio cache : Yes
Make use of C2 pointers : No

Read offset correction : 30
Overread into Lead-In and Lead-Out : No
Fill up missing offset samples with silence : Yes
Delete leading and trailing silent blocks : No
Null samples used in CRC calculations : Yes
Used interface : Native Win32 interface for Win NT & 2000

Used output format : User Defined Encoder
Selected bitrate : 1024 kBit/s
Quality : High
Add ID3 tag : No
Command line compressor : C:\Program Files (x86)\Exact Audio Copy\Flac\flac.exe
Additional command line options : -8 -V %s


TOC of the extracted CD

Track | Start | Length | Start sector | End sector
––––––––––––––––––––––––––––-
1 | 0:00.37 | 2:48.63 | 37 | 12699
2 | 2:49.25 | 6:01.55 | 12700 | 39829
3 | 8:51.05 | 6:13.27 | 39830 | 67831


Range status and errors

Selected range

Filename D:\bki71\Anthrax\Anthrax - Got The Time (PSCD-1080).wav

Peak level 97.5 %
Range quality 100.0 %
Test CRC FDEE579E
Copy CRC FDEE579E
Copy OK

No errors occurred


AccurateRip summary

Track 1 accurately ripped (confidence 3) [5677D8F8]
Track 2 accurately ripped (confidence 3) [0DEF8FED]
Track 3 accurately ripped (confidence 3) [6B309D40]

All tracks accurately ripped

End of status report


[CUETools log; Date: 08.02.2018 14:33:30; Version: 2.1.5]
Pregap length 00:00:37.
[CTDB TOCID: H4D46hnLpSLAZJ..F7Z4kfbZEps-] found.
Track | CTDB Status
1 | (3/3) Accurately ripped
2 | (3/3) Accurately ripped
3 | (3/3) Accurately ripped
[AccurateRip ID: 0001d64f-000659ff-16038803] found.
Track [ CRC | V2 ] Status
01 [5677d8f8|68b98743] (3+0/3) Accurately ripped
02 [0def8fed|999d824e] (3+0/3) Accurately ripped
03 [6b309d40|75303515] (3+0/3) Accurately ripped

Track Peak [ CRC32 ] [W/O NULL] [ LOG ]
– 97,5 [FDEE579E] [3F647F2B] CRC32
01 62,1 [DB0CA55A] [B1825ED3]
02 95,8 [25C888CD] [722DE6D1]
03 97,5 [AC8F9811] [B04785E6]



All thanks go to bki71

Anthrax or Anthrax in my Blog

Download Anthrax: Singles & EP's Collection part 1 (1985-1990):