Subcategories

Antonella Ruggiero - La Vita Imprevidibile Delle Canzoni (2016)

Posted By: popsakov
Antonella Ruggiero - La Vita Imprevidibile Delle Canzoni (2016)

Antonella Ruggiero - La Vita Imprevidibile Delle Canzoni (2016)
EAC Rip | WavPack (Img) + Cue + Log ~ 355 Mb | Scans Included (JPG, 400 dpi) | RAR 5% Recovery
Vocal, Classical Crossover | Sony Classical / Sony Music / Libera #88985388852

Italian pop singer Antonella Ruggiero used to sing at parties as a child, her first step to becoming a local star years later. After attending the Fine Arts Academy, she started working as a designer for an advertising company. In 1975, Ruggiero joined Matia Bazar, a popular vocal group founded by Aldo Stilita, which achieved international recognition in the late '70s. In October 1989, she decided to leave the band. After an inspiring length of time in India, Ruggiero began her solo career with the release of an album called Libera in 1996. That was followed by 1997's Registrazioni Moderne, produced by Roberto Colombo. It included the song "Per Un'Ora d'Amore," which climbed the most important Italian charts. In 1998, she came in second place at the San Remo Festival for singing "Amore Lontanissimo."
~ All Music
Antonella Ruggiero - La Vita Imprevidibile Delle Canzoni (2016)


***************

Antonella Ruggiero - La Vita Imprevidibile Delle Canzoni (2016)

Antonella Ruggiero - La Vita Imprevidibile Delle Canzoni (2016)

Track List:

01. Cavallo Bianco [4:57]
02. Quando Balliamo [4:47]
03. Vacanze Romane [5:37]
04. Echi D'Infinito [3:46]
05. Controvento [4:02]
06. Aristocratica [4:47]
07. Elettrochoc [3:38]
08. Amore Lontanissimo [4:42]
09. Ultima Volonta [3:44]
10. Non Ti Dimentico [3:55]
11. Ti Sento [3:57]
12. Di Un Amore [4:52]
13. Fantasia [4:20]
14. Il Canto Dell'Amore [3:57]
15. Per Un'Ora D'Amore [5:35]

Exact Audio Copy V1.3 from 2. September 2016

EAC extraction logfile from 25. February 2017, 13:20

Antonella Ruggiero / La Vita Imprevidibile Delle Canzoni

Used drive : TSSTcorpCDDVDW SH-224DB Adapter: 1 ID: 0

Read mode : Secure
Utilize accurate stream : Yes
Defeat audio cache : Yes
Make use of C2 pointers : No

Read offset correction : 6
Overread into Lead-In and Lead-Out : No
Fill up missing offset samples with silence : Yes
Delete leading and trailing silent blocks : No
Null samples used in CRC calculations : Yes
Used interface : Native Win32 interface for Win NT & 2000

Used output format : User Defined Encoder
Selected bitrate : 1024 kBit/s
Quality : High
Add ID3 tag : No
Command line compressor : C:\Program Files (x86)\Exact Audio Copy\wavpack.exe
Additional command line options : -hm %source% %dest%


TOC of the extracted CD

Track | Start | Length | Start sector | End sector
––––––––––––––––––––––––––––-
1 | 0:00.00 | 4:57.01 | 0 | 22275
2 | 4:57.01 | 4:46.57 | 22276 | 43782
3 | 9:43.58 | 5:37.30 | 43783 | 69087
4 | 15:21.13 | 3:46.02 | 69088 | 86039
5 | 19:07.15 | 4:01.55 | 86040 | 104169
6 | 23:08.70 | 4:47.20 | 104170 | 125714
7 | 27:56.15 | 3:37.52 | 125715 | 142041
8 | 31:33.67 | 4:41.39 | 142042 | 163155
9 | 36:15.31 | 3:43.74 | 163156 | 179954
10 | 39:59.30 | 3:55.29 | 179955 | 197608
11 | 43:54.59 | 3:57.17 | 197609 | 215400
12 | 47:52.01 | 4:51.51 | 215401 | 237276
13 | 52:43.52 | 4:19.63 | 237277 | 256764
14 | 57:03.40 | 3:57.32 | 256765 | 274571
15 | 61:00.72 | 5:35.00 | 274572 | 299696


Range status and errors

Selected range

Filename G:\iso\Antonella Ruggiero - La Vita Imprevidibile Delle Canzoni\Antonella Ruggiero - La Vita Imprevidibile Delle Canzoni.wav

Peak level 93.3 %
Extraction speed 2.1 X
Range quality 99.9 %
Test CRC 2E984867
Copy CRC 2E984867
Copy OK

No errors occurred


AccurateRip summary

Track 1 accurately ripped (confidence 1) [8A1E1FAB] (AR v2)
Track 2 accurately ripped (confidence 1) [82E6C4A5] (AR v2)
Track 3 accurately ripped (confidence 1) [5DFDE66D] (AR v2)
Track 4 accurately ripped (confidence 1) [70AA6DA5] (AR v2)
Track 5 accurately ripped (confidence 1) [5D8A7A29] (AR v2)
Track 6 accurately ripped (confidence 1) [871D66E1] (AR v2)
Track 7 accurately ripped (confidence 1) [94C293BE] (AR v2)
Track 8 accurately ripped (confidence 1) [DD512B1E] (AR v2)
Track 9 accurately ripped (confidence 1) [56A3C33A] (AR v2)
Track 10 accurately ripped (confidence 1) [DAC11542] (AR v2)
Track 11 accurately ripped (confidence 1) [BC5357B7] (AR v2)
Track 12 accurately ripped (confidence 1) [E8A477B7] (AR v2)
Track 13 accurately ripped (confidence 1) [2E75E368] (AR v2)
Track 14 accurately ripped (confidence 1) [F5A7B277] (AR v2)
Track 15 accurately ripped (confidence 1) [FC11A19D] (AR v2)

All tracks accurately ripped

End of status report

–– CUETools DB Plugin V2.1.6

[CTDB TOCID: e4OdOyf5YPwi7ML.4CPnwEGwGCs-] found
Submit result: e4OdOyf5YPwi7ML.4CPnwEGwGCs- has been confirmed
Track | CTDB Status
1 | (7/7) Accurately ripped
2 | (7/7) Accurately ripped
3 | (7/7) Accurately ripped
4 | (7/7) Accurately ripped
5 | (7/7) Accurately ripped
6 | (7/7) Accurately ripped
7 | (7/7) Accurately ripped
8 | (7/7) Accurately ripped
9 | (7/7) Accurately ripped
10 | (7/7) Accurately ripped
11 | (7/7) Accurately ripped
12 | (7/7) Accurately ripped
13 | (7/7) Accurately ripped
14 | (7/7) Accurately ripped
15 | (7/7) Accurately ripped


==== Log checksum 5CF130CB2D8A15EA21D16D15768233DB66BA60DF92BEC77912B1AAEAD11CAC83 ====

foobar2000 1.3.16 / Dynamic Range Meter 1.1.1
log date: 2018-01-05 17:06:15

––––––––––––––––––––––––––––––––––––––––
Analyzed: Antonella Ruggiero / La Vita Imprevidibile Delle Canzoni
––––––––––––––––––––––––––––––––––––––––

DR Peak RMS Duration Track
––––––––––––––––––––––––––––––––––––––––
DR9 -0.90 dB -14.13 dB 4:57 01-Cavallo Bianco
DR11 -0.78 dB -15.79 dB 4:47 02-Quando Balliamo
DR10 -0.69 dB -13.57 dB 5:37 03-Vacanze Romane
DR10 -0.81 dB -14.44 dB 3:46 04-Echi D'Infinito
DR9 -0.71 dB -13.34 dB 4:02 05-Controvento
DR10 -0.66 dB -13.77 dB 4:47 06-Aristocratica
DR8 -0.60 dB -11.55 dB 3:38 07-Elettrochoc
DR9 -0.74 dB -14.45 dB 4:42 08-Amore Lontanissimo
DR9 -0.75 dB -12.91 dB 3:44 09-Ultima Volonta
DR8 -0.71 dB -13.20 dB 3:55 10-Non Ti Dimentico
DR7 -0.60 dB -11.96 dB 3:57 11-Ti Sento
DR9 -0.80 dB -14.13 dB 4:52 12-Di Un Amore
DR9 -0.95 dB -14.36 dB 4:20 13-Fantasia
DR9 -0.90 dB -14.47 dB 3:57 14-Il Canto Dell'Amore
DR11 -0.88 dB -16.96 dB 5:35 15-Per Un'Ora D'Amore
––––––––––––––––––––––––––––––––––––––––

Number of tracks: 15
Official DR value: DR9

Samplerate: 44100 Hz
Channels: 2
Bits per sample: 16
Bitrate: 667 kbps
Codec: WavPack
================================================================================

[CUETools log; Date: 05.01.2018 17:06:15; Version: 2.1.5]
[CTDB TOCID: e4OdOyf5YPwi7ML.4CPnwEGwGCs-] found.
Track | CTDB Status
1 | (11/11) Accurately ripped
2 | (11/11) Accurately ripped
3 | (11/11) Accurately ripped
4 | (11/11) Accurately ripped
5 | (11/11) Accurately ripped
6 | (11/11) Accurately ripped
7 | (11/11) Accurately ripped
8 | (11/11) Accurately ripped
9 | (11/11) Accurately ripped
10 | (11/11) Accurately ripped
11 | (11/11) Accurately ripped
12 | (11/11) Accurately ripped
13 | (11/11) Accurately ripped
14 | (11/11) Accurately ripped
15 | (11/11) Accurately ripped
[AccurateRip ID: 0024e38a-019e2c9b-eb0f9b0f] found.
Track [ CRC | V2 ] Status
01 [7089af1f|8a1e1fab] (0+2/2) Accurately ripped
02 [3733d57d|82e6c4a5] (0+2/2) Accurately ripped
03 [a537f49c|5dfde66d] (0+2/2) Accurately ripped
04 [d7a5b9df|70aa6da5] (0+2/2) Accurately ripped
05 [d372cb68|5d8a7a29] (0+2/2) Accurately ripped
06 [3717cac5|871d66e1] (0+2/2) Accurately ripped
07 [1b446d1f|94c293be] (0+2/2) Accurately ripped
08 [7a55902e|dd512b1e] (0+2/2) Accurately ripped
09 [c438bba4|56a3c33a] (0+2/2) Accurately ripped
10 [c3ae98a7|dac11542] (0+2/2) Accurately ripped
11 [588ff372|bc5357b7] (0+2/2) Accurately ripped
12 [ad3d8eaf|e8a477b7] (0+2/2) Accurately ripped
13 [f3dcc776|2e75e368] (0+2/2) Accurately ripped
14 [4a34a784|f5a7b277] (0+2/2) Accurately ripped
15 [ad9130fc|fc11a19d] (0+2/2) Accurately ripped

Track Peak [ CRC32 ] [W/O NULL] [ LOG ]
– 93,3 [2E984867] [7BE2F0D5] CRC32
01 90,1 [FE02639D] [23D7E018]
02 91,4 [FABEF472] [2F98A38E]
03 92,4 [70604228] [5DFBB439]
04 91,0 [9AED206A] [EF91742C]
05 92,1 [2CC83F10] [C8129F86]
06 92,7 [17B2EAF3] [EDCAA03C]
07 93,3 [E6948CFA] [AB0A9EB3]
08 91,8 [7A8469C1] [D9151338]
09 91,7 [95D9D32A] [F1DA33F8]
10 92,1 [308BE8A4] [8C1EE7A6]
11 93,3 [32650A32] [0C787EE0]
12 91,1 [2DE23D42] [908BB49F]
13 89,6 [E3F5EDB7] [84BC992A]
14 90,1 [3CD3FC9A] [EBDAAD77]
15 90,3 [2CE64A6B] [8F7DC10F]

Antonella Ruggiero - La Vita Imprevidibile Delle Canzoni (2016)

All thanks go to shatterhand

>>> Antonella Ruggiero in my Blog <<<