Subcategories

Antonio Florio, La Cappella de’ Turchini - Giuseppe Cavallo: Il Guidizio Universale (2000)

Posted By: ArlegZ
Antonio Florio, La Cappella de’ Turchini - Giuseppe Cavallo: Il Guidizio Universale (2000)

Antonio Florio, La Cappella de’ Turchini - Giuseppe Cavallo: Il Guidizio Universale (2000)
EAC | FLAC | Image (Cue & Log) ~ 277 Mb | Total time: 55:25 | Scans included
Classical | Label: Opus 111 | # OPS 30-262 | Recorded: 1999

The priest Giuseppe Cavallo was Maestro di Canto of the Conservatorio de Santa Maria de Loreto from 1672 until his death in 1684. Otherwise, virtually nothing is known about the composer, and it is only due to the musical archive of the Oratorio di Napoli, a treasure trove of rare scores, that a handful of Cavallo's works survive, including Il Giudizio Universale. This sacred oratorio presents Christ and Saint Michael, a pair of angels, two mortals, and four souls–two damned, two blessed–and begins with Christ commanding the angels to bring on the Last Judgment. What follows is a finely crafted musical drama, except for the confusion caused when the otherwise immaculately presented album fails to reveal which of the seven singers (two sopranos, three tenors, and one bass) is singing which parts. All you can be sure of is that Christ is the excellent bass, Giuseppe Naviglio.
Constructed mainly as a sequence of duets, Il Giudizio Universale is similar in style to Alessandro Scarlatti's musical dramas, and contains some beautiful writing very well realized by Cappella Della Pietà De' Turchini under the direction of Antonio Florio.
–Gary S. Dalkin

Performed:
Roberta Invernizzi , soprano
Roberta Andalo, soprano
Giuseppe De Vittorio, tenor
Rosario Totaro, tenor
Stefano Di Fraia, tenor
Giuseppe Naviglio, basso
La Cappella de’ Turchini
Conductor - Antonio Florio

Track List:
01. PRIMA PARTE. Sinfonia
02. Cristo: Ah non dee l'ira mia più stare a freno
03. Angeli: Il divino furore acceso è già
04. Cristo: Del divino furore
05. Mortali: Delitie, contenti ch'i cori beate
06. Mortale I: Quant'è dolce in gioco e in riso dimorar fin che si può
07. Marchitelli Tempo di sonata
08. Angeli: Più non si può soffrir
09. Mortele I: O vicenda funesta
10. Angelo II: Monti di foco ardente, cadan nel mar
11. Mortali: O che tenebre tremende
12. Coro a 5: Or qui chiaro si scerne
13. SECONDA PARTE. Cristo: Già le miamme giutissime e sdegnose
14. Anima beata II: Queste voci del tornaro a pena
15. Anima beata I: O corpi obedienti
16. S.Michele: O rege in faccia a cui treman gli augusti
17. Cristo: O dal mio genitore benedette e gradite squadre felici
18. Cristo: Se voi me non miraste
19. Anima beata I & II: Porporine cicatrici
20. Cristo: Ma voi ch'a me negaste
21. Anima dannata I & II: O sentenza funesta
22. Anima beata I: Ite pur maledetti
23. Anima dannata II: Maledetti nostri errori
24. Anima beata I & II: Quanto cara a noi risplendi
25. Anima beata I & II: Su, su corriamo
26. Marchitelli Tempo di sonata
27. Coro a 5: Or de' le pene e da le gioie udite la vita ch'avanza


Exact Audio Copy V1.3 from 2. September 2016

EAC extraction logfile from 23. March 2018, 18:25

Antonio Florio, Cappella de’ Turchini / Cavallo - Il Guidizio Universale

Used drive : HL-DT-STDVDRAM GH24NS95 Adapter: 1 ID: 0

Read mode : Secure
Utilize accurate stream : Yes
Defeat audio cache : Yes
Make use of C2 pointers : No

Read offset correction : 6
Overread into Lead-In and Lead-Out : No
Fill up missing offset samples with silence : Yes
Delete leading and trailing silent blocks : No
Null samples used in CRC calculations : Yes
Used interface : Native Win32 interface for Win NT & 2000

Used output format : User Defined Encoder
Selected bitrate : 128 kBit/s
Quality : High
Add ID3 tag : No
Command line compressor : C:\Program Files\Exact Audio Copy\Flac\flac.exe
Additional command line options : -V -8 -T "Date=%year%" -T "Genre=%genre%" %source%


TOC of the extracted CD

Track | Start | Length | Start sector | End sector
––––––––––––––––––––––––––––-
1 | 0:00.00 | 5:15.37 | 0 | 23661
2 | 5:15.37 | 0:41.08 | 23662 | 26744
3 | 5:56.45 | 3:41.52 | 26745 | 43371
4 | 9:38.22 | 1:13.23 | 43372 | 48869
5 | 10:51.45 | 1:27.45 | 48870 | 55439
6 | 12:19.15 | 3:57.47 | 55440 | 73261
7 | 16:16.62 | 1:26.40 | 73262 | 79751
8 | 17:43.27 | 1:15.10 | 79752 | 85386
9 | 18:58.37 | 1:13.43 | 85387 | 90904
10 | 20:12.05 | 2:56.35 | 90905 | 104139
11 | 23:08.40 | 3:11.50 | 104140 | 118514
12 | 26:20.15 | 1:57.00 | 118515 | 127289
13 | 28:17.15 | 1:18.45 | 127290 | 133184
14 | 29:35.60 | 1:46.25 | 133185 | 141159
15 | 31:22.10 | 1:46.20 | 141160 | 149129
16 | 33:08.30 | 0:59.04 | 149130 | 153558
17 | 34:07.34 | 2:25.71 | 153559 | 164504
18 | 36:33.30 | 2:00.17 | 164505 | 173521
19 | 38:33.47 | 1:17.38 | 173522 | 179334
20 | 39:51.10 | 2:12.50 | 179335 | 189284
21 | 42:03.60 | 0:56.25 | 189285 | 193509
22 | 43:00.10 | 3:04.00 | 193510 | 207309
23 | 46:04.10 | 2:23.22 | 207310 | 218056
24 | 48:27.32 | 3:27.28 | 218057 | 233609
25 | 51:54.60 | 0:52.37 | 233610 | 237546
26 | 52:47.22 | 0:47.55 | 237547 | 241126
27 | 53:35.02 | 1:48.05 | 241127 | 249231


Range status and errors

Selected range

Filename C:\Program Files\Exact Audio Copy\Flac\Cavallo - Il Guidizio Universale.wav

Peak level 96.2 %
Extraction speed 7.0 X
Range quality 100.0 %
Test CRC D002AE67
Copy CRC D002AE67
Copy OK

No errors occurred

End of status report

==== Log checksum 06EE7724E88A324C376B04C190A3E8EC7DCAD401B90BE173C95FF34AFD1C9FAF ====

Antonio Florio, La Cappella de’ Turchini - Giuseppe Cavallo: Il Guidizio Universale (2000)