Subcategories

Antonio Vivaldi: The Fours Seasons / L'Estro Armonico / La Stravaganza / La Cetra / 8 Wind Concertos [REUPLOAD]

Posted By: First Amendment
Antonio Vivaldi: The Fours Seasons / L'Estro Armonico / La Stravaganza / La Cetra / 8 Wind Concertos [REUPLOAD]

Vivaldi: The Fours Seasons / L'Estro Armonico / La Stravaganza / La Cetra / 8 Wind Concertos
EAC Rip | FLAC+LOG+CUE | Booklet & Covers | RAR 2.18GB
7 CD | Classical | 2003 | Decca | Playing Time: 462'05"

Anyone seeking a respectable Vivaldi collection by dependable performers will find this seven-disc set from Decca more than suitable for everyday needs and quite rewarding on repeated listening.
L'Estro Armonico, La Stravaganza, La Cetra, and the 8 wind concertos presented here are among the most popular of Vivaldi's varied output, and are central to any serious collection of his works. Marriner and his scholarly musicians introduced many period performance practices in their renditions, and though they play modern instruments in most cases, there are several occasions where Baroque originals or modern copies are used. There are many instances where unusual effects are achieved, but one of the most striking is the sul ponticello bowing in the opening of the "Winter" Concerto, a chilling passage rarely matched in other recordings.
TRACKS

Cd 1 (475 472-2)

• The Four Seasons : Concertos 1-4 From « Il Cimento Dell'Armonia E Dell'Invenzione », Op.8
Concerto No.1 In E Major, RV 269, "Spring"
Concerto No.2 In G Minor, RV 315, "Summer"
Concerto No.3 In F Major, RV 293, "Autumn"
Concerto No.4 In F Minor, RV 297, "Winter"
• 2 Concertos For Wind Instruments
Concerto For Two Oboes, Bassoon, Two Horns And Violin In F Major, RV 569
Concerto For Two Horns In F Major, RV 539

Cd 2 (475 473-2)

• L'Estro Armonico, Op.3

Concerto No.1 In D Major, RV 549 (Con Quattro Violini Obligati)
Concerto No.2 In F Minor, RV 578 (Con Due Violini E Violoncello Obligato)
Concerto No.3 In G Major, RV 310 (Con Violino Solo Obligato)
Concerto No.4 In E Minor, RV 550 (Con Quattro Violini Obligati)
Concerto No.5 In A Major, RV 519 (Con Due Violini Obligati)
Concerto No.6 In A Minor, RV 356 (Con Violino Solo Obligato)
Concerto No.7 In F Major, RV 567 (Con Quattro Violini E Violoncello Obligato)
Concerto No.8 In A Minor, RV 522 (Con Quattro Due Violini Obligati)
Concerto No.9 In D Major, RV 230 (Con Violino Solo Obligato)
Cd 3 (475 474-2)

Cd 3 (475 474-2)

• L'Estro Armonico, Op.3

Concerto No.10 In B Minor, RV 580 (Con Quattro Violini E Violoncello Obligato)
Concerto No.11 In D Minor, RV 565 (Con Due Violini E Violoncello Obligato)
Concerto No.12 In E Major, RV 265 (Con Violino Solo Obligato)
• 4 Concertos For Wind Instruments
Oboe Concerto In F Major, RV 456
Bassoon Concerto In A Minor, RV 498
Flute Concerto In C Minor, RV 441
Concerto For Two Oboes, Bassoon, Two Horns And Violin In F Major, RV 574

Cd 4 (475 475-2)

• La Stravaganza, Op.4

Concerto No.1 In B Flat Major, RV 383a
Concerto No.2 In E Minor, RV 279
Concerto No.3 In G Major, RV 301
Concerto No.4 In A Minor, RV 357
Concerto No.5 In A Major, RV 347
Concerto No.6 In G Minor, RV 316a

Cd 5 (475 476-2)

• La Stavaganza, Op.4

Concerto No.7 In C Major, RV 185
Concerto No.8 In D Minor, RV 249
Concerto No.9 In F Major, RV 284
Concerto No.10 In C Minor, RV 196
Concerto No.11 In D Major, RV 204
Concerto No.12 In G Major, RV 298

Cd 6 (475 477-2)

• La Cetra, Op.9

Concerto No.1 In C Major, RV 181a
Concerto No.2 In A Major, RV 345
Concerto No.3 In G Minor, RV 334
Concerto No.4 In E Major, RV 263a
Concerto No.5 In A Minor, RV 358
Concerto No.6 In A Major, RV 348
Concerto No.7 In B Major, RV 359

Cd 7 (475 478-2)

• La Cetra, Op.9

Concerto No.8 In D Minor, RV 238
Concerto No.9 In B Flat Major, RV 530
Concerto No.10 In G Major, RV 300
Concerto No.11 In C Minor, RV 198a
Concerto No.12 In B Minor, RV 391
• 2 Concertos For Wind Instruments
Concerto In D Minor For Two Oboes, RV 535
Piccolo Concerto In C Major, RV 443




Antonio Vivaldi: The Fours Seasons / L'Estro Armonico / La Stravaganza / La Cetra / 8 Wind Concertos [REUPLOAD]

Sir Neville Marriner

Academy of St. Martin in the Fields


Exact Audio Copy V0.99 prebeta 4 from 23. January 2008

EAC extraction logfile from 15. June 2008, 23:30

Marriner - ASMF, Alan Loveday, Iona Brown, Carmel Kaine / Vivaldi : Concertos - The Four Seasons - Disc 1 of 7

Used drive : PLEXTOR DVDR PX-760A Adapter: 2 ID: 0

Read mode : Secure
Utilize accurate stream : Yes
Defeat audio cache : Yes
Make use of C2 pointers : No

Read offset correction : 0
Overread into Lead-In and Lead-Out : No
Fill up missing offset samples with silence : Yes
Delete leading and trailing silent blocks : No
Null samples used in CRC calculations : Yes
Used interface : Native Win32 interface for Win NT & 2000

Used output format : Monkey's Audio Lossless Encoder v3.99 DLL
Sample format : High Lossless Compression


TOC of the extracted CD

Track | Start | Length | Start sector | End sector
––––––––––––––––––––––––––––-
1 | 0:00.00 | 3:11.03 | 0 | 14327
2 | 3:11.03 | 3:30.21 | 14328 | 30098
3 | 6:41.24 | 4:40.05 | 30099 | 51103
4 | 11:21.29 | 5:50.27 | 51104 | 77380
5 | 17:11.56 | 2:36.36 | 77381 | 89116
6 | 19:48.17 | 2:53.15 | 89117 | 102106
7 | 22:41.32 | 5:00.48 | 102107 | 124654
8 | 27:42.05 | 2:55.21 | 124655 | 137800
9 | 30:37.26 | 3:29.60 | 137801 | 153535
10 | 34:07.11 | 3:18.07 | 153536 | 168392
11 | 37:25.18 | 2:19.21 | 168393 | 178838
12 | 39:44.39 | 3:04.05 | 178839 | 192643
13 | 42:48.44 | 13:20.72 | 192644 | 252715
14 | 56:09.41 | 7:28.03 | 252716 | 286318


Range status and errors

Selected range

Filename F:\UPS\VA.C.SNM.AoSMitF\VA.C.SNM.AoSMitF.CD01\Marriner - ASMF, Alan Loveday, Iona Brown, Carmel Kaine - Vivaldi Concertos - The Four Seasons - Disc 1 of 7.ape

Peak level 100.0 %
Range quality 100.0 %
Copy CRC 0D3085AC
Copy OK

No errors occurred

End of status report


Exact Audio Copy V0.99 prebeta 4 from 23. January 2008

EAC extraction logfile from 16. June 2008, 0:15

Marriner Neville - ASMF / Vivaldi : Concertos :L'Estro Armonico op. 3, Nos.1-9 - Disc 2 of 7

Used drive : _NEC DV-5800E Adapter: 4 ID: 0

Read mode : Secure
Utilize accurate stream : Yes
Defeat audio cache : Yes
Make use of C2 pointers : No

Read offset correction : 6
Overread into Lead-In and Lead-Out : No
Fill up missing offset samples with silence : Yes
Delete leading and trailing silent blocks : No
Null samples used in CRC calculations : Yes
Used interface : Native Win32 interface for Win NT & 2000

Used output format : Monkey's Audio Lossless Encoder v3.99 DLL
Sample format : High Lossless Compression


TOC of the extracted CD

Track | Start | Length | Start sector | End sector
––––––––––––––––––––––––––––-
1 | 0:00.32 | 3:03.53 | 32 | 13809
2 | 3:04.10 | 1:48.42 | 13810 | 21951
3 | 4:52.52 | 2:33.68 | 21952 | 33494
4 | 7:26.45 | 1:33.42 | 33495 | 40511
5 | 9:00.12 | 2:24.15 | 40512 | 51326
6 | 11:24.27 | 4:02.55 | 51327 | 69531
7 | 15:27.07 | 2:34.15 | 69532 | 81096
8 | 18:01.22 | 2:14.23 | 81097 | 91169
9 | 20:15.45 | 2:03.50 | 91170 | 100444
10 | 22:19.20 | 2:21.62 | 100445 | 111081
11 | 24:41.07 | 1:54.13 | 111082 | 119644
12 | 26:35.20 | 3:01.30 | 119645 | 133249
13 | 29:36.50 | 1:57.60 | 133250 | 142084
14 | 31:34.35 | 2:55.62 | 142085 | 155271
15 | 34:30.22 | 1:53.45 | 155272 | 163791
16 | 36:23.67 | 2:48.13 | 163792 | 176404
17 | 39:12.05 | 2:52.52 | 176405 | 189356
18 | 42:04.57 | 1:58.68 | 189357 | 198274
19 | 44:03.50 | 2:35.57 | 198275 | 209956
20 | 46:39.32 | 2:25.28 | 209957 | 220859
21 | 49:04.60 | 4:31.05 | 220860 | 241189
22 | 53:35.65 | 2:55.22 | 241190 | 254336
23 | 56:31.12 | 3:38.05 | 254337 | 270691
24 | 60:09.17 | 3:11.20 | 270692 | 285036
25 | 63:20.37 | 3:34.00 | 285037 | 301086
26 | 66:54.37 | 2:04.10 | 301087 | 310396
27 | 68:58.47 | 3:30.08 | 310397 | 326154
28 | 72:28.55 | 1:59.37 | 326155 | 335116


Range status and errors

Selected range

Filename F:\UPS\VA.C.SNM.AoSMitF\VA.C.SNM.AoSMitF.CD02\Marriner Neville - ASMF - Vivaldi Concertos L'Estro Armonico op. 3, Nos.1-9 - Disc 2 of 7.ape

Peak level 97.4 %
Range quality 100.0 %
Copy CRC 9B278254
Copy OK

No errors occurred


AccurateRip summary

Track 1 cannot be verified as accurate (confidence 2) [38F26379], AccurateRip returned [DC1697B1]
Track 2 cannot be verified as accurate (confidence 2) [80FCE839], AccurateRip returned [55AA4F6D]
Track 3 cannot be verified as accurate (confidence 2) [8CFB074B], AccurateRip returned [B71EDA21]
Track 4 cannot be verified as accurate (confidence 2) [C3280593], AccurateRip returned [478A5613]
Track 5 cannot be verified as accurate (confidence 2) [4C169ED3], AccurateRip returned [DA7B17A5]
Track 6 cannot be verified as accurate (confidence 2) [87331BB1], AccurateRip returned [326A0F84]
Track 7 cannot be verified as accurate (confidence 2) [5118A15F], AccurateRip returned [C018E2ED]
Track 8 cannot be verified as accurate (confidence 2) [73CB2E2F], AccurateRip returned [7CBF5DFA]
Track 9 cannot be verified as accurate (confidence 2) [B1E86013], AccurateRip returned [D2763EB7]
Track 10 cannot be verified as accurate (confidence 2) [54465754], AccurateRip returned [ECA09C21]
Track 11 cannot be verified as accurate (confidence 2) [0A112580], AccurateRip returned [3B5A2E5D]
Track 12 cannot be verified as accurate (confidence 2) [AFEA09E3], AccurateRip returned [C942822A]
Track 13 cannot be verified as accurate (confidence 2) [BED0C160], AccurateRip returned [1DE68715]
Track 14 cannot be verified as accurate (confidence 2) [A5DBA1ED], AccurateRip returned [000E3BF0]
Track 15 cannot be verified as accurate (confidence 2) [89492AD1], AccurateRip returned [6273F029]
Track 16 cannot be verified as accurate (confidence 2) [C22B14B0], AccurateRip returned [4AD705A6]
Track 17 cannot be verified as accurate (confidence 2) [7CFB842D], AccurateRip returned [D4BADFC6]
Track 18 cannot be verified as accurate (confidence 2) [B7D9223E], AccurateRip returned [6ABF7EEF]
Track 19 cannot be verified as accurate (confidence 2) [9E09A4DF], AccurateRip returned [EBD5BC62]
Track 20 cannot be verified as accurate (confidence 2) [653A6A0B], AccurateRip returned [0C249AE5]
Track 21 cannot be verified as accurate (confidence 2) [244F2628], AccurateRip returned [20EE7692]
Track 22 cannot be verified as accurate (confidence 2) [EEBDEFB2], AccurateRip returned [37D90C44]
Track 23 cannot be verified as accurate (confidence 2) [C5D3DF97], AccurateRip returned [A54171A5]
Track 24 cannot be verified as accurate (confidence 2) [E8BC6953], AccurateRip returned [C260D518]
Track 25 cannot be verified as accurate (confidence 2) [1E432707], AccurateRip returned [EB701FE6]
Track 26 cannot be verified as accurate (confidence 2) [68D04390], AccurateRip returned [541632EA]
Track 27 cannot be verified as accurate (confidence 2) [0DF124D9], AccurateRip returned [BC7E306E]
Track 28 cannot be verified as accurate (confidence 2) [C093F91F], AccurateRip returned [0010525F]

No tracks could be verified as accurate
You may have a different pressing from the one(s) in the database

End of status report


Exact Audio Copy V0.99 prebeta 4 from 23. January 2008

EAC extraction logfile from 17. June 2008, 10:43

Marriner Neville - Academy of St. Martin in the Fields, Neville Marriner / Antonio Vivaldi - L'Estro Armonico op. 3 - 4 Concertos for Wind Instruments - disc 3 of 7

Used drive : _NEC DV-5800E Adapter: 4 ID: 0

Read mode : Secure
Utilize accurate stream : Yes
Defeat audio cache : Yes
Make use of C2 pointers : No

Read offset correction : 6
Overread into Lead-In and Lead-Out : No
Fill up missing offset samples with silence : Yes
Delete leading and trailing silent blocks : No
Null samples used in CRC calculations : Yes
Used interface : Native Win32 interface for Win NT & 2000

Used output format : Monkey's Audio Lossless Encoder v3.99 DLL
Sample format : High Lossless Compression


TOC of the extracted CD

Track | Start | Length | Start sector | End sector
––––––––––––––––––––––––––––-
1 | 0:00.32 | 3:50.15 | 32 | 17296
2 | 3:50.47 | 1:57.23 | 17297 | 26094
3 | 5:47.70 | 3:34.10 | 26095 | 42154
4 | 9:22.05 | 4:06.72 | 42155 | 60676
5 | 13:29.02 | 2:36.40 | 60677 | 72416
6 | 16:05.42 | 2:39.73 | 72417 | 84414
7 | 18:45.40 | 3:16.05 | 84415 | 99119
8 | 22:01.45 | 3:19.52 | 99120 | 114096
9 | 25:21.22 | 2:54.10 | 114097 | 127156
10 | 28:15.32 | 7:48.00 | 127157 | 162256
11 | 36:03.32 | 11:42.00 | 162257 | 214906
12 | 47:45.32 | 10:27.00 | 214907 | 261931
13 | 58:12.32 | 11:43.10 | 261932 | 314666


Range status and errors

Selected range

Filename F:\UPS\VA.C.SNM.AoSMitF\VA.C.SNM.AoSMitF.CD03\Marriner Neville - Academy of St. Martin in the Fields, Neville Marriner - Antonio Vivaldi - L'Estro Armonico op. 3 - 4 Concertos for Wind Instruments - Disc 3 of 7.ape

Peak level 97.1 %
Range quality 100.0 %
Copy CRC 9BC5B2DB
Copy OK

No errors occurred


AccurateRip summary

Track 1 not present in database
Track 2 not present in database
Track 3 not present in database
Track 4 not present in database
Track 5 not present in database
Track 6 not present in database
Track 7 not present in database
Track 8 not present in database
Track 9 not present in database
Track 10 not present in database
Track 11 not present in database
Track 12 not present in database
Track 13 not present in database

None of the tracks are present in the AccurateRip database

End of status report


Exact Audio Copy V0.99 prebeta 4 from 23. January 2008

EAC extraction logfile from 17. June 2008, 11:03

Marriner Neville - Academy of St. Martin-in-the-Fields / Vivaldi: La Stravaganza, op.4 Nos.1-6 - Disc 4of 7

Used drive : _NEC DV-5800E Adapter: 4 ID: 0

Read mode : Secure
Utilize accurate stream : Yes
Defeat audio cache : Yes
Make use of C2 pointers : No

Read offset correction : 6
Overread into Lead-In and Lead-Out : No
Fill up missing offset samples with silence : Yes
Delete leading and trailing silent blocks : No
Null samples used in CRC calculations : Yes
Used interface : Native Win32 interface for Win NT & 2000

Used output format : Monkey's Audio Lossless Encoder v3.99 DLL
Sample format : High Lossless Compression


TOC of the extracted CD

Track | Start | Length | Start sector | End sector
––––––––––––––––––––––––––––-
1 | 0:00.32 | 3:21.13 | 32 | 15119
2 | 3:21.45 | 2:57.62 | 15120 | 28456
3 | 6:19.32 | 2:48.63 | 28457 | 41119
4 | 9:08.20 | 4:21.62 | 41120 | 60756
5 | 13:30.07 | 2:23.25 | 60757 | 71506
6 | 15:53.32 | 3:44.50 | 71507 | 88356
7 | 19:38.07 | 3:20.38 | 88357 | 103394
8 | 22:58.45 | 2:50.25 | 103395 | 116169
9 | 25:48.70 | 3:08.62 | 116170 | 130331
10 | 28:57.57 | 3:09.38 | 130332 | 144544
11 | 32:07.20 | 3:17.12 | 144545 | 159331
12 | 35:24.32 | 3:02.25 | 159332 | 173006
13 | 38:26.57 | 3:54.13 | 173007 | 190569
14 | 42:20.70 | 2:25.37 | 190570 | 201481
15 | 44:46.32 | 3:44.50 | 201482 | 218331
16 | 48:31.07 | 2:49.50 | 218332 | 231056
17 | 51:20.57 | 3:58.50 | 231057 | 248956
18 | 55:19.32 | 4:15.00 | 248957 | 268081


Range status and errors

Selected range

Filename F:\UPS\VA.C.SNM.AoSMitF\VA.C.SNM.AoSMitF.CD04\Marriner Neville - Academy of St. Martin-in-the-Fields - Vivaldi La Stravaganza, op.4 Nos.1-6 - Disc 4of 7.ape

Peak level 91.3 %
Range quality 100.0 %
Copy CRC 9E24238E
Copy OK

No errors occurred


AccurateRip summary

Track 1 not present in database
Track 2 not present in database
Track 3 not present in database
Track 4 not present in database
Track 5 not present in database
Track 6 not present in database
Track 7 not present in database
Track 8 not present in database
Track 9 not present in database
Track 10 not present in database
Track 11 not present in database
Track 12 not present in database
Track 13 not present in database
Track 14 not present in database
Track 15 not present in database
Track 16 not present in database
Track 17 not present in database
Track 18 not present in database

None of the tracks are present in the AccurateRip database

End of status report


Exact Audio Copy V0.99 prebeta 4 from 23. January 2008

EAC extraction logfile from 17. June 2008, 12:06

Marriner Neville - Academy of St. Martin in the Fields / Antonio Vivaldi - La Stravaganza , op. 4 Nos.7-12 - Disc 5 of 7

Used drive : _NEC DV-5800E Adapter: 4 ID: 0

Read mode : Secure
Utilize accurate stream : Yes
Defeat audio cache : Yes
Make use of C2 pointers : No

Read offset correction : 6
Overread into Lead-In and Lead-Out : No
Fill up missing offset samples with silence : Yes
Delete leading and trailing silent blocks : No
Null samples used in CRC calculations : Yes
Used interface : Native Win32 interface for Win NT & 2000

Used output format : Monkey's Audio Lossless Encoder v3.99 DLL
Sample format : High Lossless Compression


TOC of the extracted CD

Track | Start | Length | Start sector | End sector
––––––––––––––––––––––––––––-
1 | 0:00.32 | 4:25.50 | 32 | 19956
2 | 4:26.07 | 1:50.25 | 19957 | 28231
3 | 6:16.32 | 2:11.38 | 28232 | 38094
4 | 8:27.70 | 3:12.07 | 38095 | 52501
5 | 11:40.02 | 1:17.43 | 52502 | 58319
6 | 12:57.45 | 3:15.12 | 58320 | 72956
7 | 16:12.57 | 2:51.63 | 72957 | 85844
8 | 19:04.45 | 2:59.25 | 85845 | 99294
9 | 22:03.70 | 2:43.12 | 99295 | 111531
10 | 24:47.07 | 3:11.63 | 111532 | 125919
11 | 27:58.70 | 2:30.37 | 125920 | 137206
12 | 30:29.32 | 2:53.00 | 137207 | 150181
13 | 33:22.32 | 2:56.50 | 150182 | 163431
14 | 36:19.07 | 2:09.38 | 163432 | 173144
15 | 38:28.45 | 2:10.00 | 173145 | 182894
16 | 40:38.45 | 2:46.50 | 182895 | 195394
17 | 43:25.20 | 3:11.50 | 195395 | 209769
18 | 46:36.70 | 3:55.00 | 209770 | 227394


Range status and errors

Selected range

Filename F:\UPS\VA.C.SNM.AoSMitF\VA.C.SNM.AoSMitF.CD05\Marriner Neville - Academy of St. Martin in the Fields - Antonio Vivaldi - La Stravaganza , op. 4 Nos.7-12 - Disc 5 of 7.ape

Peak level 96.4 %
Range quality 100.0 %
Copy CRC CA3EE145
Copy OK

No errors occurred


AccurateRip summary

Track 1 not present in database
Track 2 cannot be verified as accurate (confidence 2) [5368434D], AccurateRip returned [756AFE34]
Track 3 not present in database
Track 4 cannot be verified as accurate (confidence 2) [C860C6E8], AccurateRip returned [C4098340]
Track 5 cannot be verified as accurate (confidence 2) [8BEC8047], AccurateRip returned [90C0C827]
Track 6 cannot be verified as accurate (confidence 2) [4F8BE903], AccurateRip returned [0AB2D1D4]
Track 7 cannot be verified as accurate (confidence 2) [847D4C6A], AccurateRip returned [BBC89314]
Track 8 cannot be verified as accurate (confidence 2) [E45D2E8C], AccurateRip returned [2C59B226]
Track 9 cannot be verified as accurate (confidence 2) [DBA21E9A], AccurateRip returned [6A5859B7]
Track 10 cannot be verified as accurate (confidence 2) [01EF4356], AccurateRip returned [BD8AA83B]
Track 11 cannot be verified as accurate (confidence 2) [E91421F5], AccurateRip returned [5C905041]
Track 12 not present in database
Track 13 cannot be verified as accurate (confidence 2) [57669A9E], AccurateRip returned [9D177CE2]
Track 14 cannot be verified as accurate (confidence 2) [66567B83], AccurateRip returned [ABC9A2A3]
Track 15 cannot be verified as accurate (confidence 2) [5FF1B340], AccurateRip returned [6F5DC09D]
Track 16 cannot be verified as accurate (confidence 2) [69CCF841], AccurateRip returned [EA83A258]
Track 17 cannot be verified as accurate (confidence 2) [405E789D], AccurateRip returned [D730A18D]
Track 18 cannot be verified as accurate (confidence 2) [046403E3], AccurateRip returned [C493E340]

15 track(s) could not be verified as accurate
3 track(s) not present in the AccurateRip database

No tracks could be verified as accurate
You may have a different pressing from the one(s) in the database

End of status report


Exact Audio Copy V0.99 prebeta 4 from 23. January 2008

EAC extraction logfile from 17. June 2008, 12:56

Iona Brown - Academy of St. Martin in the Fields / Vivaldi Antonio - La Cetra, op.9 Nos.1-7 - Disc 6 of 7

Used drive : _NEC DV-5800E Adapter: 4 ID: 0

Read mode : Secure
Utilize accurate stream : Yes
Defeat audio cache : Yes
Make use of C2 pointers : No

Read offset correction : 6
Overread into Lead-In and Lead-Out : No
Fill up missing offset samples with silence : Yes
Delete leading and trailing silent blocks : No
Null samples used in CRC calculations : Yes
Used interface : Native Win32 interface for Win NT & 2000

Used output format : Monkey's Audio Lossless Encoder v3.99 DLL
Sample format : High Lossless Compression


TOC of the extracted CD

Track | Start | Length | Start sector | End sector
––––––––––––––––––––––––––––-
1 | 0:00.32 | 3:41.00 | 32 | 16606
2 | 3:41.32 | 2:50.13 | 16607 | 29369
3 | 6:31.45 | 2:44.62 | 29370 | 41731
4 | 9:16.32 | 4:17.40 | 41732 | 61046
5 | 13:33.72 | 2:28.73 | 61047 | 72219
6 | 16:02.70 | 3:16.47 | 72220 | 86966
7 | 19:19.42 | 3:37.65 | 86967 | 103306
8 | 22:57.32 | 3:22.25 | 103307 | 118481
9 | 26:19.57 | 3:17.50 | 118482 | 133306
10 | 29:37.32 | 4:45.40 | 133307 | 154721
11 | 34:22.72 | 3:03.63 | 154722 | 168509
12 | 37:26.60 | 3:45.52 | 168510 | 185436
13 | 41:12.37 | 3:40.10 | 185437 | 201946
14 | 44:52.47 | 1:54.53 | 201947 | 210549
15 | 46:47.25 | 3:21.17 | 210550 | 225641
16 | 50:08.42 | 3:52.10 | 225642 | 243051
17 | 54:00.52 | 2:53.43 | 243052 | 256069
18 | 56:54.20 | 5:17.17 | 256070 | 279861
19 | 62:11.37 | 3:13.70 | 279862 | 294406
20 | 65:25.32 | 2:21.55 | 294407 | 305036
21 | 67:47.12 | 3:28.20 | 305037 | 320656


Range status and errors

Selected range

Filename F:\UPS\VA.C.SNM.AoSMitF\VA.C.SNM.AoSMitF.CD06\Iona Brown - Academy of St. Martin in the Fields - Vivaldi Antonio - La Cetra, op.9 Nos.1-7 - Disc 6 of 7.ape

Peak level 100.0 %
Range quality 100.0 %
Copy CRC 2C419AB4
Copy OK

No errors occurred


AccurateRip summary

Track 1 not present in database
Track 2 not present in database
Track 3 not present in database
Track 4 not present in database
Track 5 not present in database
Track 6 not present in database
Track 7 not present in database
Track 8 not present in database
Track 9 not present in database
Track 10 not present in database
Track 11 not present in database
Track 12 not present in database
Track 13 not present in database
Track 14 not present in database
Track 15 not present in database
Track 16 not present in database
Track 17 not present in database
Track 18 not present in database
Track 19 not present in database
Track 20 not present in database
Track 21 not present in database

None of the tracks are present in the AccurateRip database

End of status report


Exact Audio Copy V0.99 prebeta 4 from 23. January 2008

EAC extraction logfile from 17. June 2008, 13:14

Iona Brown - Academy of St. Martin in the Fields / Vivaldi Antonio : La Cetra Op.9 Nos.8-12 - Disc 7 of 7

Used drive : _NEC DV-5800E Adapter: 4 ID: 0

Read mode : Secure
Utilize accurate stream : Yes
Defeat audio cache : Yes
Make use of C2 pointers : No

Read offset correction : 6
Overread into Lead-In and Lead-Out : No
Fill up missing offset samples with silence : Yes
Delete leading and trailing silent blocks : No
Null samples used in CRC calculations : Yes
Used interface : Native Win32 interface for Win NT & 2000

Used output format : Monkey's Audio Lossless Encoder v3.99 DLL
Sample format : High Lossless Compression


TOC of the extracted CD

Track | Start | Length | Start sector | End sector
––––––––––––––––––––––––––––-
1 | 0:00.32 | 3:53.05 | 32 | 17511
2 | 3:53.37 | 2:31.08 | 17512 | 28844
3 | 6:24.45 | 3:20.72 | 28845 | 43916
4 | 9:45.42 | 3:37.08 | 43917 | 60199
5 | 13:22.50 | 3:29.45 | 60200 | 75919
6 | 16:52.20 | 3:08.22 | 75920 | 90041
7 | 20:00.42 | 3:53.20 | 90042 | 107536
8 | 23:53.62 | 3:00.05 | 107537 | 121041
9 | 26:53.67 | 3:10.48 | 121042 | 135339
10 | 30:04.40 | 4:25.20 | 135340 | 155234
11 | 34:29.60 | 2:42.40 | 155235 | 167424
12 | 37:12.25 | 3:35.17 | 167425 | 183566
13 | 40:47.42 | 5:28.45 | 183567 | 208211
14 | 46:16.12 | 2:51.00 | 208212 | 221036
15 | 49:07.12 | 4:33.25 | 221037 | 241536
16 | 53:40.37 | 9:02.03 | 241537 | 282189
17 | 62:42.40 | 10:58.67 | 282190 | 331606


Range status and errors

Selected range

Filename F:\UPS\VA.C.SNM.AoSMitF\VA.C.SNM.AoSMitF.CD07\Iona Brown - Academy of St. Martin in the Fields - Vivaldi Antonio La Cetra Op.9 Nos.8-12 - Disc 7 of 7.ape

Peak level 100.0 %
Range quality 99.9 %
Copy CRC AE38C810
Copy OK

No errors occurred


AccurateRip summary

Track 1 not present in database
Track 2 not present in database
Track 3 not present in database
Track 4 not present in database
Track 5 not present in database
Track 6 not present in database
Track 7 not present in database
Track 8 not present in database
Track 9 not present in database
Track 10 not present in database
Track 11 not present in database
Track 12 not present in database
Track 13 not present in database
Track 14 not present in database
Track 15 not present in database
Track 16 not present in database
Track 17 not present in database

None of the tracks are present in the AccurateRip database

End of status report