Subcategories
Tags
Language
Tags

Antony Hermus, Anhaltische Philharmonie - Daniel-François-Esprit Auber: La Muette de Portici (2013)

Posted By: ArlegZ
Antony Hermus, Anhaltische Philharmonie - Daniel-François-Esprit Auber: La Muette de Portici (2013)

Antony Hermus, Anhaltische Philharmonie - Daniel-François-Esprit Auber: La Muette de Portici (2013)
EAC | FLAC | Image (Cue & Log) ~ 551 Mb | Total time: 135:09 | Scans included
Classical | Label: CPO | # 777 694-2 | Recorded: 2011

Although the great historical opera in five acts by the composer Daniel Francois Esprit Auber was able to experience its 500th performance in 1880, the opera is almost forgotten today and is rarely performed. In April 2010 the work premiered in the original language at the Anhaltisches Theater Dessau under the direction of GMD Antony Hermus and is finally available on cpo. There is probably no other work in the more than 400-year history of the opera that has had such immediate political impact as "La Muette de Portici". How much Auber and Scribe had hit the nerve of their time with this work, the rebellion of the "common people" against a restorative social order, became clear on the occasion of its first performance in Brussels in 1830 in the presence of the Dutch king. The Belgian opera audience believed they saw their own oppressed nation embodied in the mute fishing girl Fenella. The duet Masaniello / Pietro, which calls for an uprising in the name of the holy love of the fatherland and quotes the text of the Marseillaise, electrified the opera audience so much that they stormed out of the theater and occupied the Palace of Justice. This performance thus became the starting point for the Belgian Revolution of 1830, which led to the country's renewed independence from the Netherlands.

Performer:
Masaniello - Diego Torre, tenor
Alphonse - Oscar de la Torre, tenor
Elvire - Angelina Ruzzafante, soprano
Pietro - Wiard Witholt, bass
Opernchor des Anhaltischen Theaters
Anhaltische Philharmonie Dessau
Antony Hermus, conductor

Track List:
CD1:
01. Ouvertura
02. Acte I. No. 1. Introduction et Air: Du prince objet de notre amour (Chœur, Alphonse)
03. Récitatif: Lorenzo, je te vois (Alphonse, Lorenzo)
04. No. 2. Chœur: Mais du cortège qui s'avance (Alphonse, Chœur)
05. No. 3. Récitatif: Plaisir du rang suprême (Elvire)
06. No. 3. Air: O moment enchanteur! (Elvire)
07. No. 4. Scène: Dans ces jardins (Elvire, Dame d'honoeur, Selva, Lorenzo)
08. No. 4. Chœur de la Chapelle: O Dieur puissant! (Chœur, Selva)
09. No. 5. Finale: Ils sont unis! (Chœur, Elvire, Alphonse, Lorenzo, Selva)
10. No. 5. Finale: Rendez le calme (Elvire, Alphonse, Lorenzo, Selva, Chœur)
11. Acte II. No. 6. Chœur: Amis, le soleil va paraître (Chœur, Borella, Masaniello)
12. No. 7. Barcarolle: Amis, le matinée est belle (Masaniello, Borella, Chœur)
13. Récitatif: Mais j'aperçois Pietro (Masaniello, Pietro)
14. No. 8. Duo: Mieux vaut mourir que rester misérable! (Masaniello, Pietro)
15. Récitatif: Que vois-je? Fenella! (Masaniello)
16. No. 9. Finale: Venez, amis, venez partager mes transports (Masaniello, Borella, Pietro, Chœur, Elvire, Borella, Alphonse)
CD2:
01. Acte III. No. 10. Duo: N'espérez pas me fuir (Alphonse, Elvire)
02. No. 11. Chœur du Marché: Au marché qui vient de s'ouvrir
03. No. 12. Finale: Non, je ne me trompe pas (Selva, Masaniello, Chœur)
04. No. 12. Finale: Prière: Saint bienheureux (Masaniello, Pietro, Borello, Chœur)
05. No. 12. Finale: Courons à la vengeance! (Masaniello, Pietro, Borello, Chœur)
06. Acte IV. No. 13. Air et Cavatine: Spectacle affreux (Masaniello)
07. No. 13. Air et Cavatine: Du pauvre seul ami fidèle (Masaniello)
08. No. 14. Cavatine et Chœur: Mais on vient (Masaniello, Pietro, Chœur, Alphonse, Elvire)
09. No. 14. Arbitre d'une vie (Elvire)
10. No. 15. Scène et Chœur: Des ètrangers dans ma chaumière (Masaniello, Alphonse)
11. No. 15. Scène et Chœur: Par le peuple conduits (Pietro, Masaniello, Alphonse, Elvire, Chœur)
12. No. 16. Marche et Chœur: Honneur et gloire! (Chœur, Pietro, Masaniello)
13. Acte V. No. 17. Barcarolle: Voyez du haut de ces rivages (Pietro, Morenom, Chœur)
14. No. 18. Finale: On vient! Silence, amis! (Pietro, Borello, Chœur, Masaniello)
15. No. 18. Finale: L'Ennemil (Pietro, Masaniello, Chœur)


Exact Audio Copy V1.3 from 2. September 2016

EAC extraction logfile from 27. November 2018, 16:47

Antony Hermus, Anhaltische Philharmonie / Auber - La Muette de Portici CD1

Used drive : HL-DT-STDVDRAM GH24NS95 Adapter: 1 ID: 0

Read mode : Secure
Utilize accurate stream : Yes
Defeat audio cache : Yes
Make use of C2 pointers : No

Read offset correction : 6
Overread into Lead-In and Lead-Out : No
Fill up missing offset samples with silence : Yes
Delete leading and trailing silent blocks : No
Null samples used in CRC calculations : Yes
Used interface : Native Win32 interface for Win NT & 2000

Used output format : User Defined Encoder
Selected bitrate : 128 kBit/s
Quality : High
Add ID3 tag : No
Command line compressor : C:\Program Files\Exact Audio Copy\FLAC\FLAC.EXE
Additional command line options : -V -8 -T "Date=%year%" -T "Genre=%genre%" %source%


TOC of the extracted CD

Track | Start | Length | Start sector | End sector
––––––––––––––––––––––––––––-
1 | 0:00.00 | 7:57.55 | 0 | 35829
2 | 7:57.55 | 4:29.07 | 35830 | 56011
3 | 12:26.62 | 2:39.08 | 56012 | 67944
4 | 15:05.70 | 1:52.23 | 67945 | 76367
5 | 16:58.18 | 3:20.37 | 76368 | 91404
6 | 20:18.55 | 3:36.55 | 91405 | 107659
7 | 23:55.35 | 5:34.32 | 107660 | 132741
8 | 29:29.67 | 4:42.13 | 132742 | 153904
9 | 34:12.05 | 4:06.46 | 153905 | 172400
10 | 38:18.51 | 4:10.19 | 172401 | 191169
11 | 42:28.70 | 3:36.66 | 191170 | 207435
12 | 46:05.61 | 4:30.60 | 207436 | 227745
13 | 50:36.46 | 1:03.69 | 227746 | 232539
14 | 51:40.40 | 3:49.42 | 232540 | 249756
15 | 55:30.07 | 3:48.34 | 249757 | 266890
16 | 59:18.41 | 6:44.06 | 266891 | 297196


Range status and errors

Selected range

Filename C:\Program Files\Exact Audio Copy\Flac\Auber - La Muette de Portici CD1.wav

Peak level 90.9 %
Extraction speed 8.1 X
Range quality 100.0 %
Test CRC A391B82D
Copy CRC A391B82D
Copy OK

No errors occurred

End of status report

==== Log checksum A20EAF9D190873D7F0DED9FC2B0F60F07862C49CC940B97870A14E1C62E6B227 ====


Exact Audio Copy V1.3 from 2. September 2016

EAC extraction logfile from 27. November 2018, 17:17

Antony Hermus, Anhaltische Philharmonie / Auber - La Muette de Portici CD2

Used drive : HL-DT-STDVDRAM GH24NS95 Adapter: 1 ID: 0

Read mode : Secure
Utilize accurate stream : Yes
Defeat audio cache : Yes
Make use of C2 pointers : No

Read offset correction : 6
Overread into Lead-In and Lead-Out : No
Fill up missing offset samples with silence : Yes
Delete leading and trailing silent blocks : No
Null samples used in CRC calculations : Yes
Used interface : Native Win32 interface for Win NT & 2000

Used output format : User Defined Encoder
Selected bitrate : 128 kBit/s
Quality : High
Add ID3 tag : No
Command line compressor : C:\Program Files\Exact Audio Copy\FLAC\FLAC.EXE
Additional command line options : -V -8 -T "Date=%year%" -T "Genre=%genre%" %source%


TOC of the extracted CD

Track | Start | Length | Start sector | End sector
––––––––––––––––––––––––––––-
1 | 0:00.00 | 7:11.06 | 0 | 32330
2 | 7:11.06 | 2:12.39 | 32331 | 42269
3 | 9:23.45 | 3:32.16 | 42270 | 58185
4 | 12:55.61 | 3:42.12 | 58186 | 74847
5 | 16:37.73 | 1:32.06 | 74848 | 81753
6 | 18:10.04 | 6:28.22 | 81754 | 110875
7 | 24:38.26 | 2:48.22 | 110876 | 123497
8 | 27:26.48 | 5:57.36 | 123498 | 150308
9 | 33:24.09 | 4:47.12 | 150309 | 171845
10 | 38:11.21 | 0:44.66 | 171846 | 175211
11 | 38:56.12 | 5:20.21 | 175212 | 199232
12 | 44:16.33 | 4:50.69 | 199233 | 221051
13 | 49:07.27 | 5:42.24 | 221052 | 246725
14 | 54:49.51 | 6:29.54 | 246726 | 275954
15 | 61:19.30 | 7:44.10 | 275955 | 310764


Range status and errors

Selected range

Filename C:\Program Files\Exact Audio Copy\Flac\Auber - La Muette de Portici CD2.wav

Peak level 90.1 %
Extraction speed 8.2 X
Range quality 100.0 %
Test CRC B38950D7
Copy CRC B38950D7
Copy OK

No errors occurred

End of status report

==== Log checksum 98AC16EAE4DE9C286C003C798CB2780668992D201E492FC3A345ECB0AAFBF388 ====

Antony Hermus, Anhaltische Philharmonie - Daniel-François-Esprit Auber: La Muette de Portici (2013)

Thanks to the original releaser