Subcategories
Tags
Language
Tags

Aquelarre - Brumas (1974) [Reissue 1997]

Posted By: gribovar
Aquelarre - Brumas (1974) [Reissue 1997]

Aquelarre - Brumas (1974) [Reissue 1997]
EAC Rip | FLAC (tracks+.cue+log) - 259 MB | MP3 CBR 320 kbps (LAME 3.93) - 103 MB | Covers - 44 MB
Genre: Progressive/Psychedelic Rock | RAR 3% Rec. | Label: Sony Music (2-484610)

Aquelarre (meaning witches nocturnal meeting with the devil) was formed after the dissolution of the band Almendra in 1970, as its bass player Emilio del Güercio and drummer Rodolfo Garcia joined up with guitar player Héctor Stark and keyboard player Hugo González Neira joined up. They performed in B.A.Rock II festival 1971, and their first studio album "Aquelarre" was released in 1972. It's cover was drawn by the band's bass player, who became graphic designer later. Their music is sophisticated psychedelic rock with very impressionistic moments, artistic arrangements, surrealistic themes and they have a jazzy rhythm section. During next years they released three more albums, "Candiles" in 1973, and it's cover is a painting of Goya, which name is the same as the bands name! Third and their most popular album "Brumas" was released in 1974. After this the band moved to Spain, and they released the album "Siesta" in 1975. After this they had a tour in Spain, but they didn't get the success they searched, and in 1977 they had their goodbye concert in Argentina without González Neira, who stayed in Spain. After their dissolution Rodolfo Garcia joined Tantor, and Emilio del Güergcio went to have a solo career.

Tracklist:
01. Parte del Día
02. Silencio Marginal
03. Aniñada
04. Brumas en la Bruma
05. Milagro de Pueblo
06. Aves Rapaces
07. Mirando Adentro
08. Violencia en el Parque (Bonus track)
09. Ceremonias Para Disolver (Bonus track)

Total time: 43:46

Exact Audio Copy V1.0 beta 5 from 2. April 2015

EAC extraction logfile from 8. August 2016, 19:13

Aquelarre / Brumas

Used drive : ASUS DRW-24F1MT Adapter: 1 ID: 0

Read mode : Secure
Utilize accurate stream : Yes
Defeat audio cache : Yes
Make use of C2 pointers : No

Read offset correction : 6
Overread into Lead-In and Lead-Out : No
Fill up missing offset samples with silence : Yes
Delete leading and trailing silent blocks : No
Null samples used in CRC calculations : Yes
Used interface : Native Win32 interface for Win NT & 2000
Gap handling : Appended to previous track

Used output format : User Defined Encoder
Selected bitrate : 1024 kBit/s
Quality : High
Add ID3 tag : No
Command line compressor : C:\Program Files (x86)\Exact Audio Copy\FLAC\flac.exe
Additional command line options : -8 -V -T "ARTIST=%artist%" -T "TITLE=%title%" -T "ALBUM=%albumtitle%" -T "DATE=%year%" -T "TRACKNUMBER=%tracknr%" -T "GENRE=%genre%" -T "PERFORMER=%albuminterpret%" -T "COMPOSER=%composer%" %haslyrics%–tag-from-file=LYRICS="%lyricsfile%"%haslyrics% -T "ALBUMARTIST=%albumartist%" -T "DISCNUMBER=%cdnumber%" -T "TOTALDISCS=%totalcds%" -T "TOTALTRACKS=%numtracks%" -T "COMMENT=%comment%" %source% -o %dest%


TOC of the extracted CD

Track | Start | Length | Start sector | End sector
––––––––––––––––––––––––––––-
1 | 0:00.00 | 6:12.07 | 0 | 27906
2 | 6:12.07 | 3:29.30 | 27907 | 43611
3 | 9:41.37 | 3:54.45 | 43612 | 61206
4 | 13:36.07 | 3:51.28 | 61207 | 78559
5 | 17:27.35 | 8:03.30 | 78560 | 114814
6 | 25:30.65 | 3:39.05 | 114815 | 131244
7 | 29:09.70 | 5:55.60 | 131245 | 157929
8 | 35:05.55 | 5:14.20 | 157930 | 181499
9 | 40:20.00 | 3:26.17 | 181500 | 196966


Track 1

Filename D:\Musica\Projectos\01. Parte del Día.wav

Pre-gap length 0:00:02.00

Peak level 100.0 %
Extraction speed 1.8 X
Track quality 100.0 %
Test CRC 723190D4
Copy CRC 723190D4
Accurately ripped (confidence 1) [303E2DAC] (AR v2)
Copy OK

Track 2

Filename D:\Musica\Projectos\02. Silencio Marginal.wav

Pre-gap length 0:00:02.06

Peak level 99.9 %
Extraction speed 1.9 X
Track quality 100.0 %
Test CRC 441C93F7
Copy CRC 441C93F7
Accurately ripped (confidence 1) [9DED1CE8] (AR v2)
Copy OK

Track 3

Filename D:\Musica\Projectos\03. Aniñada.wav

Pre-gap length 0:00:02.53

Peak level 100.0 %
Extraction speed 2.1 X
Track quality 100.0 %
Test CRC 428072DB
Copy CRC 428072DB
Accurately ripped (confidence 1) [4D9F1667] (AR v2)
Copy OK

Track 4

Filename D:\Musica\Projectos\04. Brumas en la Bruma.wav

Pre-gap length 0:00:02.60

Peak level 98.6 %
Extraction speed 1.9 X
Track quality 99.9 %
Test CRC 7229B279
Copy CRC 7229B279
Accurately ripped (confidence 1) [481EEE42] (AR v2)
Copy OK

Track 5

Filename D:\Musica\Projectos\05. Milagro de Pueblo.wav

Pre-gap length 0:00:02.53

Peak level 100.0 %
Extraction speed 2.4 X
Track quality 99.9 %
Test CRC 829C9056
Copy CRC 829C9056
Accurately ripped (confidence 1) [DE481B5C] (AR v2)
Copy OK

Track 6

Filename D:\Musica\Projectos\06. Aves Rapaces.wav

Pre-gap length 0:00:02.24

Peak level 96.4 %
Extraction speed 2.6 X
Track quality 100.0 %
Test CRC C3D09A90
Copy CRC C3D09A90
Accurately ripped (confidence 1) [78D48272] (AR v2)
Copy OK

Track 7

Filename D:\Musica\Projectos\07. Mirando Adentro.wav

Pre-gap length 0:00:02.10

Peak level 100.0 %
Extraction speed 2.9 X
Track quality 100.0 %
Test CRC 2DCFB946
Copy CRC 2DCFB946
Accurately ripped (confidence 1) [4DED4ABE] (AR v2)
Copy OK

Track 8

Filename D:\Musica\Projectos\08. Violencia en el Parque.wav

Pre-gap length 0:00:02.20

Peak level 99.9 %
Extraction speed 3.0 X
Track quality 100.0 %
Test CRC EA3F00C1
Copy CRC EA3F00C1
Accurately ripped (confidence 1) [F2AC383C] (AR v2)
Copy OK

Track 9

Filename D:\Musica\Projectos\09. Ceremonias Para Disolver.wav

Pre-gap length 0:00:00.60

Peak level 100.0 %
Extraction speed 2.9 X
Track quality 100.0 %
Test CRC 570D2026
Copy CRC 570D2026
Accurately ripped (confidence 1) [120582EE] (AR v2)
Copy OK


All tracks accurately ripped

No errors occurred

End of status report

–– CUETools DB Plugin V2.1.6

[CTDB TOCID: 4MA.bwuna5G6IIOib4QjE_FoSAs-] found
Submit result: 4MA.bwuna5G6IIOib4QjE_FoSAs- has been confirmed
Track | CTDB Status
1 | (5/5) Accurately ripped
2 | (4/5) Accurately ripped
3 | (5/5) Accurately ripped
4 | (5/5) Accurately ripped
5 | (5/5) Accurately ripped
6 | (5/5) Accurately ripped
7 | (5/5) Accurately ripped
8 | (4/5) Accurately ripped
9 | (4/5) Accurately ripped


==== Log checksum 5762F12F49206FEB99FE6E80783282055E4DA44A02763AAA9696A3AC294CDC30 ====

[CUETools log; Date: 13.01.2021 21:11:01; Version: 2.1.4]
[CTDB TOCID: 4MA.bwuna5G6IIOib4QjE_FoSAs-] found.
Track | CTDB Status
1 | (8/8) Accurately ripped
2 | (6/8) Accurately ripped
3 | (7/8) Accurately ripped
4 | (8/8) Accurately ripped
5 | (8/8) Accurately ripped
6 | (8/8) Accurately ripped
7 | (8/8) Accurately ripped
8 | (7/8) Accurately ripped
9 | (7/8) Accurately ripped
[AccurateRip ID: 000f29cf-006f5dbe-6c0a4209] found.
Track [ CRC | V2 ] Status
01 [637c7213|303e2dac] (1+1/2) Accurately ripped
02 [edcab68f|9ded1ce8] (1+1/2) Accurately ripped
03 [ece23dab|4d9f1667] (1+1/2) Accurately ripped
04 [f7dfe162|481eee42] (1+1/2) Accurately ripped
05 [de52a45d|de481b5c] (1+1/2) Accurately ripped
06 [3901786a|78d48272] (1+1/2) Accurately ripped
07 [2a41e45d|4ded4abe] (1+1/2) Accurately ripped
08 [a055c2af|f2ac383c] (1+1/2) Accurately ripped
09 [e28ea64e|120582ee] (1+1/2) Accurately ripped

Track Peak [ CRC32 ] [W/O NULL] [ LOG ]
– 100,0 [642F644F] [E8A83721]
01 100,0 [723190D4] [FF830C32] CRC32
02 99,9 [441C93F7] [219D143F] CRC32
03 100,0 [428072DB] [3FCDB49B] CRC32
04 98,6 [7229B279] [D3DB1A54] CRC32
05 100,0 [829C9056] [6480EE59] CRC32
06 96,4 [C3D09A90] [C1A1BE1F] CRC32
07 100,0 [2DCFB946] [16232638] CRC32
08 99,9 [EA3F00C1] [D9E994DD] CRC32
09 99,9 [570D2026] [3266D481] CRC32

Thanks to Indomitable