Subcategories

Arcade Fire - The Reflektor Tapes (2017) [2x Blu-ray]

Posted By: juanchito
Arcade Fire - The Reflektor Tapes (2017) [2x Blu-ray]

Arcade Fire - The Reflektor Tapes (2017)
Blu-ray | BDMV | Disc 1: MPEG-4 AVC 27999 kbps / 1920*1080p / 23,976 fps / 16:9 / High Profile 4.1
English DTS-HD MA 5.1 / 48 kHz / 3752 kbps / 24-bit; English LPCM 2.0 / 48 kHz / 2304 kbps / 24-bit
Disc2: MPEG-4 AVC 27999 kbps / 1920*1080p / 23,976 fps / 16:9 / High Profile 4.1
English DTS-HD MA 5.1 / 96 kHz / 6503 kbps / 24-bit; English LPCM 2.0 / 96 kHz / 4608 kbps / 24-bit
Rock, Indie Rock, Art Rock, Documentary | Length: 01:15:10 + 01:51:15 | 69.41 GB


The Reflektor Tapes is a visually stunning and hypnotic documentary about the making of Arcade Fire's hugely successful 2013 studio album Reflektor by director Kahlil Joseph (who also directed Beyonce's Lemonade film). The film received its premiere at the 2015 Toronto International Film Festival. The documentary captures recording sessions, live performances and the band's time in Haiti, a country with which they have a long-standing relationship. The second disc in the set features Arcade Fire's full length live concert from Earl's Court in London on June 6th, 2014 during the Reflektor tour, which perfectly complements the documentary.


Arcade Fire - The Reflektor Tapes (2017) [2x Blu-ray]

Arcade Fire - The Reflektor Tapes (2017) [2x Blu-ray]

Arcade Fire - The Reflektor Tapes (2017) [2x Blu-ray]

Arcade Fire - The Reflektor Tapes (2017) [2x Blu-ray]

Arcade Fire - The Reflektor Tapes (2017) [2x Blu-ray]

Arcade Fire - The Reflektor Tapes (2017) [2x Blu-ray]

Arcade Fire - The Reflektor Tapes (2017) [2x Blu-ray]



Tracklist

Disc 1
The Reflektor Tapes (documentary)

Bonus
Here Comes the Night Time Special (1080i; 23:39) is a fun live performance by the band.
Promo Videos
- Reflektor (1080p; 7:38)
- We Exist (1080p; 6:22)
- Afterlife (1080p; 4:55)
- YouTube Awards Afterlife Live (1080p; 5:08)

Disc Title: ARCADE_FIRE_REFLEKTOR_TAPES_DISC_1
Disc Size: 29 394 583 201 bytes
Protection: AACS
BD-Java: No
BDInfo: 0.5.8

Notes:

BDINFO HOME:
Cinema Squid
http://www.cinemasquid.com/blu-ray/tools/bdinfo

INCLUDES FORUMS REPORT FOR:
AVS Forum Blu-ray Audio and Video Specifications Thread
http://www.avsforum.com/avs-vb/showthread.php?t=1155731

********************
PLAYLIST: 00000.MPLS
********************

<–- BEGIN FORUMS PASTE –->
Код
1

Total Video
Title Codec Length Movie Size Disc Size Bitrate Bitrate Main Audio Track Secondary Audio Track
––- ––– –––- ––––––– ––––––– –––- –––- ––––––––– ––––––––––-
00000.MPLS AVC 1:15:10 18 450 360 768 29 394 583 201 32,73 25,00 LPCM 2.0 2304Kbps (48kHz/24-bit) DTS-HD Master 5.1 3752Kbps (48kHz/24-bit)

Код
1

DISC INFO:

Disc Title: ARCADE_FIRE_REFLEKTOR_TAPES_DISC_1
Disc Size: 29 394 583 201 bytes
Protection: AACS
BD-Java: No
BDInfo: 0.5.8

PLAYLIST REPORT:

Name: 00000.MPLS
Length: 1:15:10.000 (h:m:s.ms)
Size: 18 450 360 768 bytes
Total Bitrate: 32,73 Mbps

VIDEO:

Codec Bitrate Description
––- –––- –––––-
MPEG-4 AVC Video 25000 kbps 1080p / 24 fps / 16:9 / High Profile 4.1

AUDIO:

Codec Language Bitrate Description
––- –––– –––- –––––-
LPCM Audio English 2304 kbps 2.0 / 48 kHz / 2304 kbps / 24-bit
DTS-HD Master Audio English 3752 kbps 5.1 / 48 kHz / 3752 kbps / 24-bit (DTS Core: 5.1 / 48 kHz / 768 kbps / 24-bit)

SUBTITLES:

Codec Language Bitrate Description
––- –––– –––- –––––-
Presentation Graphics English 8,065 kbps
Presentation Graphics German 9,555 kbps
Presentation Graphics Spanish 8,048 kbps
Presentation Graphics French 8,372 kbps
Presentation Graphics Portuguese 8,057 kbps

FILES:

Name Time In Length Size Total Bitrate
–– –––- ––– –– ––––––-
00000.M2TS 0:00:00.000 1:15:10.000 18 450 360 768 32 728

CHAPTERS:

Number Time In Length Avg Video Rate Max 1-Sec Rate Max 1-Sec Time Max 5-Sec Rate Max 5-Sec Time Max 10Sec Rate Max 10Sec Time Avg Frame Size Max Frame Size Max Frame Time
––– –––- ––– ––––––– ––––––– ––––––– ––––––– ––––––– ––––––– ––––––– ––––––– ––––––– –––––––
1 0:00:00.000 0:02:45.000 15 398 kbps 62 332 kbps 00:02:20.916 40 685 kbps 00:02:27.625 37 838 kbps 00:01:45.958 80 178 bytes 657 698 bytes 00:01:52.083
2 0:02:45.000 0:03:32.625 28 992 kbps 61 291 kbps 00:04:36.333 40 670 kbps 00:03:36.000 37 835 kbps 00:05:32.291 150 998 bytes 932 892 bytes 00:05:05.083
3 0:06:17.625 0:04:38.375 24 852 kbps 60 522 kbps 00:08:01.291 40 670 kbps 00:08:01.291 37 830 kbps 00:08:01.291 129 440 bytes 775 509 bytes 00:07:54.541
4 0:10:56.000 0:07:33.000 24 866 kbps 62 291 kbps 00:17:21.250 40 683 kbps 00:15:54.583 37 810 kbps 00:17:41.875 129 509 bytes 725 573 bytes 00:16:54.791
5 0:18:29.000 0:06:59.000 25 220 kbps 57 996 kbps 00:20:28.708 40 117 kbps 00:21:58.791 37 781 kbps 00:21:06.541 131 354 bytes 982 980 bytes 00:18:39.333
6 0:25:28.000 0:06:18.833 28 119 kbps 62 304 kbps 00:30:03.708 40 706 kbps 00:28:33.541 37 832 kbps 00:28:13.083 146 452 bytes 944 304 bytes 00:28:14.083
7 0:31:46.833 0:06:25.166 23 195 kbps 58 488 kbps 00:37:40.166 40 695 kbps 00:37:40.166 37 839 kbps 00:37:40.166 120 807 bytes 946 599 bytes 00:35:51.666
8 0:38:12.000 0:12:09.041 28 444 kbps 62 381 kbps 00:45:14.416 40 704 kbps 00:39:56.958 37 840 kbps 00:39:56.958 148 147 bytes 946 272 bytes 00:47:12.250
9 0:50:21.041 0:11:54.333 28 078 kbps 62 245 kbps 00:58:52.375 40 661 kbps 01:00:51.041 37 840 kbps 00:53:56.791 146 238 bytes 951 336 bytes 01:00:52.083
10 1:02:15.375 0:04:53.041 34 130 kbps 56 163 kbps 01:06:52.333 40 687 kbps 01:06:00.750 37 838 kbps 01:02:29.500 177 759 bytes 837 060 bytes 01:06:54.375
11 1:07:08.416 0:08:01.583 10 204 kbps 60 022 kbps 01:14:41.333 40 672 kbps 01:14:53.458 37 569 kbps 01:14:22.833 53 155 bytes 936 716 bytes 01:14:43.375

STREAM DIAGNOSTICS:

File PID Type Codec Language Seconds Bitrate Bytes Packets
–– –- –– ––- –––– ––––––– ––––––– ––––––- ––-
00000.M2TS 4113 (0x1011) 0x1B AVC 4509,917 25 001 14 093 787 509 76 660 456
00000.M2TS 4352 (0x1100) 0x80 LPCM eng (English) 4509,917 2 310 1 302 488 000 7 216 000
00000.M2TS 4353 (0x1101) 0x86 DTS-HD MA eng (English) 4509,917 3 752 2 115 205 544 11 932 313
00000.M2TS 4608 (0x1200) 0x90 PGS eng (English) 4509,917 8 4 546 843 25 973
00000.M2TS 4609 (0x1201) 0x90 PGS deu (German) 4509,917 10 5 386 668 30 673
00000.M2TS 4610 (0x1202) 0x90 PGS spa (Spanish) 4509,917 8 4 537 102 26 032
00000.M2TS 4611 (0x1203) 0x90 PGS fra (French) 4509,917 8 4 719 850 27 031
00000.M2TS 4612 (0x1204) 0x90 PGS por (Portuguese) 4509,917 8 4 542 062 26 064

<–– END FORUMS PASTE ––>

QUICK SUMMARY:

Disc Title: ARCADE_FIRE_REFLEKTOR_TAPES_DISC_1
Disc Size: 29 394 583 201 bytes
Protection: AACS
BD-Java: No
Playlist: 00000.MPLS
Size: 18 450 360 768 bytes
Length: 1:15:10.000
Total Bitrate: 32,73 Mbps
Video: MPEG-4 AVC Video / 25000 kbps / 1080p / 24 fps / 16:9 / High Profile 4.1
Audio: English / LPCM Audio / 2.0 / 48 kHz / 2304 kbps / 24-bit
Audio: English / DTS-HD Master Audio / 5.1 / 48 kHz / 3752 kbps / 24-bit (DTS Core: 5.1 / 48 kHz / 768 kbps / 24-bit)
Subtitle: English / 8,065 kbps
Subtitle: German / 9,555 kbps
Subtitle: Spanish / 8,048 kbps
Subtitle: French / 8,372 kbps
Subtitle: Portuguese / 8,057 kbps

********************
PLAYLIST: 00005.MPLS
********************

<–- BEGIN FORUMS PASTE –->
Код
1

Total Video
Title Codec Length Movie Size Disc Size Bitrate Bitrate Main Audio Track Secondary Audio Track
––- ––– –––- ––––––– ––––––– –––- –––- ––––––––– ––––––––––-
00005.MPLS AVC 0:23:39 6 016 524 288 29 394 583 201 33,91 30,00 LPCM 2.0 2304Kbps (48kHz/24-bit)

Код
1

DISC INFO:

Disc Title: ARCADE_FIRE_REFLEKTOR_TAPES_DISC_1
Disc Size: 29 394 583 201 bytes
Protection: AACS
BD-Java: No
BDInfo: 0.5.8

PLAYLIST REPORT:

Name: 00005.MPLS
Length: 0:23:39.518 (h:m:s.ms)
Size: 6 016 524 288 bytes
Total Bitrate: 33,91 Mbps

VIDEO:

Codec Bitrate Description
––- –––- –––––-
MPEG-4 AVC Video 30000 kbps 1080i / 29,970 fps / 16:9 / High Profile 4.1

AUDIO:

Codec Language Bitrate Description
––- –––– –––- –––––-
LPCM Audio English 2304 kbps 2.0 / 48 kHz / 2304 kbps / 24-bit

SUBTITLES:

Codec Language Bitrate Description
––- –––– –––- –––––-
Presentation Graphics English 11,317 kbps
Presentation Graphics German 13,959 kbps
Presentation Graphics Spanish 10,855 kbps
Presentation Graphics French 12,175 kbps
Presentation Graphics Portuguese 12,522 kbps

FILES:

Name Time In Length Size Total Bitrate
–– –––- ––– –– ––––––-
00005.M2TS 0:00:00.000 0:23:39.518 6 016 524 288 33 907

CHAPTERS:

Number Time In Length Avg Video Rate Max 1-Sec Rate Max 1-Sec Time Max 5-Sec Rate Max 5-Sec Time Max 10Sec Rate Max 10Sec Time Avg Frame Size Max Frame Size Max Frame Time
––– –––- ––– ––––––– ––––––– ––––––– ––––––– ––––––– ––––––– ––––––– ––––––– ––––––– –––––––
1 0:00:00.000 0:08:28.307 31 788 kbps 54 348 kbps 00:01:42.302 40 741 kbps 00:01:41.768 37 880 kbps 00:05:31.331 132 575 bytes 774 091 bytes 00:01:33.460
2 0:08:28.307 0:07:06.292 30 681 kbps 61 723 kbps 00:15:05.037 40 430 kbps 00:13:36.549 37 698 kbps 00:10:01.100 127 967 bytes 739 786 bytes 00:14:54.126
3 0:15:34.600 0:08:04.917 27 525 kbps 57 306 kbps 00:18:18.397 40 545 kbps 00:20:24.256 37 794 kbps 00:20:24.356 114 811 bytes 717 444 bytes 00:18:19.398

STREAM DIAGNOSTICS:

File PID Type Codec Language Seconds Bitrate Bytes Packets
–– –- –– ––- –––– ––––––– ––––––– ––––––- ––-
00005.M2TS 4113 (0x1011) 0x1B AVC 1419,385 30 002 5 323 129 604 28 955 287
00005.M2TS 4352 (0x1100) 0x80 LPCM eng (English) 1419,385 2 311 409 957 376 2 271 232
00005.M2TS 4608 (0x1200) 0x90 PGS eng (English) 1419,385 11 2 008 166 11 510
00005.M2TS 4609 (0x1201) 0x90 PGS deu (German) 1419,385 14 2 476 825 14 169
00005.M2TS 4610 (0x1202) 0x90 PGS spa (Spanish) 1419,385 11 1 926 186 11 077
00005.M2TS 4611 (0x1203) 0x90 PGS fra (French) 1419,385 12 2 160 351 12 432
00005.M2TS 4612 (0x1204) 0x90 PGS por (Portuguese) 1419,385 13 2 221 841 12 772

<–– END FORUMS PASTE ––>

QUICK SUMMARY:

Disc Title: ARCADE_FIRE_REFLEKTOR_TAPES_DISC_1
Disc Size: 29 394 583 201 bytes
Protection: AACS
BD-Java: No
Playlist: 00005.MPLS
Size: 6 016 524 288 bytes
Length: 0:23:39.518
Total Bitrate: 33,91 Mbps
Video: MPEG-4 AVC Video / 30000 kbps / 1080i / 29,970 fps / 16:9 / High Profile 4.1
Audio: English / LPCM Audio / 2.0 / 48 kHz / 2304 kbps / 24-bit
Subtitle: English / 11,317 kbps
Subtitle: German / 13,959 kbps
Subtitle: Spanish / 10,855 kbps
Subtitle: French / 12,175 kbps
Subtitle: Portuguese / 12,522 kbps

Disc 2
Live at Earls Court, London / 2014
1. Reflektor
2. Flashbulb Eyes
3. Neighborhood #3 (Power Out)
4. Rebellion (Lies)
5. Joan of Arc
6. Rococo
7. The Suburbs
8. Ready to Start
9. Neighborhood #1 (Tunnels)
10. Neighborhood #2 (Laika)
11. No Cars Go
12. Haiti
13. We Exist
14. My Body is a Cage
15. Afterlife
16. It's Never Over (Oh Orpheus)
17. Sprawl II
18. Normal Person
19. Here Comes the Night Time
20. Wake Up

Bonus
Director's Cut Tracks
- Flashbulb (1080p; 3:03)
- Here Comes the Night Time (1080p; 6:51)
- Reflektor (1080p; 6:56)
- Sprawl II (1080p; 5:46)
- The Suburbs (1080p; 7:25)

Disc Title: ARCADE_FIRE_REFLEKTOR_TAPES_DISC_2
Disc Size: 45 132 318 714 bytes
Protection: AACS
BD-Java: No
BDInfo: 0.5.8

Notes:

BDINFO HOME:
Cinema Squid
http://www.cinemasquid.com/blu-ray/tools/bdinfo

INCLUDES FORUMS REPORT FOR:
AVS Forum Blu-ray Audio and Video Specifications Thread
http://www.avsforum.com/avs-vb/showthread.php?t=1155731

********************
PLAYLIST: 00000.MPLS
********************

<–- BEGIN FORUMS PASTE –->
Код
1

Total Video
Title Codec Length Movie Size Disc Size Bitrate Bitrate Main Audio Track Secondary Audio Track
––- ––– –––- ––––––– ––––––– –––- –––- ––––––––– ––––––––––-
00000.MPLS AVC 1:51:15 34 333 608 384 45 132 318 714 41,14 28,00 LPCM 2.0 4608Kbps (96kHz/24-bit) DTS-HD Master 5.1 6503Kbps (96kHz/24-bit)

Код
1

DISC INFO:

Disc Title: ARCADE_FIRE_REFLEKTOR_TAPES_DISC_2
Disc Size: 45 132 318 714 bytes
Protection: AACS
BD-Java: No
BDInfo: 0.5.8

PLAYLIST REPORT:

Name: 00000.MPLS
Length: 1:51:15.710 (h:m:s.ms)
Size: 34 333 608 384 bytes
Total Bitrate: 41,14 Mbps

VIDEO:

Codec Bitrate Description
––- –––- –––––-
MPEG-4 AVC Video 27999 kbps 1080p / 23,976 fps / 16:9 / High Profile 4.1

AUDIO:

Codec Language Bitrate Description
––- –––– –––- –––––-
LPCM Audio English 4608 kbps 2.0 / 96 kHz / 4608 kbps / 24-bit
DTS-HD Master Audio English 6503 kbps 5.1 / 96 kHz / 6503 kbps / 24-bit (DTS Core: 5.1 / 48 kHz / 768 kbps / 24-bit)

FILES:

Name Time In Length Size Total Bitrate
–– –––- ––– –– ––––––-
00000.M2TS 0:00:00.000 1:51:15.710 34 333 608 384 41 144

CHAPTERS:

Number Time In Length Avg Video Rate Max 1-Sec Rate Max 1-Sec Time Max 5-Sec Rate Max 5-Sec Time Max 10Sec Rate Max 10Sec Time Avg Frame Size Max Frame Size Max Frame Time
––– –––- ––– ––––––– ––––––– ––––––– ––––––– ––––––– ––––––– ––––––– ––––––– ––––––– –––––––
1 0:00:00.000 0:07:54.599 28 034 kbps 50 460 kbps 00:00:00.709 31 850 kbps 00:03:42.430 29 856 kbps 00:04:19.050 146 146 bytes 598 417 bytes 00:04:05.912
2 0:07:54.599 0:03:21.034 27 991 kbps 44 865 kbps 00:08:02.648 31 783 kbps 00:10:02.852 29 830 kbps 00:10:55.780 145 933 bytes 484 278 bytes 00:10:06.814
3 0:11:15.633 0:05:55.146 27 986 kbps 47 004 kbps 00:13:38.692 31 678 kbps 00:12:15.192 29 701 kbps 00:16:11.095 145 904 bytes 607 684 bytes 00:12:19.196
4 0:17:10.779 0:05:30.705 28 012 kbps 45 933 kbps 00:21:48.765 31 903 kbps 00:21:37.504 29 787 kbps 00:17:33.594 146 040 bytes 676 187 bytes 00:17:42.603
5 0:22:41.485 0:05:07.015 28 003 kbps 49 867 kbps 00:23:52.806 32 885 kbps 00:23:33.161 29 926 kbps 00:23:36.164 145 996 bytes 788 711 bytes 00:23:37.374
6 0:27:48.500 0:04:38.945 27 978 kbps 47 686 kbps 00:32:17.143 31 840 kbps 00:31:56.748 29 927 kbps 00:31:51.743 145 866 bytes 607 987 bytes 00:31:27.218
7 0:32:27.445 0:07:26.779 27 988 kbps 45 803 kbps 00:35:04.352 31 428 kbps 00:35:00.264 29 802 kbps 00:36:03.494 145 916 bytes 687 451 bytes 00:36:16.716
8 0:39:54.225 0:04:27.141 28 035 kbps 47 157 kbps 00:40:45.568 31 908 kbps 00:40:10.282 29 975 kbps 00:44:04.224 146 163 bytes 600 633 bytes 00:40:45.734
9 0:44:21.367 0:05:39.922 27 982 kbps 47 540 kbps 00:47:59.585 31 665 kbps 00:47:52.369 29 830 kbps 00:48:16.476 145 884 bytes 673 015 bytes 00:48:18.562
10 0:50:01.289 0:04:01.574 28 029 kbps 46 683 kbps 00:53:05.307 31 806 kbps 00:52:34.401 29 834 kbps 00:53:12.480 146 131 bytes 628 640 bytes 00:50:48.253
11 0:54:02.864 0:05:32.457 28 003 kbps 47 773 kbps 00:58:02.604 31 557 kbps 00:54:25.762 29 704 kbps 00:57:54.012 145 996 bytes 668 046 bytes 00:57:59.642
12 0:59:35.321 0:04:58.297 27 981 kbps 47 793 kbps 01:03:34.602 31 666 kbps 01:04:13.808 29 735 kbps 01:03:27.678 145 879 bytes 691 341 bytes 01:03:34.852
13 1:04:33.619 0:05:56.606 28 015 kbps 45 451 kbps 01:05:04.275 31 383 kbps 01:05:15.119 29 836 kbps 01:09:09.812 146 059 bytes 565 776 bytes 01:08:16.425
14 1:10:30.226 0:00:45.170 27 963 kbps 46 455 kbps 01:11:11.100 31 639 kbps 01:10:58.087 29 199 kbps 01:10:56.585 145 788 bytes 520 927 bytes 01:11:11.225
15 1:11:15.396 0:05:34.917 28 000 kbps 45 691 kbps 01:11:32.413 31 685 kbps 01:14:38.599 29 915 kbps 01:14:33.552 145 980 bytes 524 266 bytes 01:12:04.528
16 1:16:50.314 0:06:57.416 28 000 kbps 48 712 kbps 01:17:53.627 32 455 kbps 01:21:06.486 30 328 kbps 01:17:01.658 145 977 bytes 659 269 bytes 01:21:47.611
17 1:23:47.731 0:08:24.253 27 988 kbps 52 114 kbps 01:28:22.380 31 601 kbps 01:28:22.130 29 760 kbps 01:28:22.130 145 915 bytes 612 125 bytes 01:25:17.195
18 1:32:11.984 0:04:42.907 28 001 kbps 45 328 kbps 01:35:16.502 31 394 kbps 01:35:12.498 29 686 kbps 01:34:50.810 145 986 bytes 562 646 bytes 01:36:25.738
19 1:36:54.892 0:06:57.875 28 005 kbps 45 118 kbps 01:38:00.791 31 208 kbps 01:41:02.306 29 836 kbps 01:41:02.264 146 006 bytes 662 277 bytes 01:38:44.877
20 1:43:52.768 0:07:22.942 27 973 kbps 44 656 kbps 01:44:35.894 31 609 kbps 01:45:19.604 29 476 kbps 01:47:53.592 145 864 bytes 667 398 bytes 01:44:36.311

STREAM DIAGNOSTICS:

File PID Type Codec Language Seconds Bitrate Bytes Packets
–– –- –– ––- –––– ––––––– ––––––– ––––––- ––-
00000.M2TS 4113 (0x1011) 0x1B AVC 6675,627 28 000 23 364 523 898 127 076 490
00000.M2TS 4352 (0x1100) 0x80 LPCM eng (English) 6675,627 4 615 3 851 103 256 21 365 344
00000.M2TS 4353 (0x1101) 0x86 DTS-HD MA eng (English) 6675,627 6 503 5 426 644 352 30 155 350

<–– END FORUMS PASTE ––>

QUICK SUMMARY:

Disc Title: ARCADE_FIRE_REFLEKTOR_TAPES_DISC_2
Disc Size: 45 132 318 714 bytes
Protection: AACS
BD-Java: No
Playlist: 00000.MPLS
Size: 34 333 608 384 bytes
Length: 1:51:15.710
Total Bitrate: 41,14 Mbps
Video: MPEG-4 AVC Video / 27999 kbps / 1080p / 23,976 fps / 16:9 / High Profile 4.1
Audio: English / LPCM Audio / 2.0 / 96 kHz / 4608 kbps / 24-bit
Audio: English / DTS-HD Master Audio / 5.1 / 96 kHz / 6503 kbps / 24-bit (DTS Core: 5.1 / 48 kHz / 768 kbps / 24-bit)

********************
PLAYLIST: 00001.MPLS
********************

<–- BEGIN FORUMS PASTE –->
Код
1

Total Video
Title Codec Length Movie Size Disc Size Bitrate Bitrate Main Audio Track Secondary Audio Track
––- ––– –––- ––––––– ––––––– –––- –––- ––––––––– ––––––––––-
00001.MPLS AVC 0:30:03 5 274 832 896 45 132 318 714 23,39 19,99 LPCM 2.0 2304Kbps (48kHz/24-bit)

Код
1

DISC INFO:

Disc Title: ARCADE_FIRE_REFLEKTOR_TAPES_DISC_2
Disc Size: 45 132 318 714 bytes
Protection: AACS
BD-Java: No
BDInfo: 0.5.8

PLAYLIST REPORT:

Name: 00001.MPLS
Length: 0:30:03.801 (h:m:s.ms)
Size: 5 274 832 896 bytes
Total Bitrate: 23,39 Mbps

VIDEO:

Codec Bitrate Description
––- –––- –––––-
MPEG-4 AVC Video 19995 kbps 1080p / 23,976 fps / 16:9 / High Profile 4.1

AUDIO:

Codec Language Bitrate Description
––- –––– –––- –––––-
LPCM Audio English 2304 kbps 2.0 / 48 kHz / 2304 kbps / 24-bit

FILES:

Name Time In Length Size Total Bitrate
–– –––- ––– –– ––––––-
00001.M2TS 0:00:00.000 0:30:03.801 5 274 832 896 23 394

CHAPTERS:

Number Time In Length Avg Video Rate Max 1-Sec Rate Max 1-Sec Time Max 5-Sec Rate Max 5-Sec Time Max 10Sec Rate Max 10Sec Time Avg Frame Size Max Frame Size Max Frame Time
––– –––- ––– ––––––– ––––––– ––––––– ––––––– ––––––– ––––––– ––––––– ––––––– ––––––– –––––––
1 0:00:00.000 0:03:03.183 19 231 kbps 30 887 kbps 00:02:23.977 28 236 kbps 00:02:20.849 26 699 kbps 00:02:16.636 100 241 bytes 225 992 bytes 00:01:05.857
2 0:03:03.183 0:06:51.702 21 018 kbps 39 509 kbps 00:07:49.469 37 712 kbps 00:03:12.442 36 422 kbps 00:03:11.232 109 579 bytes 279 125 bytes 00:03:51.689
3 0:09:54.885 0:06:56.791 20 211 kbps 30 052 kbps 00:11:51.585 25 594 kbps 00:14:32.121 24 193 kbps 00:12:50.269 105 371 bytes 276 343 bytes 00:13:53.707
4 0:16:51.677 0:05:46.721 18 722 kbps 46 959 kbps 00:17:24.918 29 811 kbps 00:19:01.223 28 529 kbps 00:18:59.096 97 610 bytes 453 416 bytes 00:17:25.669
5 0:22:38.398 0:07:25.403 20 151 kbps 30 442 kbps 00:29:31.478 29 300 kbps 00:29:27.557 26 602 kbps 00:29:23.052 105 067 bytes 294 949 bytes 00:29:31.603

STREAM DIAGNOSTICS:

File PID Type Codec Language Seconds Bitrate Bytes Packets
–– –- –– ––- –––– ––––––– ––––––– ––––––- ––-
00001.M2TS 4113 (0x1011) 0x1B AVC 1803,677 19 996 4 508 324 391 24 526 549
00001.M2TS 4352 (0x1100) 0x80 LPCM eng (English) 1803,677 2 311 520 938 884 2 886 088

<–– END FORUMS PASTE ––>

QUICK SUMMARY:

Disc Title: ARCADE_FIRE_REFLEKTOR_TAPES_DISC_2
Disc Size: 45 132 318 714 bytes
Protection: AACS
BD-Java: No
Playlist: 00001.MPLS
Size: 5 274 832 896 bytes
Length: 0:30:03.801
Total Bitrate: 23,39 Mbps
Video: MPEG-4 AVC Video / 19995 kbps / 1080p / 23,976 fps / 16:9 / High Profile 4.1
Audio: English / LPCM Audio / 2.0 / 48 kHz / 2304 kbps / 24-bit



Thanks to the original uploader