Arcade Fire - Everything Now (2017)

Posted By: SERTiL
Arcade Fire - Everything Now (2017)

Arcade Fire - Everything Now
EAC Rip | FLAC (tracks)+cue, log, m3u, d. booklet | 47:11 min | 333 MB
Label: Columbia – 88985447852 | Tracks: 13 | Rls.date: 2017
Indie Rock

Though Arcade Fire have always been comfortable making grand statements, they’ve also been generous with nuance. After joining forces with LCD Soundsystem’s James Murphy on 2013’s Reflektor, the Canadian outfit bring in a similarly impressive crew of co-producers—Daft Punk’s Thomas Bangalter, Pulp’s Steve Mackey—for Everything Now, an album whose jaunty, disco-indebted art-rock is weighted with haunting takes on information overload (the ABBA-esque title track) and nostalgia (“Signs of Life”). “If you can’t see the forest for the trees, just burn it all down,” frontman Win Butler sings on “We Don’t Deserve Love,” a gorgeous yet disorienting ballad at the album’s conclusion. “And bring the ashes to me.”

A combination of indie rock muscle and theatrical, unapologetic bombast turned Arcade Fire into indie royalty in the early 2000s. Originally comprised of Régine Chassagne, Richard Parry, Tim Kingsbury, and brothers William and Win Butler, the group formed during the summer of 2003, after Win spotted Chassagne singing jazz standards at a Montreal art exhibit. The grandson of famed swing-era bandleader Alvino Rey, Win was quickly charmed by Chassagne's performance, leading the two to launch a songwriting partnership. Romance followed shortly thereafter, and the duo expanded its sound by gathering Parry on organ, Kingsbury on bass, and Win Butler's younger brother, William, on synthesizer and percussion. Drawing from the bandmates' varied influences, Arcade Fire began mining an eclectic mix of bossa nova, punk, French chanson, and classically tinged pop music, referencing everything from U2's passion to David Bowie's eclecticism in the process.

Arcade Fire issued a self-titled EP in 2003, having briefly retreated to Maine for the recording sessions. Propelled by Win Butler's quavering vocals and his bandmates' symphonic swells, the disc helped earn the band an official offer from Merge Records. The bandmates' luck faltered later that year, however, when Chassagne's grandmother passed away. The Butler brothers' grandfather followed suit in March 2004, and Parry's aunt died one month later. Seeking catharsis in the studio, the members of Arcade Fire funneled their energies into the creation of Funeral. Released in September 2004, the debut album was met with unanimous acclaim – both commercially and critically – and Arcade Fire found themselves maintaining a nearly constant presence on the road, playing such high-profile festivals as Lollapalooza and Coachella between a slew of smaller club dates. They also appeared on the cover of Time magazine's Canadian edition, garnered a Grammy nomination for Best Alternative Music Album, rubbed shoulders with superfan David Bowie, and toured alongside U2.

Following an exhausting year, Arcade Fire decamped to a church outside of Montreal to work on a second release. The ambitious Neon Bible arrived in March 2007, featuring such grand ornamentations as a pipe organ, a military choir, and a full orchestra. The album peaked at number two and sparked another tour, which found the band playing more than 120 shows over the course of a year. When touring wrapped up in early 2008, Arcade Fire played several shows in support of presidential candidate Barack Obama before beginning work on a third album. The resulting Suburbs, an eclectic 16-track ode to childhood, suburban sprawl, and middle-class dreams both won and lost, arrived on August 2, 2010. The record was universally acclaimed and reached number one in both the U.S. and U.K. album charts. The following year they won a host of awards, including prestigious accolades such as a Grammy for Album of the Year, the Polaris Prize, and BRIT awards for both Best International Album and Group, among other honors and nominations.

Their success followed them on the road as they sold out shows across the globe, and in 2011 they released a deluxe version of Suburbs that included a short film – titled Scenes from the Suburbs – directed by Spike Jonze. They began work on their fourth release in 2012 and enlisted LCD Soundsystem frontman James Murphy for production duties. The critically acclaimed double album, entitled Reflektor, was released in October 2013, and was followed by an ambitious world tour. A documentary film of the tour, The Reflektor Tapes, was released in 2015, as was an accompanying EP of the same name. May 2017 saw Arcade Fire perform an intimate secret show in Montreal, where they played six new songs. At the end of the month they released "Everything Now," the lead single from the highly anticipated fifth studio album of the same name, which dropped later that July. Featuring production by Daft Punk's Thomas Bangalter, Pulp's Steve Mackey, Portishead's Geoff Barrow, and longtime producer Markus Dravs, Everything Now also featured the singles "Creature Comfort" and "Electric Blue." ~ Andrew Leahey

TRACKLIST
01. Everything_Now (continued)
02. Everything Now
03. Signs of Life
04. Creature Comfort
05. Peter Pan
06. Chemistry
07. Infinite Content
08. Infinite_Content
09. Electric Blue
10. Good God Damn
11. Put Your Money On Me
12. We Don't Deserve Love
13. Everything Now (continued)

Exact Audio Copy V1.3 from 2. September 2016

EAC extraction logfile from 28. July 2017, 0:14

Arcade Fire / Everything Now

Used drive : HL-DT-STDVDRAM GH24NSD1 Adapter: 1 ID: 0

Read mode : Secure
Utilize accurate stream : Yes
Defeat audio cache : Yes
Make use of C2 pointers : No

Read offset correction : 6
Overread into Lead-In and Lead-Out : No
Fill up missing offset samples with silence : Yes
Delete leading and trailing silent blocks : No
Null samples used in CRC calculations : Yes
Used interface : Native Win32 interface for Win NT & 2000
Gap handling : Appended to previous track

Used output format : User Defined Encoder
Selected bitrate : 1024 kBit/s
Quality : High
Add ID3 tag : No
Command line compressor : C:\Program Files (x86)\Exact Audio Copy\Flac\flac.exe
Additional command line options : -8 -e -p -V -T "ARTIST=%artist%" -T "TITLE=%title%" -T "ALBUM=%albumtitle%" -T "DATE=%year%" -T "TRACKNUMBER=%tracknr%" -T "GENRE=%genre%" -T "PERFORMER=%albuminterpret%" -T "COMPOSER=%composer%" %haslyrics%–tag-from-file=LYRICS="%lyricsfile%"%haslyrics% -T "ALBUMARTIST=%albumartist%" -T "DISCNUMBER=%cdnumber%" -T "TOTALDISCS=%totalcds%" -T "TOTALTRACKS=%numtracks%" -T "COMMENT=%comment%" %source% -o %dest%


TOC of the extracted CD

Track | Start | Length | Start sector | End sector
––––––––––––––––––––––––––––-
1 | 0:00.00 | 0:46.17 | 0 | 3466
2 | 0:46.17 | 5:03.01 | 3467 | 26192
3 | 5:49.18 | 4:36.46 | 26193 | 46938
4 | 10:25.64 | 4:43.38 | 46939 | 68201
5 | 15:09.27 | 2:48.67 | 68202 | 80868
6 | 17:58.19 | 3:37.52 | 80869 | 97195
7 | 21:35.71 | 1:37.09 | 97196 | 104479
8 | 23:13.05 | 1:41.38 | 104480 | 112092
9 | 24:54.43 | 4:02.28 | 112093 | 130270
10 | 28:56.71 | 3:34.32 | 130271 | 146352
11 | 32:31.28 | 5:53.18 | 146353 | 172845
12 | 38:24.46 | 6:29.06 | 172846 | 202026
13 | 44:53.52 | 2:22.05 | 202027 | 212681


Track 1

Filename D:\Incoming\Extraction\01 - Everything_Now (Continued).wav

Pre-gap length 0:00:02.00

Peak level 98.0 %
Extraction speed 2.9 X
Track quality 100.0 %
Test CRC A8EDBE0A
Copy CRC A8EDBE0A
Track not present in AccurateRip database
Copy OK

Track 2

Filename D:\Incoming\Extraction\02 - Everything Now.wav

Peak level 99.4 %
Extraction speed 5.0 X
Track quality 100.0 %
Test CRC 7047C2A4
Copy CRC 7047C2A4
Track not present in AccurateRip database
Copy OK

Track 3

Filename D:\Incoming\Extraction\03 - Signs of Life.wav

Peak level 99.5 %
Extraction speed 5.4 X
Track quality 100.0 %
Test CRC E9333295
Copy CRC E9333295
Track not present in AccurateRip database
Copy OK

Track 4

Filename D:\Incoming\Extraction\04 - Creature Comfort.wav

Peak level 99.5 %
Extraction speed 5.3 X
Track quality 99.9 %
Test CRC 4E51315C
Copy CRC 4E51315C
Track not present in AccurateRip database
Copy OK

Track 5

Filename D:\Incoming\Extraction\05 - Peter Pan.wav

Peak level 99.4 %
Extraction speed 5.7 X
Track quality 100.0 %
Test CRC CC6FED8E
Copy CRC CC6FED8E
Track not present in AccurateRip database
Copy OK

Track 6

Filename D:\Incoming\Extraction\06 - Chemistry.wav

Peak level 99.1 %
Extraction speed 6.2 X
Track quality 100.0 %
Test CRC 533EFADC
Copy CRC 533EFADC
Track not present in AccurateRip database
Copy OK

Track 7

Filename D:\Incoming\Extraction\07 - Infinite Content.wav

Peak level 99.5 %
Extraction speed 5.4 X
Track quality 100.0 %
Test CRC 55556AF0
Copy CRC 55556AF0
Track not present in AccurateRip database
Copy OK

Track 8

Filename D:\Incoming\Extraction\08 - Infinite_Content.wav

Peak level 97.7 %
Extraction speed 5.5 X
Track quality 100.0 %
Test CRC BAC803C0
Copy CRC BAC803C0
Track not present in AccurateRip database
Copy OK

Track 9

Filename D:\Incoming\Extraction\09 - Electric Blue.wav

Peak level 99.5 %
Extraction speed 6.1 X
Track quality 99.9 %
Test CRC 50C7389A
Copy CRC 50C7389A
Track not present in AccurateRip database
Copy OK

Track 10

Filename D:\Incoming\Extraction\10 - Good God Damn.wav

Peak level 99.3 %
Extraction speed 6.1 X
Track quality 99.9 %
Test CRC B02E3783
Copy CRC B02E3783
Track not present in AccurateRip database
Copy OK

Track 11

Filename D:\Incoming\Extraction\11 - Put Your Money on Me.wav

Peak level 99.5 %
Extraction speed 7.0 X
Track quality 99.9 %
Test CRC 70963218
Copy CRC 70963218
Track not present in AccurateRip database
Copy OK

Track 12

Filename D:\Incoming\Extraction\12 - We Don't Deserve Love.wav

Peak level 99.5 %
Extraction speed 7.6 X
Track quality 99.9 %
Test CRC 4E38A019
Copy CRC 4E38A019
Track not present in AccurateRip database
Copy OK

Track 13

Filename D:\Incoming\Extraction\13 - Everything Now (Continued).wav

Peak level 98.5 %
Extraction speed 6.0 X
Track quality 99.9 %
Test CRC AE762C2D
Copy CRC AE762C2D
Track not present in AccurateRip database
Copy OK


None of the tracks are present in the AccurateRip database

No errors occurred

End of status report

–– CUETools DB Plugin V2.1.6

[CTDB TOCID: C3vHD6B09fONospB3s_Yh0lRkhw-] found
Submit result: C3vHD6B09fONospB3s_Yh0lRkhw- has been confirmed
Track | CTDB Status
1 | (2/2) Accurately ripped
2 | (2/2) Accurately ripped
3 | (2/2) Accurately ripped
4 | (2/2) Accurately ripped
5 | (2/2) Accurately ripped
6 | (2/2) Accurately ripped
7 | (2/2) Accurately ripped
8 | (2/2) Accurately ripped
9 | (2/2) Accurately ripped
10 | (2/2) Accurately ripped
11 | (2/2) Accurately ripped
12 | (2/2) Accurately ripped
13 | (2/2) Accurately ripped


==== Log checksum C5AB2C4E39437C9D105EF6CB43CB56B24B71985AB50444393608BE9AB365D3C5 ====


Thanks to the Original customer.