Subcategories

Area - Live Concerts Box [Recorded 1976] (1996)

Posted By: gribovar
Area - Live Concerts Box [Recorded 1976] (1996)

Area - Live Concerts Box [Recorded 1976] (1996)
EAC Rip | FLAC (tracks+.cue+log) - 1,25 GB | MP3 CBR 320 kbps (LAME 3.93) - 489 MB | Covers - 39 MB
Genre: Progressive Rock, Avant-Prog | RAR 3% Rec. | Label: Akarma

Concerto Teatro Uomo is a live album by Italian Jazz fusion band Area released in 1996 and recorded in in Milan, while the band was supporting their fifth album Maledetti (Maudits). The album was criticized for its sound quality (it was not professionally recorded, unlike their 1975 live album Are(A)zione) and for some packaging errors, but was also praised for its musical content (including extended improvisations) and for Demetrio Stratos' useful information about the tracks during banter between songs. This album was repackaged with another posthumous live album Parigi-Lisbona in the boxset Live Concerts Box.

Area - Live Concerts Box [Recorded 1976] (1996)

Area - Concerto Teatro Uomo [Recorded 1976] (1996)
EAC Rip | FLAC (tracks+.cue+log) - 881 MB | MP3 CBR 320 kbps (LAME 3.93) - 331 MB | Covers included
Genre: Progressive Rock, Avant-Prog | RAR 3% Rec. | Label: Akarma (AK 1030/1/2)

CD 1 Tracklist (Prima Parte):
01. Evaporazione
02. Arbeit Macht Frei
03. Luglio, Agosto, Settembre (Nero)
04. L'Abbattimento Dello Zeppelin
05. ZYG (Crescita Zero)
06. Cometa Rossa
07. Lobotomia
08. Il Massacro Di Brandeburgo Numero Tre In Sol Maggiore
09. L'Elefante Bianco
10. Gerontocrazia

Total time: 56:04

CD 2 Tracklist (Seconda Parte):
01. La Mela Di Odessa (1920)
02. Gioia E Rivoluzione
03. Scum
04. Giro, Giro, Tondo
05. L'Internazionale
06. Boom Boom
07. Improvvisazione

Total time: 01:10:02

Exact Audio Copy V0.99 prebeta 5 from 4. May 2009

EAC extraction logfile from 12. November 2010, 23:30

Area / Teatro Uomo (Prima parte)

Used drive : TSSTcorpCDDVDW SH-S202J Adapter: 3 ID: 0

Read mode : Secure
Utilize accurate stream : Yes
Defeat audio cache : Yes
Make use of C2 pointers : No

Read offset correction : 6
Overread into Lead-In and Lead-Out : No
Fill up missing offset samples with silence : Yes
Delete leading and trailing silent blocks : No
Null samples used in CRC calculations : Yes
Used interface : Native Win32 interface for Win NT & 2000
Gap handling : Appended to previous track

Used output format : User Defined Encoder
Selected bitrate : 768 kBit/s
Quality : High
Add ID3 tag : No
Command line compressor : C:\Program Files\Exact Audio Copy\FLAC\FLAC.EXE
Additional command line options : -8 -V -T "ARTIST=%a" -T "TITLE=%t" -T "ALBUM=%g" -T "DATE=%y" -T "TRACKNUMBER=%n" -T "TOTALTRACKS=%x" -T "GENRE=%m" -T "ALBUMARTIST=%v" -T "ALBUM ARTIST=%v" -T "COMMENT=EAC Secure Mode, Test & Copy, AccurateRip, FLAC -8" %s


TOC of the extracted CD

Track | Start | Length | Start sector | End sector
––––––––––––––––––––––––––––-
1 | 0:00.00 | 4:53.25 | 0 | 21999
2 | 4:53.25 | 4:43.10 | 22000 | 43234
3 | 9:36.35 | 7:09.30 | 43235 | 75439
4 | 16:45.65 | 10:26.05 | 75440 | 122394
5 | 27:11.70 | 6:23.25 | 122395 | 151144
6 | 33:35.20 | 9:40.00 | 151145 | 194644
7 | 43:15.20 | 3:31.30 | 194645 | 210499
8 | 46:46.50 | 7:15.40 | 210500 | 243164
9 | 54:02.15 | 4:49.27 | 243165 | 264866
10 | 58:51.42 | 6:53.00 | 264867 | 295841


Track 1

Filename E:\Musica\Area\Live Concerts Box Set (2002) [FLAC]\Concerto teatro Uomo (1976)\Disc 1of2\01 - Evaporazione.wav

Pre-gap length 0:00:02.00

Peak level 99.9 %
Track quality 100.0 %
Test CRC 9E2A7134
Copy CRC 9E2A7134
Accurately ripped (confidence 1) [614697AC]
Copy OK

Track 2

Filename E:\Musica\Area\Live Concerts Box Set (2002) [FLAC]\Concerto teatro Uomo (1976)\Disc 1of2\02 - Arbeit macht frei.wav

Peak level 96.0 %
Track quality 100.0 %
Test CRC F4ECE8DA
Copy CRC F4ECE8DA
Accurately ripped (confidence 1) [18A4E552]
Copy OK

Track 3

Filename E:\Musica\Area\Live Concerts Box Set (2002) [FLAC]\Concerto teatro Uomo (1976)\Disc 1of2\03 - Luglio, Agosto, Settembre (nero).wav

Peak level 96.2 %
Track quality 100.0 %
Test CRC 54085B44
Copy CRC 54085B44
Accurately ripped (confidence 1) [812E3038]
Copy OK

Track 4

Filename E:\Musica\Area\Live Concerts Box Set (2002) [FLAC]\Concerto teatro Uomo (1976)\Disc 1of2\04 - L'Abbattimento dello Zeppelin.wav

Peak level 92.2 %
Track quality 100.0 %
Test CRC FBEC0198
Copy CRC FBEC0198
Accurately ripped (confidence 1) [97B80EAF]
Copy OK

Track 5

Filename E:\Musica\Area\Live Concerts Box Set (2002) [FLAC]\Concerto teatro Uomo (1976)\Disc 1of2\05 - ZYG (Crescita zero).wav

Peak level 97.2 %
Track quality 100.0 %
Test CRC 38068075
Copy CRC 38068075
Accurately ripped (confidence 1) [B3B9BEF0]
Copy OK

Track 6

Filename E:\Musica\Area\Live Concerts Box Set (2002) [FLAC]\Concerto teatro Uomo (1976)\Disc 1of2\06 - Cometa Rossa.wav

Peak level 99.6 %
Track quality 100.0 %
Test CRC B355A195
Copy CRC B355A195
Accurately ripped (confidence 1) [0FF59D13]
Copy OK

Track 7

Filename E:\Musica\Area\Live Concerts Box Set (2002) [FLAC]\Concerto teatro Uomo (1976)\Disc 1of2\07 - Lobotomia.wav

Peak level 93.3 %
Track quality 100.0 %
Test CRC 832549A5
Copy CRC 832549A5
Accurately ripped (confidence 1) [33BFA0C6]
Copy OK

Track 8

Filename E:\Musica\Area\Live Concerts Box Set (2002) [FLAC]\Concerto teatro Uomo (1976)\Disc 1of2\08 - Il Massacro di Brandeburgo numero tre in sol maggiore.wav

Peak level 99.9 %
Track quality 100.0 %
Test CRC 85F9FC61
Copy CRC 85F9FC61
Accurately ripped (confidence 1) [D16E5A00]
Copy OK

Track 9

Filename E:\Musica\Area\Live Concerts Box Set (2002) [FLAC]\Concerto teatro Uomo (1976)\Disc 1of2\09 - L'Elefante bianco.wav

Peak level 99.9 %
Track quality 100.0 %
Test CRC 6F0FD09A
Copy CRC 6F0FD09A
Accurately ripped (confidence 1) [5BE123AB]
Copy OK

Track 10

Filename E:\Musica\Area\Live Concerts Box Set (2002) [FLAC]\Concerto teatro Uomo (1976)\Disc 1of2\10 - Gerontocrazia.wav

Peak level 97.0 %
Track quality 100.0 %
Test CRC 5AB0ED9E
Copy CRC 5AB0ED9E
Accurately ripped (confidence 1) [8BCB61B7]
Copy OK


All tracks accurately ripped

No errors occurred

End of status report

[CUETools log; Date: 13.04.2018 23:53:33; Version: 2.1.4]
[CTDB TOCID: UAcg0cNNfn7I2j1o8XkS6s6PW3Q-] found.
Track | CTDB Status
1 | (4/6) Accurately ripped
2 | (4/6) Accurately ripped
3 | (4/6) Accurately ripped
4 | (4/6) Accurately ripped
5 | (4/6) Accurately ripped
6 | (4/6) Accurately ripped
7 | (4/6) Accurately ripped
8 | (4/6) Accurately ripped
9 | (4/6) Accurately ripped
10 | (4/6) Accurately ripped
[AccurateRip ID: 0018c4c2-00c861d3-890f680a] found.
Track [ CRC | V2 ] Status
01 [614697ac|110b4b55] (6+3/9) Accurately ripped
02 [18a4e552|1d4856d9] (6+3/9) Accurately ripped
03 [812e3038|5a7234d1] (6+3/9) Accurately ripped
04 [97b80eaf|9b3bc62c] (6+3/9) Accurately ripped
05 [b3b9bef0|b0c1c589] (6+3/9) Accurately ripped
06 [0ff59d13|c31013b4] (6+3/9) Accurately ripped
07 [33bfa0c6|aea1c674] (6+3/9) Accurately ripped
08 [d16e5a00|5578c0d2] (6+3/9) Accurately ripped
09 [5be123ab|9fde37b7] (6+3/9) Accurately ripped
10 [8bcb61b7|f5a20427] (6+3/9) Accurately ripped

Track Peak [ CRC32 ] [W/O NULL] [ LOG ]
– 99,9 [9DF21480] [63594140]
01 99,9 [9E2A7134] [1CBF8FA8] CRC32
02 96,0 [F4ECE8DA] [E259BE98] CRC32
03 96,2 [54085B44] [F2EC286F] CRC32
04 92,2 [FBEC0198] [1DD8C7DA] CRC32
05 97,2 [38068075] [5A2D3237] CRC32
06 99,6 [B355A195] [3D1C6D4B] CRC32
07 93,3 [832549A5] [8B0A3952] CRC32
08 99,9 [85F9FC61] [91D87751] CRC32
09 99,9 [6F0FD09A] [0F891476] CRC32
10 97,0 [5AB0ED9E] [ECDE8175] CRC32

Exact Audio Copy V0.99 prebeta 5 from 4. May 2009

EAC extraction logfile from 13. November 2010, 8:26

Area / Teatro Uomo (Secona Parte)

Used drive : TSSTcorpCDDVDW SH-S202J Adapter: 3 ID: 0

Read mode : Secure
Utilize accurate stream : Yes
Defeat audio cache : Yes
Make use of C2 pointers : No

Read offset correction : 6
Overread into Lead-In and Lead-Out : No
Fill up missing offset samples with silence : Yes
Delete leading and trailing silent blocks : No
Null samples used in CRC calculations : Yes
Used interface : Native Win32 interface for Win NT & 2000
Gap handling : Appended to previous track

Used output format : User Defined Encoder
Selected bitrate : 768 kBit/s
Quality : High
Add ID3 tag : No
Command line compressor : C:\Program Files\Exact Audio Copy\FLAC\FLAC.EXE
Additional command line options : -8 -V -T "ARTIST=%a" -T "TITLE=%t" -T "ALBUM=%g" -T "DATE=%y" -T "TRACKNUMBER=%n" -T "TOTALTRACKS=%x" -T "GENRE=%m" -T "ALBUMARTIST=%v" -T "ALBUM ARTIST=%v" -T "COMMENT=EAC Secure Mode, Test & Copy, AccurateRip, FLAC -8" %s


TOC of the extracted CD

Track | Start | Length | Start sector | End sector
––––––––––––––––––––––––––––-
1 | 0:00.00 | 17:56.32 | 0 | 80731
2 | 17:56.32 | 10:49.53 | 80732 | 129459
3 | 28:46.10 | 7:29.07 | 129460 | 163141
4 | 36:15.17 | 8:09.43 | 163142 | 199859
5 | 44:24.60 | 5:00.65 | 199860 | 222424
6 | 49:25.50 | 6:49.15 | 222425 | 253114
7 | 56:14.65 | 13:47.00 | 253115 | 315139


Track 1

Filename E:\Musica\Area\Live Concerts Box Set (2002) [FLAC]\Concerto teatro Uomo (1976)\Disc 2of2\01 - La Mela di Odessa.wav

Pre-gap length 0:00:02.00

Peak level 99.9 %
Track quality 100.0 %
Test CRC 3B2749D9
Copy CRC 3B2749D9
Accurately ripped (confidence 1) [1DD94B00]
Copy OK

Track 2

Filename E:\Musica\Area\Live Concerts Box Set (2002) [FLAC]\Concerto teatro Uomo (1976)\Disc 2of2\02 - Gioia e rivoluzione.wav

Peak level 99.9 %
Track quality 100.0 %
Test CRC EA7A15F2
Copy CRC EA7A15F2
Accurately ripped (confidence 1) [77C43B64]
Copy OK

Track 3

Filename E:\Musica\Area\Live Concerts Box Set (2002) [FLAC]\Concerto teatro Uomo (1976)\Disc 2of2\03 - Scum.wav

Peak level 99.3 %
Track quality 100.0 %
Test CRC 92F7C9A4
Copy CRC 92F7C9A4
Accurately ripped (confidence 1) [10247CEE]
Copy OK

Track 4

Filename E:\Musica\Area\Live Concerts Box Set (2002) [FLAC]\Concerto teatro Uomo (1976)\Disc 2of2\04 - Giro, giro tondo.wav

Peak level 99.9 %
Track quality 100.0 %
Test CRC A6ACB7E3
Copy CRC A6ACB7E3
Accurately ripped (confidence 1) [4370838E]
Copy OK

Track 5

Filename E:\Musica\Area\Live Concerts Box Set (2002) [FLAC]\Concerto teatro Uomo (1976)\Disc 2of2\05 - L'Internazionale.wav

Peak level 99.6 %
Track quality 100.0 %
Test CRC 13EF08B5
Copy CRC 13EF08B5
Accurately ripped (confidence 1) [3AB5CB9B]
Copy OK

Track 6

Filename E:\Musica\Area\Live Concerts Box Set (2002) [FLAC]\Concerto teatro Uomo (1976)\Disc 2of2\06 - Boom Boom.wav

Peak level 99.9 %
Track quality 100.0 %
Test CRC 4B600E18
Copy CRC 4B600E18
Accurately ripped (confidence 1) [12E87CBC]
Copy OK

Track 7

Filename E:\Musica\Area\Live Concerts Box Set (2002) [FLAC]\Concerto teatro Uomo (1976)\Disc 2of2\07 - Improvvisazione.wav

Peak level 99.9 %
Track quality 100.0 %
Test CRC EBBC2ED9
Copy CRC EBBC2ED9
Accurately ripped (confidence 1) [329F1410]
Copy OK


All tracks accurately ripped

No errors occurred

End of status report

[CUETools log; Date: 13.04.2018 23:54:31; Version: 2.1.4]
[CTDB TOCID: 3o6d7yI8IrUB2cP_FaFgNW96V0E-] found.
Track | CTDB Status
1 | (5/5) Accurately ripped
2 | (4/5) Accurately ripped
3 | (4/5) Accurately ripped
4 | (4/5) Accurately ripped
5 | (4/5) Accurately ripped
6 | (4/5) Accurately ripped
7 | (4/5) Accurately ripped
[AccurateRip ID: 0014cfa2-007776c4-74106907] found.
Track [ CRC | V2 ] Status
01 [1dd94b00|f91a0e85] (6+3/9) Accurately ripped
02 [77c43b64|d1113118] (6+3/9) Accurately ripped
03 [10247cee|2fd1f5d3] (6+3/9) Accurately ripped
04 [4370838e|4122f3ea] (6+3/9) Accurately ripped
05 [3ab5cb9b|0edbf109] (6+3/9) Accurately ripped
06 [12e87cbc|4a25f757] (6+3/9) Accurately ripped
07 [329f1410|663bcbe3] (6+3/9) Accurately ripped

Track Peak [ CRC32 ] [W/O NULL] [ LOG ]
– 99,9 [79BED1F0] [3D6A0DC4]
01 99,9 [3B2749D9] [061557C9] CRC32
02 99,9 [EA7A15F2] [CF0999D4] CRC32
03 99,3 [92F7C9A4] [F3DA2501] CRC32
04 99,9 [A6ACB7E3] [C1FFC6B9] CRC32
05 99,6 [13EF08B5] [4E3F739D] CRC32
06 99,9 [4B600E18] [ECA22AB1] CRC32
07 99,9 [EBBC2ED9] [548FABD8] CRC32

Area - Live Concerts Box [Recorded 1976] (1996)

Area - Parigi-Lisbona [Recorded 1976] (1996)
EAC Rip | FLAC (tracks+.cue+log) - 377 MB | MP3 CBR 320 kbps (LAME 3.93) - 158 MB | Covers included
Genre: Progressive Rock, Avant-Prog | RAR 3% Rec. | Label: Akarma (AK 1030/3)

Tracklist:
01. L'Elefante Bianco
02. Megalopoli
03. La Mela Di Odessa (1920)
04. Lobotomia
05. Presentation Concerts Lisboa
06. Arbeit Macht Frei
07. Cometa Rossa
08. Luglio, Agosto, Settembre (Nero)
09. L'Internazionale
10. Zizina Zamirizar
11. Canto Dei Pastori

Total time: 59:50

Exact Audio Copy V0.99 prebeta 5 from 4. May 2009

EAC extraction logfile from 13. November 2010, 8:55

Area / Parigi - Lisbona

Used drive : TSSTcorpCDDVDW SH-S202J Adapter: 3 ID: 0

Read mode : Secure
Utilize accurate stream : Yes
Defeat audio cache : Yes
Make use of C2 pointers : No

Read offset correction : 6
Overread into Lead-In and Lead-Out : No
Fill up missing offset samples with silence : Yes
Delete leading and trailing silent blocks : No
Null samples used in CRC calculations : Yes
Used interface : Native Win32 interface for Win NT & 2000
Gap handling : Appended to previous track

Used output format : User Defined Encoder
Selected bitrate : 768 kBit/s
Quality : High
Add ID3 tag : No
Command line compressor : C:\Program Files\Exact Audio Copy\FLAC\FLAC.EXE
Additional command line options : -8 -V -T "ARTIST=%a" -T "TITLE=%t" -T "ALBUM=%g" -T "DATE=%y" -T "TRACKNUMBER=%n" -T "TOTALTRACKS=%x" -T "GENRE=%m" -T "ALBUMARTIST=%v" -T "ALBUM ARTIST=%v" -T "COMMENT=EAC Secure Mode, Test & Copy, AccurateRip, FLAC -8" %s


TOC of the extracted CD

Track | Start | Length | Start sector | End sector
––––––––––––––––––––––––––––-
1 | 0:00.00 | 5:23.67 | 0 | 24291
2 | 5:23.67 | 8:08.68 | 24292 | 60959
3 | 13:32.60 | 8:58.45 | 60960 | 101354
4 | 22:31.30 | 4:13.37 | 101355 | 120366
5 | 26:44.67 | 3:26.08 | 120367 | 135824
6 | 30:11.00 | 8:28.30 | 135825 | 173954
7 | 38:39.30 | 7:17.72 | 173955 | 206801
8 | 45:57.27 | 6:51.13 | 206802 | 237639
9 | 52:48.40 | 4:15.37 | 237640 | 256801
10 | 57:04.02 | 5:00.63 | 256802 | 279364
11 | 62:04.65 | 3:06.50 | 279365 | 293364


Track 1

Filename E:\Musica\Area\Live Concerts Box Set (2002) [FLAC]\Parigi-Lisbona (1996)\01 - L'Elefante Bianco.wav

Pre-gap length 0:00:02.00

Peak level 99.9 %
Track quality 100.0 %
Test CRC 3D37126F
Copy CRC 3D37126F
Accurately ripped (confidence 1) [C98A487A]
Copy OK

Track 2

Filename E:\Musica\Area\Live Concerts Box Set (2002) [FLAC]\Parigi-Lisbona (1996)\02 - Megalopoli.wav

Peak level 100.0 %
Track quality 100.0 %
Test CRC 7C99F569
Copy CRC 7C99F569
Accurately ripped (confidence 1) [BD131E8D]
Copy OK

Track 3

Filename E:\Musica\Area\Live Concerts Box Set (2002) [FLAC]\Parigi-Lisbona (1996)\03 - La Mela Di Odessa.wav

Peak level 99.5 %
Track quality 99.9 %
Test CRC 5E8531A6
Copy CRC 5E8531A6
Accurately ripped (confidence 1) [47B61257]
Copy OK

Track 4

Filename E:\Musica\Area\Live Concerts Box Set (2002) [FLAC]\Parigi-Lisbona (1996)\04 - Lobotomia.wav

Peak level 83.1 %
Track quality 100.0 %
Test CRC 9B4E41ED
Copy CRC 9B4E41ED
Accurately ripped (confidence 1) [48A414A0]
Copy OK

Track 5

Filename E:\Musica\Area\Live Concerts Box Set (2002) [FLAC]\Parigi-Lisbona (1996)\05 - Presentation Concerts Lisboa.wav

Peak level 88.7 %
Track quality 100.0 %
Test CRC 2136B4D9
Copy CRC 2136B4D9
Accurately ripped (confidence 1) [5C95FEB0]
Copy OK

Track 6

Filename E:\Musica\Area\Live Concerts Box Set (2002) [FLAC]\Parigi-Lisbona (1996)\06 - Arbeit Macht Frei.wav

Peak level 93.3 %
Track quality 99.9 %
Test CRC E79D9B20
Copy CRC E79D9B20
Accurately ripped (confidence 1) [DFB71DE4]
Copy OK

Track 7

Filename E:\Musica\Area\Live Concerts Box Set (2002) [FLAC]\Parigi-Lisbona (1996)\07 - Cometa Rossa.wav

Peak level 88.3 %
Track quality 100.0 %
Test CRC 5C631074
Copy CRC 5C631074
Accurately ripped (confidence 1) [A5230FB0]
Copy OK

Track 8

Filename E:\Musica\Area\Live Concerts Box Set (2002) [FLAC]\Parigi-Lisbona (1996)\08 - Luglio, Agosto, Settembre ( Nero ).wav

Peak level 97.2 %
Track quality 100.0 %
Test CRC C44CF2CD
Copy CRC C44CF2CD
Accurately ripped (confidence 1) [8A285239]
Copy OK

Track 9

Filename E:\Musica\Area\Live Concerts Box Set (2002) [FLAC]\Parigi-Lisbona (1996)\09 - L'Internazionale.wav

Peak level 100.0 %
Track quality 100.0 %
Test CRC ED87969C
Copy CRC ED87969C
Accurately ripped (confidence 1) [2D9728C0]
Copy OK

Track 10

Filename E:\Musica\Area\Live Concerts Box Set (2002) [FLAC]\Parigi-Lisbona (1996)\10 - Zizina Zamirizar.wav

Peak level 100.0 %
Track quality 99.9 %
Test CRC 697B8550
Copy CRC 697B8550
Accurately ripped (confidence 1) [4540F2BA]
Copy OK

Track 11

Filename E:\Musica\Area\Live Concerts Box Set (2002) [FLAC]\Parigi-Lisbona (1996)\11 - Canto Dei Pastori.wav

Peak level 99.9 %
Track quality 100.0 %
Test CRC BFF5CC18
Copy CRC BFF5CC18
Accurately ripped (confidence 1) [F4DF5587]
Copy OK


All tracks accurately ripped

No errors occurred

End of status report

[CUETools log; Date: 13.04.2018 23:56:17; Version: 2.1.4]
[CTDB TOCID: F092R0xS6h4kf3s2BCBfUC1CldE-] found.
Track | CTDB Status
1 | (3/4) Accurately ripped
2 | (3/4) Accurately ripped
3 | (3/4) Accurately ripped
4 | (3/4) Accurately ripped
5 | (4/4) Accurately ripped
6 | (3/4) Accurately ripped
7 | (4/4) Accurately ripped
8 | (3/4) Accurately ripped
9 | (3/4) Accurately ripped
10 | (3/4) Accurately ripped
11 | (3/4) Accurately ripped
[AccurateRip ID: 001cd9a8-00f7969a-8a0f470b] found.
Track [ CRC | V2 ] Status
01 [c98a487a|41ea7f23] (6+3/9) Accurately ripped
02 [bd131e8d|5fbb152c] (6+3/9) Accurately ripped
03 [47b61257|cfebf181] (6+3/9) Accurately ripped
04 [48a414a0|4b5c93ef] (6+3/9) Accurately ripped
05 [5c95feb0|65b91bba] (6+3/9) Accurately ripped
06 [dfb71de4|9bd7895d] (6+3/9) Accurately ripped
07 [a5230fb0|94820865] (6+3/9) Accurately ripped
08 [8a285239|48291474] (6+3/9) Accurately ripped
09 [2d9728c0|75fa2c27] (6+3/9) Accurately ripped
10 [4540f2ba|201f9b1d] (6+3/9) Accurately ripped
11 [f4df5587|2778d954] (6+3/9) Accurately ripped

Track Peak [ CRC32 ] [W/O NULL] [ LOG ]
– 99,9 [BF8668C0] [121A7932]
01 99,9 [3D37126F] [5637FE5A] CRC32
02 99,9 [7C99F569] [D1062E2A] CRC32
03 99,5 [5E8531A6] [BE2B63B8] CRC32
04 83,1 [9B4E41ED] [70DB9AC8] CRC32
05 88,7 [2136B4D9] [97CD0F69] CRC32
06 93,3 [E79D9B20] [FBFBB9F4] CRC32
07 88,3 [5C631074] [2E787BBC] CRC32
08 97,2 [C44CF2CD] [DF3AB69A] CRC32
09 99,9 [ED87969C] [F351704E] CRC32
10 99,9 [697B8550] [3AAD77EA] CRC32
11 99,9 [BFF5CC18] [8F81D49A] CRC32

Thanks to the original releaser

See also: