Subcategories

Aretha Franklin - Oh Me Oh My: Aretha Live in Philly, 1972 (2007)

Posted By: uff
Aretha Franklin - Oh Me Oh My: Aretha Live in Philly, 1972 (2007)

Aretha Franklin - Oh Me Oh My: Aretha Live in Philly, 1972 (2007)
R&B | 1cd | EAC Rip | Flac + Cue + Log | covers
Atlantic/Rhino RHM2 07757 limited edition | rel: 2007 | 390Mb

This nearly hour-long live set captures Aretha Franklin – the unmitigated Queen of Soul – during a 1972 appearance at a National Association of Radio and Television Announcers function in the City of Brotherly Love. Franklin was cresting a secondary wave of success thanks to the crossover appeal of Aretha Live at Fillmore West (1971). Plus, her most recent studio offering Young, Gifted and Black (1972) also spawned a pair of Top Ten pop singles – the funky opener "Rock Steady" and the jazzy "Day Dreaming," the latter of which is linked here in a medley alongside the 1968 hit "Think." Likewise, she combines a verse and chorus of her signature sides "I Never Loved a Man (The Way That I Love You)" and "I Say a Little Prayer"." Best of the lot however is the soul stirring coupling of "Bridge Over Troubled Water" and "We've Only Just Begun." Franklin's piano playing – which is somewhat sonically outsized by the backing orchestration – is infectiously heartfelt. The vocal-less introduction is baptized in Franklin's gospel roots and without having to sing a note, she effortlessly punctuates the familiar melody with her trademark attitude and passion. It is additionally worth noting that Franklin offers fresh arrangements when compared to the performances of the previous year as heard on the aforementioned Aretha Live at Fillmore West. The assembled players shine on the update of Nina Simone's "Young Gifted and Black." Franklin's ferociously funky keys kick start the entire ensemble as they take full advantage of their chance to boogie. As the show winds down, Franklin seems to just be getting to the essence of her musical being. Most notably on the remake of Bobby Womack's "That's the Way I Feel About Cha" – which is infinitely more impassioned here than the comparatively sterile reading that would turn up on her subsequent odds and sods LP Hey Now Hey (The Other Side of the Sky) (1973). Rounding out the evening is the ferocious and frenzied "Spirit in the Dark" as Franklin brings the house down with an intensity that rivals any previously known versions. Even those chronicled on the quadruple-disc Don't Fight the Feeling (2005) package which chronicles every note of the three-night run that yielded Aretha Live at Fillmore West. For Franklin enthusiasts, Oh Me Oh My: Aretha Live in Philly, 1972 is a worthy companion to that equally indispensable artifact. ~Allmusic

Track listing
01. Introduction (Also Sprach Zarathustra), Rock Steady (4:26)
02. This Girl's In Love With You (2:14)
03. Medley–I Never Loved A Man (The Way I Love You), I Say A Little Prayer (2:29)
04. Medley–Day Dreaming, Think (3:27)
05. Spanish Harlem (3:04)
06. Medley–Chain Of Fools, See Saw (2:28)
07. Don't Play That Song (1:52)
08. Respect (2:17)
09. Medley–Bridge Over Trouble Water, We've Only Just Begun (7:48)
10. Young, Gifted And Black (instrumental) (6:43)
11. Oh Me Oh My (I'm A Fool For You Baby) (4:43)
12. That's The Way I Feel About Cha (4:58)
13. April Fools (3:30)
14. Spirit In The Dark (6:22)
~ (56:20)


Exact Audio Copy V0.99 prebeta 3 from 28. July 2007

EAC extraction logfile from 4. November 2007, 0:02

Aretha Franklin / Oh Me Oh My–Aretha Live In Philly, 1972

Used drive : TSSTcorpDVD+-RW TS-H553A Adapter: 0 ID: 2

Read mode : Secure
Utilize accurate stream : Yes
Defeat audio cache : Yes
Make use of C2 pointers : No

Read offset correction : 6
Overread into Lead-In and Lead-Out : No
Fill up missing offset samples with silence : Yes
Delete leading and trailing silent blocks : No
Null samples used in CRC calculations : Yes
Used interface : Native Win32 interface for Win NT & 2000
Gap handling : Appended to previous track

Used output format : User Defined Encoder
Selected bitrate : 768 kBit/s
Quality : High
Add ID3 tag : No
Command line compressor : C:\Program Files\Exact Audio Copy\FLAC\FLAC.EXE
Additional command line options : -6 -V -T "ARTIST=%a" -T "TITLE=%t" -T "ALBUM=%g" -T "DATE=%y" -T "TRACKNUMBER=%n" -T "GENRE=%m" -T "COMMENT=%e" %s -o %d


TOC of the extracted CD

Track | Start | Length | Start sector | End sector
––––––––––––––––––––––––––––-
1 | 0:00.00 | 4:25.63 | 0 | 19937
2 | 4:25.63 | 2:13.67 | 19938 | 29979
3 | 6:39.55 | 2:28.63 | 29980 | 41142
4 | 9:08.43 | 3:26.43 | 41143 | 56635
5 | 12:35.11 | 3:03.70 | 56636 | 70430
6 | 15:39.06 | 2:28.16 | 70431 | 81546
7 | 18:07.22 | 1:51.58 | 81547 | 89929
8 | 19:59.05 | 2:17.23 | 89930 | 100227
9 | 22:16.28 | 7:48.23 | 100228 | 135350
10 | 30:04.51 | 6:42.59 | 135351 | 165559
11 | 36:47.35 | 4:42.38 | 165560 | 186747
12 | 41:29.73 | 4:57.45 | 186748 | 209067
13 | 46:27.43 | 3:29.68 | 209068 | 224810
14 | 49:57.36 | 6:22.07 | 224811 | 253467


Track 1

Filename K:\New Rips\Aretha Franklin - Oh Me Oh My–Aretha Live In Philly, 1972 (1972) [FLAC]\01 - Introduction (Also Sprach Zarathustra), Rock Steady.wav

Pre-gap length 0:00:02.00

Peak level 100.0 %
Track quality 100.0 %
Test CRC B249C880
Copy CRC B249C880
Track not present in AccurateRip database
Copy OK

Track 2

Filename K:\New Rips\Aretha Franklin - Oh Me Oh My–Aretha Live In Philly, 1972 (1972) [FLAC]\02 - This Girl's In Love With You.wav

Pre-gap length 0:00:09.54

Peak level 99.9 %
Track quality 100.0 %
Test CRC ABFBC135
Copy CRC ABFBC135
Track not present in AccurateRip database
Copy OK

Track 3

Filename K:\New Rips\Aretha Franklin - Oh Me Oh My–Aretha Live In Philly, 1972 (1972) [FLAC]\03 - Medley–I Never Loved A Man (The Way I Love You), I Say A Little Prayer.wav

Peak level 100.0 %
Track quality 100.0 %
Test CRC 833AAD88
Copy CRC 833AAD88
Track not present in AccurateRip database
Copy OK

Track 4

Filename K:\New Rips\Aretha Franklin - Oh Me Oh My–Aretha Live In Philly, 1972 (1972) [FLAC]\04 - Medley–Day Dreaming, Think.wav

Peak level 100.0 %
Track quality 100.0 %
Test CRC 49D6EE64
Copy CRC 49D6EE64
Track not present in AccurateRip database
Copy OK

Track 5

Filename K:\New Rips\Aretha Franklin - Oh Me Oh My–Aretha Live In Philly, 1972 (1972) [FLAC]\05 - Spanish Harlem.wav

Peak level 100.0 %
Track quality 99.9 %
Test CRC 353C8B8C
Copy CRC 353C8B8C
Track not present in AccurateRip database
Copy OK

Track 6

Filename K:\New Rips\Aretha Franklin - Oh Me Oh My–Aretha Live In Philly, 1972 (1972) [FLAC]\06 - Medley–Chain Of Fools, See Saw.wav

Peak level 100.0 %
Track quality 100.0 %
Test CRC 508F19C5
Copy CRC 508F19C5
Track not present in AccurateRip database
Copy OK

Track 7

Filename K:\New Rips\Aretha Franklin - Oh Me Oh My–Aretha Live In Philly, 1972 (1972) [FLAC]\07 - Don't Play That Song.wav

Peak level 100.0 %
Track quality 100.0 %
Test CRC 992C4A34
Copy CRC 992C4A34
Track not present in AccurateRip database
Copy OK

Track 8

Filename K:\New Rips\Aretha Franklin - Oh Me Oh My–Aretha Live In Philly, 1972 (1972) [FLAC]\08 - Respect.wav

Peak level 100.0 %
Track quality 100.0 %
Test CRC 6EA37DA9
Copy CRC 6EA37DA9
Track not present in AccurateRip database
Copy OK

Track 9

Filename K:\New Rips\Aretha Franklin - Oh Me Oh My–Aretha Live In Philly, 1972 (1972) [FLAC]\09 - Medley–Bridge Over Trouble Water, We've Only Just Begun.wav

Peak level 99.8 %
Track quality 100.0 %
Test CRC 06840635
Copy CRC 06840635
Track not present in AccurateRip database
Copy OK

Track 10

Filename K:\New Rips\Aretha Franklin - Oh Me Oh My–Aretha Live In Philly, 1972 (1972) [FLAC]\10 - Young, Gifted And Black (instrumental).wav

Peak level 100.0 %
Track quality 99.9 %
Test CRC E34B2EE6
Copy CRC E34B2EE6
Track not present in AccurateRip database
Copy OK

Track 11

Filename K:\New Rips\Aretha Franklin - Oh Me Oh My–Aretha Live In Philly, 1972 (1972) [FLAC]\11 - Oh Me Oh My (I'm A Fool For You Baby).wav

Peak level 100.0 %
Track quality 100.0 %
Test CRC 3CE99654
Copy CRC 3CE99654
Track not present in AccurateRip database
Copy OK

Track 12

Filename K:\New Rips\Aretha Franklin - Oh Me Oh My–Aretha Live In Philly, 1972 (1972) [FLAC]\12 - That's The Way I Feel About Cha.wav

Peak level 100.0 %
Track quality 100.0 %
Test CRC F02F2591
Copy CRC F02F2591
Track not present in AccurateRip database
Copy OK

Track 13

Filename K:\New Rips\Aretha Franklin - Oh Me Oh My–Aretha Live In Philly, 1972 (1972) [FLAC]\13 - April Fools.wav

Peak level 100.0 %
Track quality 100.0 %
Test CRC 09DD50D5
Copy CRC 09DD50D5
Track not present in AccurateRip database
Copy OK

Track 14

Filename K:\New Rips\Aretha Franklin - Oh Me Oh My–Aretha Live In Philly, 1972 (1972) [FLAC]\14 - Spirit In The Dark.wav

Peak level 100.0 %
Track quality 100.0 %
Test CRC 8B0C280F
Copy CRC 8B0C280F
Track not present in AccurateRip database
Copy OK
None of the tracks are present in the AccurateRip database
No errors occurred
End of status report


[CUETools log; Date: 2014.09.16. 11:08:22; Version: 2.1.4]
[CTDB TOCID: mnnvGUjnUCBW6g7cc4v5CwRWrxg-] found.
Track | CTDB Status
1 | (4/4) Accurately ripped
2 | (4/4) Accurately ripped
3 | (4/4) Accurately ripped
4 | (4/4) Accurately ripped
5 | (4/4) Accurately ripped
6 | (4/4) Accurately ripped
7 | (4/4) Accurately ripped
8 | (4/4) Accurately ripped
9 | (4/4) Accurately ripped
10 | (4/4) Accurately ripped
11 | (4/4) Accurately ripped
12 | (4/4) Accurately ripped
13 | (4/4) Accurately ripped
14 | (4/4) Accurately ripped
[AccurateRip ID: 00196747-0116dc34-c90d330e] found.
Track [ CRC | V2 ] Status
01 [346ffd39|20a77fae] (5+2/9) Accurately ripped
02 [9d2c6231|477711c4] (5+2/9) Accurately ripped
03 [829e2230|c86866d7] (4+2/8) Accurately ripped
04 [353a2bc1|af9fe551] (5+2/9) Accurately ripped
05 [e85e81ef|aa9311ed] (5+2/9) Accurately ripped
06 [fd0bfec3|9f33e071] (5+2/9) Accurately ripped
07 [e742844b|5b4c6561] (5+2/9) Accurately ripped
08 [dd43848d|be4b5e03] (5+2/9) Accurately ripped
09 [14b9e552|a8446208] (5+2/9) Accurately ripped
10 [e2d32761|e6fd6b68] (5+2/9) Accurately ripped
11 [fc9c3e11|509c25b7] (5+2/9) Accurately ripped
12 [a1f6e29b|5f3beed8] (5+2/9) Accurately ripped
13 [bf227095|833ec95c] (5+2/9) Accurately ripped
14 [95267952|92b889f7] (5+2/9) Accurately ripped
Offsetted by -18:
01 [5fc1ee1f] (0/9) No match (V2 was not tested)
02 [a0073ba5] (0/9) No match (V2 was not tested)
03 [19a067b9] (0/8) No match (V2 was not tested)
04 [ba40906f] (0/9) No match (V2 was not tested)
05 [1566fc91] (0/9) No match (V2 was not tested)
06 [1953f910] (0/9) No match (V2 was not tested)
07 [ccaf58ae] (0/9) No match (V2 was not tested)
08 [83a1e230] (0/9) No match (V2 was not tested)
09 [0c12a508] (0/9) No match (V2 was not tested)
10 [25d7f36c] (0/9) No match (V2 was not tested)
11 [15f0e7fc] (0/9) No match (V2 was not tested)
12 [5b7718e6] (0/9) No match (V2 was not tested)
13 [58267839] (0/9) No match (V2 was not tested)
14 [895abec3] (0/9) No match (V2 was not tested)

Track Peak [ CRC32 ] [W/O NULL]
– 100,0 [B01BB7C7] [5C0D5327]
01 100,0 [B249C880] [65379FB5]
02 99,9 [ABFBC135] [7C481AC1]
03 100,0 [833AAD88] [7EE4746A]
04 100,0 [49D6EE64] [2D108724]
05 100,0 [353C8B8C] [9703669D]
06 100,0 [508F19C5] [DC2C4203]
07 100,0 [992C4A34] [2C70ADA5]
08 100,0 [6EA37DA9] [0E6C9269]
09 99,8 [06840635] [736AE4AA]
10 100,0 [E34B2EE6] [DD4B0EA8]
11 100,0 [3CE99654] [45B875A6]
12 100,0 [F02F2591] [0DDAFAAF]
13 100,0 [09DD50D5] [11F5A343]
14 100,0 [8B0C280F] [566A88A2]


original uploader unknown, found in my archive