Subcategories

Aretha Franklin - I Never Loved A Man The Way I Love You (1967) [1995, Remastered Reissue]

Posted By: BlondStyle
Aretha Franklin - I Never Loved A Man The Way I Love You (1967) [1995, Remastered Reissue]

Aretha Franklin - I Never Loved A Man The Way I Love You (1967) [1995, Remastered Reissue]
R&B, Soul | EAC Rip | WavPack (WV), Img+CUE+LOG+Full Scans-600dpi (PNG) | 41:26 Min | 402,98 Mb
Label: Rhino Records Inc. (US) | Released: 1995, June, 20
Crabby Appleton - Crabby Appleton (1970) [Reissue 2012]

I Never Loved a Man the Way I Love You is the eleventh studio album by American singer Aretha Franklin. Released on March 10, 1967 by Atlantic Records, It went to #2 on the Billboard album chart and #1 on the magazine's Black Albums chart. It was certified Gold by the RIAA in 1967. It received a #83 ranking on Rolling Stone magazine's 2003 list of the 500 greatest albums of all time and inclusion in both the 1001 Albums You Must Hear Before You Die (2005) and 1,000 Recordings to Hear Before You Die (2008). The album included two top-10 singles: "Respect" was a #1 single on Billboard's Hot 100 Pop singles chart, and "I Never Loved a Man (The Way I Love You)" peaked at #9. In 1967, Rolling Stone chided the album for "the lack of versatility on the part of the sidemen. The drums weren't hard enough, the guitar was weak, and the production lacked polish."[3] In 2002, though, they placed the album at #1 on their "Women in Rock: 50 Essential Albums" list. In 2003, the album was ranked #83 on Rolling Stone's list of "The 500 Greatest Albums of All Time". Q magazine (1/03, p. 54) included the album in their list of the "100 Greatest Albums Ever". Q (7/93, p. 106) also gave the album 4 stars and said "...[the album] came out in May 1967 and was number 2 in America within weeks... now it stands untainted by time. She seemed so much a force of nature it's strange to recall that this was actually her tenth album..." ~Wikipedia~
Crabby Appleton - Crabby Appleton (1970) [Reissue 2012]

Crabby Appleton - Crabby Appleton (1970) [Reissue 2012]


Release of the album: 1967, March, 10 [LP Atlantic Records, Cat.# ATL 1051, USA]
Release of this CD: 1995, June, 20 [CD Rhino Records Inc. (US), Cat.# R2 71934 / UPC: 081227193423]
This Reissue Ⓒ 1967 & 1995 Atlantic Recording Corporation
Manufactured & Marketed by Rhino Records Inc.
Printed in the U.S.A.


Arranged By [Horn Arrangement] – Charles Chalmers (tracks: 3)
Arranged By, Directed By, Engineer [Recording Engineer] – Tom Dowd
Art Direction [Reissue Art Direction] – Coco Shinomiya
Backing Vocals – Carolyn Franklin (tracks: 1, 2, 5, 6, 9), Cissy Houston (tracks: 2, 9), Erma Franklin (tracks: 1, 2, 5, 6, 9)
Baritone Saxophone – Willie Bridges (tracks: 1, 2, 4 to 8, 10)
Bass – Tommy Cogbill
Cornet – Melvin Lastie (tracks: 1, 2, 4 to 8)
Design [Original Cover Design] – Loring Eutemey
Design [Reissue Design] – Rachel Gutek
Drums – Gene Chrisman (tracks: 4, 7, 8), Roger Hawkins (tracks: 1 to 3, 5, 6, 9 to 11)
Electric Piano – Spooner Oldham (tracks: 3, 4)
Engineer [Recording Engineer] – Arif Mardin
Guitar – Chips Moman (tracks: 3, 10), Jimmy Johnson (tracks: 1, 3 to 6, 9 to 11)
Liner Notes – David Nathan, Jerry Wexler
Organ – Spooner Oldham (tracks: 1, 6, 7, 9, 11)
Other [Discographical Annotation] – Gary Peterson
Photography [Cover Photo] – Jerry Schatzberg
Producer – Jerry Wexler
Remastered By – Bill Inglot, Dan Hersch
Supervised By [Reissue Supervision] – David McLees, Patrick Milligan
Tenor Saxophone – Charles Chalmers (tracks: 1 to 8, 10), Joe Arnold (tracks: 3), King Curtis (tracks: 1, 2, 4 to 8, 10)
Trombone – David Hood (tracks: 3)
Trumpet – Ernie Royal (tracks: 7), Ken Laxton (tracks: 3), Melvin Lastie (tracks: 10)
Vibraphone – Arif Mardin (tracks: 11)
Vocals, Piano – Aretha Franklin (tracks: 1 to 9, 11)


Tracklist:

01. Respect (02:28)
(Otis Redding)
02. Drown In My Tears (04:08)
(Henry Glover)
03. I Never Loved A Man (The Way I Love You) (02:52)
(Ronny Shannon)
04. Soul Serenade (02:39)
(Curtis Ousley, Luther Dixon)
05. Don't Let Me Lose This Dream (02:24)
(Aretha Franklin, Ted White)
06. Baby, Baby, Baby (02:55)
(Aretha Franklin, Carolyn Franklin)
07. Dr. Feelgood (Love Is A Serious Business) (03:23)
(Aretha Franklin, Ted White)
08. Good Times (02:10)
(Sam Cooke)
09. Do Right Woman - Do Right Man (03:17)
(Chips Moman, Dan Penn)
10. Save Me (02:22)
(Aretha Franklin, Carolyn Franklin, Curtis Ousley)
11. A Change Is Gonna Come (04:20)
(Sam Cooke)

Bonus Tracks:

12. Respect (Stereo Version) (02:29)
(Otis Redding)
13. I Never Loved A Man (The Way I Love You) (Stereo Version) (02:46)
(Ronny Shannon)
14. Do Right Woman - Do Right Man (Stereo Version) (03:15)
(Chips Moman, Dan Penn)

Exact Audio Copy V1.0 beta 2 from 29. April 2011

EAC extraction logfile from 11. October 2011, 18:25

Aretha Franklin / I Never Loved A Man The Way I Love You

Used drive : Memorex 52MAXX 3252AJ1 Adapter: 1 ID: 0

Read mode : Secure
Utilize accurate stream : Yes
Defeat audio cache : Yes
Make use of C2 pointers : No

Read offset correction : 6
Overread into Lead-In and Lead-Out : No
Fill up missing offset samples with silence : Yes
Delete leading and trailing silent blocks : No
Null samples used in CRC calculations : Yes
Used interface : Native Win32 interface for Win NT & 2000

Used output format : User Defined Encoder
Selected bitrate : 1024 kBit/s
Quality : High
Add ID3 tag : No
Command line compressor : C:\Program Files (x86)\Exact Audio Copy\wavpack.exe
Additional command line options : -w "Artist=%artist%" -w "Title=%title%" -w "Album=%albumtitle%" -w "Year=%year%" -w "Track=%tracknr%" -w "Genre=%genre%" -h %source% %dest%


TOC of the extracted CD

Track | Start | Length | Start sector | End sector
––––––––––––––––––––––––––––-
1 | 0:00.32 | 2:27.45 | 32 | 11101
2 | 2:28.02 | 4:07.55 | 11102 | 29681
3 | 6:35.57 | 2:51.58 | 29682 | 42564
4 | 9:27.40 | 2:39.05 | 42565 | 54494
5 | 12:06.45 | 2:23.50 | 54495 | 65269
6 | 14:30.20 | 2:54.57 | 65270 | 78376
7 | 17:25.02 | 3:23.35 | 78377 | 93636
8 | 20:48.37 | 2:10.20 | 93637 | 103406
9 | 22:58.57 | 3:16.48 | 103407 | 118154
10 | 26:15.30 | 2:21.47 | 118155 | 128776
11 | 28:37.02 | 4:20.08 | 128777 | 148284
12 | 32:57.10 | 2:28.55 | 148285 | 159439
13 | 35:25.65 | 2:46.17 | 159440 | 171906
14 | 38:12.07 | 3:14.53 | 171907 | 186509


Range status and errors

Selected range

Filename C:\Users\M@ce\Music\Archives\Rips\Aretha Franklin - I Never Loved A Man The Way I Love You.wav

Peak level 94.6 %
Extraction speed 2.4 X
Range quality 100.0 %
Test CRC BAEC1B9C
Copy CRC BAEC1B9C
Copy OK

No errors occurred


AccurateRip summary

Track 1 accurately ripped (confidence 3) [F748FEB6] (AR v2)
Track 2 accurately ripped (confidence 3) [8FC5EDF7] (AR v2)
Track 3 accurately ripped (confidence 3) [2985A55B] (AR v2)
Track 4 accurately ripped (confidence 3) [8F9129C9] (AR v2)
Track 5 accurately ripped (confidence 3) [5C2C5891] (AR v2)
Track 6 accurately ripped (confidence 3) [3D062104] (AR v2)
Track 7 accurately ripped (confidence 3) [29E7F37B] (AR v2)
Track 8 accurately ripped (confidence 3) [CC2AF0E8] (AR v2)
Track 9 accurately ripped (confidence 3) [4DB9F822] (AR v2)
Track 10 accurately ripped (confidence 3) [FBFC0C98] (AR v2)
Track 11 accurately ripped (confidence 3) [71199747] (AR v2)
Track 12 accurately ripped (confidence 3) [10D244F5] (AR v2)
Track 13 accurately ripped (confidence 3) [02A90684] (AR v2)
Track 14 accurately ripped (confidence 3) [A4371FDF] (AR v2)

All tracks accurately ripped

End of status report

–– CUETools DB Plugin V2.1.2

[CTDB TOCID: 1Rqm1YETviU8.mg9psi7c.CJC0E-] found, Submit result: 1Rqm1YETviU8.mg9psi7c.CJC0E- has been confirmed
[5e0ee47c] (079/135) Differs in 15081 samples @00:00:10-00:00:32
[25df6ea1] (056/135) Accurately ripped
You can use CUETools to repair this rip.


==== Log checksum 3F078D3EA9A67703561228ED887DFFF27EABE3B1B053A0E6ACA13CBA2923AD5B ====

foobar2000 1.3.9 / Dynamic Range Meter 1.1.1
log date: 2016-08-19 01:30:31

––––––––––––––––––––––––––––––––––––––––
Analyzed: Aretha Franklin / I Never Loved A Man The Way I Love You
––––––––––––––––––––––––––––––––––––––––

DR Peak RMS Duration Track
––––––––––––––––––––––––––––––––––––––––
DR8 -0.48 dB -10.50 dB 2:28 01-Respect
DR9 -0.48 dB -12.99 dB 4:08 02-Drown In My Own Tears
DR11 -0.48 dB -13.94 dB 2:52 03-I Never Loved A Man (The Way I Love You)
DR10 -0.48 dB -13.20 dB 2:39 04-Soul Serenade
DR9 -0.48 dB -11.92 dB 2:24 05-Don't Let Me Lose This Dream
DR9 -0.48 dB -12.19 dB 2:55 06-Baby, Baby, Baby
DR11 -0.48 dB -14.44 dB 3:23 07-Dr. Feelgood (Love Is A Serious Business)
DR10 -0.48 dB -12.51 dB 2:10 08-Good Times
DR11 -0.48 dB -14.29 dB 3:17 09-Do Right Woman - Do Right Man
DR10 -0.48 dB -12.11 dB 2:22 10-Save Me
DR11 -0.48 dB -14.34 dB 4:20 11-Change Is Gonna Come
DR10 -0.48 dB -12.41 dB 2:29 12-Respect [Stereo Version]
DR11 -0.48 dB -14.29 dB 2:46 13-I Never Loved A Man (The Way I Love You) [Stereo Version]
DR12 -0.48 dB -15.76 dB 3:15 14-Do Right Woman - Do Right Man [Stereo Version]
––––––––––––––––––––––––––––––––––––––––

Number of tracks: 14
Official DR value: DR10

Samplerate: 44100 Hz
Channels: 2
Bits per sample: 16
Bitrate: 630 kbps
Codec: WavPack
================================================================================

All thanks to RunawayTrane


See also:
Nitroflare
password: BlondStyle