Subcategories

Aretha Franklin - Original Album Series: 1967-1971 [5CD Box Set] (2010) [Japan]

Posted By: BlondStyle
Aretha Franklin - Original Album Series: 1967-1971 [5CD Box Set] (2010) [Japan]

Aretha Franklin - Original Album Series: 1967-1971 [5CD Box Set] (2010) [Japan]
R&B, Jazz, Soul, Vocal Pop | EAC Rip | FLAC, Img+CUE+LOG+Scans (JPEG) | 02:59:13 h. | 1,2 Gb
Label: Warner Music Japan Inc. (Japan) | Cat.# WPCR-26001~5 | Released: 2010-08-04 (2010-03-01)

Warner Bros repackaged and re-released six LPs by Aretha Franklin as a five-disc set. It's not a bad way to acquire the albums if you don't already own them.

Release of this 5CDs Set: 2010, August, 4 [CDs Warner Music Japan Inc. (Japan), Cat.# WPCR-26001~5 / EAN: 4943674100170]
This compilation ℗ & © 2009 Rhino Entertainment Company, a Warner Music Group Company.
Manufactured and Distributed by Warner Music Japan Inc., a Warner Music Group Company.
Made in Japan


Notes: Five original albums in mini-LP sleeves, all contained in a cardboard slipcase.

Credits:

Photography By [Cover Photo] – Getty Images
Producer – Arif Mardin (tracks: 4-1 to 5-10), Jerry Wexler, Tom Dowd (tracks: 4-1 to 4-12)


Original Album Series: Aretha Franklin (2010):

Aretha Franklin - Original Album Series: 1967-1971 [5CD Box Set] (2010) [Japan]

CD1: "I Never Loved A Man The Way I Love You" (1967)
R&B, Jazz, Soul, Vocal Pop | EAC Rip | FLAC, Img+CUE+LOG+Scans (JPEG) | 32:32 Min | 182,93 Mb
Label: Warner Music Japan Inc. (Japan) | Cat.# WPCR-26001 | Released: Released: 2010-08-04 (1967-03-10)

"I Never Loved a Man the Way I Love You" is the breakthrough 1967 album by Aretha Franklin. It went to #2 on the Billboard album chart and #1 on the magazine's Black Albums chart. It was certified Gold by the RIAA in 1967. It received a #83 ranking on Rolling Stone magazine's 2003 list of the 500 greatest albums of all time and inclusion in both the 1001 Albums You Must Hear Before You Die (2005) and 1,000 Recordings to Hear Before You Die (2008).
Tracklist:

01. Respect (02:28)
02. Drown In My Own Tears (04:06)
03. I Never Loved A Man (The Way I Love You) (02:45)
04. Soul Serenade (02:37)
05. Don't Let Me Lose This Dream (02:19)
06. Baby, Baby, Baby (02:54)
07. Dr. Feelgood (Love Is A Serious Business) (03:21)
08. Good Times (02:08)
09. Do Right Woman - Do Right Man (03:17)
10. Save Me (02:19)
11. A Change Is Gonna Come (04:18)

Exact Audio Copy V0.99 prebeta 4 from 23. January 2008

EAC extraction logfile from 23. August 2010, 18:30

Aretha Franklin / I Never Loved A Man The Way I Love You

Used drive : ATAPI DVD DW 8X16X8X16 Adapter: 0 ID: 2

Read mode : Secure
Utilize accurate stream : Yes
Defeat audio cache : Yes
Make use of C2 pointers : No

Read offset correction : 618
Overread into Lead-In and Lead-Out : No
Fill up missing offset samples with silence : Yes
Delete leading and trailing silent blocks : No
Null samples used in CRC calculations : Yes
Used interface : Native Win32 interface for Win NT & 2000

Used output format : Internal WAV Routines
Sample format : 44.100 Hz; 16 Bit; Stereo


TOC of the extracted CD

Track | Start | Length | Start sector | End sector
––––––––––––––––––––––––––––-
1 | 0:00.00 | 2:27.41 | 0 | 11065
2 | 2:27.41 | 4:05.71 | 11066 | 29511
3 | 6:33.37 | 2:44.57 | 29512 | 41868
4 | 9:18.19 | 2:36.66 | 41869 | 53634
5 | 11:55.10 | 2:19.19 | 53635 | 64078
6 | 14:14.29 | 2:54.23 | 64079 | 77151
7 | 17:08.52 | 3:21.16 | 77152 | 92242
8 | 20:29.68 | 2:07.48 | 92243 | 101815
9 | 22:37.41 | 3:17.14 | 101816 | 116604
10 | 25:54.55 | 2:19.10 | 116605 | 127039
11 | 28:13.65 | 4:18.15 | 127040 | 146404


Range status and errors

Selected range

Filename C:\BlondStyle\I Never Loved A Man The Way I Love You.wav

Peak level 100.0 %
Range quality 100.0 %
Test CRC 4364E392
Copy CRC 4364E392
Copy OK

No errors occurred


AccurateRip summary

Track 1 not present in database
Track 2 not present in database
Track 3 not present in database
Track 4 not present in database
Track 5 not present in database
Track 6 not present in database
Track 7 not present in database
Track 8 not present in database
Track 9 not present in database
Track 10 not present in database
Track 11 not present in database

None of the tracks are present in the AccurateRip database

End of status report

Analyzed: Aretha Franklin / I Never Loved A Man The Way I Love You
––––––––––––––––––––––––––––––––––––––––

DR Peak RMS Duration Track
––––––––––––––––––––––––––––––––––––––––
DR13 0.00 dB -15.18 dB 2:28 01-Respect
DR12 0.00 dB -15.25 dB 4:06 02-Drown In My Own Tears
DR15 0.00 dB -17.17 dB 2:45 03-I Never Loved A Man (The Way I Love You)
DR13 0.00 dB -15.66 dB 2:37 04-Soul Serenade
DR13 -0.12 dB -17.53 dB 2:19 05-Don't Let Me Lose This Dream
DR13 0.00 dB -15.98 dB 2:54 06-Baby, Baby, Baby
DR13 0.00 dB -17.34 dB 3:21 07-Dr. Feelgood (Love Is A Serious Business)
DR13 0.00 dB -15.81 dB 2:08 08-Good Times
DR13 0.00 dB -16.02 dB 3:17 09-Do Right Woman - Do Right Man
DR13 0.00 dB -13.93 dB 2:19 10-Save Me
DR13 0.00 dB -17.03 dB 4:18 11-A Change Is Gonna Come
––––––––––––––––––––––––––––––––––––––––

Number of tracks: 11
Official DR value: DR13

Samplerate: 44100 Hz
Channels: 2
Bits per sample: 16
Bitrate: 783 kbps
Codec: FLAC
================================================================================


Aretha Franklin - Original Album Series: 1967-1971 [5CD Box Set] (2010) [Japan]

CD2: "Aretha: Lady Soul" (1968)
R&B, Jazz, Soul, Vocal Pop | EAC Rip | FLAC, Img+CUE+LOG+Scans (JPEG) | 30:01 Min | 192,27 Mb
Label: Warner Music Japan Inc. (Japan) | Cat.# WPCR-26002 | Released: Released: 2010-08-04 (1968-01-22)

"Aretha: Lady Soul" is an album by Aretha Franklin, released in 1968. The album was her second R&B chart-topper, the follow-up to Aretha Arrives and included some of her biggest hit singles, "Chain of Fools" (#2 Pop), and "(You Make Me Feel Like) A Natural Woman" (#8 Pop), and "(Sweet Sweet Baby) Since You've Been Gone" (#5 Pop). It eventually sold over a million copies in the United States alone.
Tracklist:

01. Chain Of Fools (02:49)
02. Money Won't Change You (02:10)
03. People Get Ready (03:46)
04. Niki Hoeky (02:32)
05. (You Make Me Feel Like) A Natural Woman (02:45)
06. Since You've Been Gone (Sweet Sweet Baby) (02:26)
07. Good To Me As I Am To You (03:58)
08. Come Back Baby (02:27)
09. Groovin' (02:55)
10. Ain't No Way (04:11)

Exact Audio Copy V0.99 prebeta 4 from 23. January 2008

EAC extraction logfile from 23. August 2010, 20:13

Aretha Franklin / Lady Soul

Used drive : ATAPI DVD DW 8X16X8X16 Adapter: 0 ID: 2

Read mode : Secure
Utilize accurate stream : Yes
Defeat audio cache : Yes
Make use of C2 pointers : No

Read offset correction : 618
Overread into Lead-In and Lead-Out : No
Fill up missing offset samples with silence : Yes
Delete leading and trailing silent blocks : No
Null samples used in CRC calculations : Yes
Used interface : Native Win32 interface for Win NT & 2000

Used output format : Internal WAV Routines
Sample format : 44.100 Hz; 16 Bit; Stereo


TOC of the extracted CD

Track | Start | Length | Start sector | End sector
––––––––––––––––––––––––––––-
1 | 0:00.00 | 2:49.63 | 0 | 12737
2 | 2:49.63 | 2:10.00 | 12738 | 22487
3 | 4:59.63 | 3:46.00 | 22488 | 39437
4 | 8:45.63 | 2:31.37 | 39438 | 50799
5 | 11:17.25 | 2:45.38 | 50800 | 63212
6 | 14:02.63 | 2:25.37 | 63213 | 74124
7 | 16:28.25 | 3:58.13 | 74125 | 91987
8 | 20:26.38 | 2:27.25 | 91988 | 103037
9 | 22:53.63 | 2:55.25 | 103038 | 116187
10 | 25:49.13 | 4:11.62 | 116188 | 135074


Range status and errors

Selected range

Filename C:\BlondStyle\Lady Soul.wav

Peak level 100.0 %
Range quality 100.0 %
Test CRC E2D5BE2D
Copy CRC E2D5BE2D
Copy OK

No errors occurred


AccurateRip summary

Track 1 accurately ripped (confidence 1) [1F44067F]
Track 2 accurately ripped (confidence 1) [94C7C80D]
Track 3 accurately ripped (confidence 1) [5B747421]
Track 4 accurately ripped (confidence 1) [9036A234]
Track 5 accurately ripped (confidence 1) [87C1E4CE]
Track 6 accurately ripped (confidence 1) [0F819309]
Track 7 accurately ripped (confidence 1) [F75D343B]
Track 8 accurately ripped (confidence 1) [8C52D73F]
Track 9 accurately ripped (confidence 1) [731F4A83]
Track 10 accurately ripped (confidence 1) [BCF1F860]

All tracks accurately ripped

End of status report

Analyzed: Aretha Franklin / Lady Soul
––––––––––––––––––––––––––––––––––––––––

DR Peak RMS Duration Track
––––––––––––––––––––––––––––––––––––––––
DR12 0.00 dB -14.49 dB 2:50 01-Chain Of Fools
DR11 -0.30 dB -13.02 dB 2:10 02-Money Won't Change You
DR12 0.00 dB -15.21 dB 3:46 03-People Get Ready
DR12 -0.30 dB -13.94 dB 2:31 04-Niki Hoeky
DR11 0.00 dB -14.78 dB 2:46 05-(You Make Me Feel Like) A Natural Woman
DR12 0.00 dB -13.30 dB 2:25 06-Since You've Been Gone (Sweet Sweet Baby)
DR11 0.00 dB -14.46 dB 3:58 07-Good To Me As I Am To You
DR12 0.00 dB -13.71 dB 2:27 08-Come Back Baby
DR12 0.00 dB -15.08 dB 2:55 09-Groovin'
DR12 0.00 dB -15.55 dB 4:12 10-Ain't No Way
––––––––––––––––––––––––––––––––––––––––

Number of tracks: 10
Official DR value: DR12

Samplerate: 44100 Hz
Channels: 2
Bits per sample: 16
Bitrate: 850 kbps
Codec: FLAC
================================================================================


Aretha Franklin - Original Album Series: 1967-1971 [5CD Box Set] (2010) [Japan]

CD3: "Aretha Now" (1968)
R&B, Jazz, Soul, Vocal Pop | EAC Rip | FLAC, Img+CUE+LOG+Scans (JPEG) | 29:18 Min | 188,38 Mb
Label: Warner Music Japan Inc. (Japan) | Cat.# WPCR-26003 | Released: Released: 2010-08-04 (1968-06-14)

"Aretha Now" is a gold-certified 1968 album by Aretha Franklin. It reached #5 on Billboard's album chart. In the 1990s this recording was reissued on compact disc through Rhino Records.
Tracklist:

01. Think (02:20)
02. I Say A Little Prayer (03:37)
03. See Saw (02:46)
04. Night Time Is The Right Time (04:50)
05. You Send Me (02:30)
06. You're A Sweet Sweet Man (02:19)
07. I Take What I Want (02:33)
08. Hello Sunshine (03:04)
09. A Change (02:27)
10. I Can't See Myself Leaving You (03:01)

Exact Audio Copy V0.99 prebeta 4 from 23. January 2008

EAC extraction logfile from 23. August 2010, 22:37

Aretha Franklin / Aretha Now

Used drive : ATAPI DVD DW 8X16X8X16 Adapter: 0 ID: 2

Read mode : Secure
Utilize accurate stream : Yes
Defeat audio cache : Yes
Make use of C2 pointers : No

Read offset correction : 618
Overread into Lead-In and Lead-Out : No
Fill up missing offset samples with silence : Yes
Delete leading and trailing silent blocks : No
Null samples used in CRC calculations : Yes
Used interface : Native Win32 interface for Win NT & 2000

Used output format : Internal WAV Routines
Sample format : 44.100 Hz; 16 Bit; Stereo


TOC of the extracted CD

Track | Start | Length | Start sector | End sector
––––––––––––––––––––––––––––-
1 | 0:00.00 | 2:21.00 | 0 | 10574
2 | 2:21.00 | 3:34.48 | 10575 | 26672
3 | 5:55.48 | 2:45.66 | 26673 | 39113
4 | 8:41.39 | 4:47.63 | 39114 | 60701
5 | 13:29.27 | 2:28.62 | 60702 | 71863
6 | 15:58.14 | 2:17.42 | 71864 | 82180
7 | 18:15.56 | 2:33.04 | 82181 | 93659
8 | 20:48.60 | 3:03.17 | 93660 | 107401
9 | 23:52.02 | 2:26.18 | 107402 | 118369
10 | 26:18.20 | 2:59.66 | 118370 | 131860


Range status and errors

Selected range

Filename C:\BlondStyle\Aretha Now.wav

Peak level 100.0 %
Range quality 100.0 %
Test CRC 3F53F867
Copy CRC 3F53F867
Copy OK

No errors occurred


AccurateRip summary

Track 1 not present in database
Track 2 not present in database
Track 3 not present in database
Track 4 not present in database
Track 5 not present in database
Track 6 not present in database
Track 7 not present in database
Track 8 not present in database
Track 9 not present in database
Track 10 not present in database

None of the tracks are present in the AccurateRip database

End of status report

Analyzed: Aretha Franklin / Aretha Now
––––––––––––––––––––––––––––––––––––––––

DR Peak RMS Duration Track
––––––––––––––––––––––––––––––––––––––––
DR11 0.00 dB -13.28 dB 2:21 01-Think
DR12 -0.02 dB -14.81 dB 3:35 02-I Say A Little Prayer
DR11 -0.02 dB -13.64 dB 2:46 03-See Saw
DR11 -0.01 dB -13.83 dB 4:48 04-Night Time Is The Right Time
DR12 -0.02 dB -15.06 dB 2:29 05-You Send Me
DR11 -0.02 dB -13.63 dB 2:18 06-You're A Sweet Sweet Man
DR11 0.00 dB -12.51 dB 2:33 07-I Take What I Want
DR10 0.00 dB -12.27 dB 3:03 08-Hello Sunshine
DR12 0.00 dB -12.78 dB 2:26 09-A Change
DR12 -0.02 dB -13.10 dB 3:00 10-I Can't See Myself Leaving You
––––––––––––––––––––––––––––––––––––––––

Number of tracks: 10
Official DR value: DR11

Samplerate: 44100 Hz
Channels: 2
Bits per sample: 16
Bitrate: 853 kbps
Codec: FLAC
================================================================================


Aretha Franklin - Original Album Series: 1967-1971 [5CD Box Set] (2010) [Japan]

CD4: "Spirit In The Dark" (1970)
R&B, Jazz, Soul, Vocal Pop | EAC Rip | FLAC, Img+CUE+LOG+Scans (JPEG) | 39:09 Min | 240,97 Mb
Label: Warner Music Japan Inc. (Japan) | Cat.# WPCR-26004 | Released: Released: 2010-08-04 (1970-08-24)

"Spirit in the Dark" is an album by Aretha Franklin, released in 1970. It received mostly positive reviews, but was met with middling sales, despite having two hit singles, "Don't Play That Song (You Lied)", which peaked at #1 R&B, #11 on the Hot 100, and "Spirit in the Dark", peaking at #3 R&B and #23 Hot 100, in Billboard magazine.
Tracklist:

01. Don't Play That Song (03:03)
02. The Thrill Is Gone (From Yesterday's Kiss) (04:42)
03. Pullin' (03:38)
04. You And Me (03:34)
05. Honest I Do (03:19)
06. Spirit In The Dark (04:04)
07. When The Battle Is Over (02:43)
08. One Way Ticket (02:52)
09. Try Matty's (02:32)
10. That's All I Want From You (02:44)
11. On No Not My Baby (02:56)
12. Why I Sing The Blues (03:05)

Exact Audio Copy V0.99 prebeta 4 from 23. January 2008

EAC extraction logfile from 23. August 2010, 23:06

Aretha Franklin / Spirit In The Dark

Used drive : ATAPI DVD DW 8X16X8X16 Adapter: 0 ID: 2

Read mode : Secure
Utilize accurate stream : Yes
Defeat audio cache : Yes
Make use of C2 pointers : No

Read offset correction : 618
Overread into Lead-In and Lead-Out : No
Fill up missing offset samples with silence : Yes
Delete leading and trailing silent blocks : No
Null samples used in CRC calculations : Yes
Used interface : Native Win32 interface for Win NT & 2000

Used output format : Internal WAV Routines
Sample format : 44.100 Hz; 16 Bit; Stereo


TOC of the extracted CD

Track | Start | Length | Start sector | End sector
––––––––––––––––––––––––––––-
1 | 0:00.00 | 3:01.70 | 0 | 13644
2 | 3:01.70 | 4:42.27 | 13645 | 34821
3 | 7:44.22 | 3:37.40 | 34822 | 51136
4 | 11:21.62 | 3:34.05 | 51137 | 67191
5 | 14:55.67 | 3:18.60 | 67192 | 82101
6 | 18:14.52 | 4:03.65 | 82102 | 100391
7 | 22:18.42 | 2:45.10 | 100392 | 112776
8 | 25:03.52 | 2:50.70 | 112777 | 125596
9 | 27:54.47 | 2:31.33 | 125597 | 136954
10 | 30:26.05 | 2:42.22 | 136955 | 149126
11 | 33:08.27 | 2:54.58 | 149127 | 162234
12 | 36:03.10 | 3:05.22 | 162235 | 176131


Range status and errors

Selected range

Filename C:\BlondStyle\Spirit In The Dark.wav

Peak level 100.0 %
Range quality 100.0 %
Test CRC 62B29478
Copy CRC 62B29478
Copy OK

No errors occurred


AccurateRip summary

Track 1 not present in database
Track 2 not present in database
Track 3 not present in database
Track 4 not present in database
Track 5 not present in database
Track 6 not present in database
Track 7 not present in database
Track 8 not present in database
Track 9 not present in database
Track 10 not present in database
Track 11 not present in database
Track 12 not present in database

None of the tracks are present in the AccurateRip database

End of status report

Analyzed: Aretha Franklin / Spirit In The Dark
––––––––––––––––––––––––––––––––––––––––

DR Peak RMS Duration Track
––––––––––––––––––––––––––––––––––––––––
DR11 0.00 dB -14.06 dB 3:02 01-Don't Play That Song
DR14 0.00 dB -17.66 dB 4:42 02-The Thrill Is Gone (From Yesterday's Kiss)
DR13 -0.77 dB -16.82 dB 3:38 03-Pullin'
DR13 -0.84 dB -16.85 dB 3:34 04-You And Me
DR12 0.00 dB -15.31 dB 3:19 05-Honest I Do
DR11 0.00 dB -14.52 dB 4:04 06-Spirit In The Dark
DR11 0.00 dB -13.27 dB 2:45 07-When The Battle Is Over
DR14 0.00 dB -16.98 dB 2:51 08-One Way Ticket
DR14 0.00 dB -16.21 dB 2:31 09-Try Matty's
DR12 0.00 dB -15.59 dB 2:42 10-That's All I Want From You
DR13 0.00 dB -15.40 dB 2:55 11-Oh No Not My Baby
DR13 -0.20 dB -16.11 dB 3:05 12-Why I Sing The Blues
––––––––––––––––––––––––––––––––––––––––

Number of tracks: 12
Official DR value: DR13

Samplerate: 44100 Hz
Channels: 2
Bits per sample: 16
Bitrate: 817 kbps
Codec: FLAC
================================================================================


Aretha Franklin - Original Album Series: 1967-1971 [5CD Box Set] (2010) [Japan]

CD5: "Aretha Live At Fillmore West" (1971)
R&B, Jazz, Soul, Vocal Pop | EAC Rip | FLAC, Img+CUE+LOG+Scans (JPEG) | 48:14 Min | 329,07 Mb
Label: Warner Music Japan Inc. (Japan) | Cat.# WPCR-26005 | Released: Released: 2010-08-04 (1971-05-19)

"Live at Fillmore West" is a gold-certified album by Aretha Franklin, released in 1971. It was reissued on compact disc in the 1990s through Rhino Records. An expanded, limited edition 4-CD box set entitled, Don't Fight The Feeling: The Complete Aretha Franklin & King Curtis Live At Fillmore West was released by Rhino in 2005. This was limited to 5000 numbered copies. In addition, there is a guest duet vocal by Ray Charles on "Spirit in the Dark".
Tracklist:

01. Respect (03:56)
02. Love The One You're With (04:22)
03. Bridge Over Troubled Water (05:49)
04. Eleanor Rigby (02:33)
05. Make It With You (04:32)
06. Don't Play That Song (03:17)
07. Dr. Feelgood (07:03)
08. Spirit In The Dark (05:21)
09. Spirit In The Dark (Reprise with Ray Charles) (08:39)
10. Reach Out And Touch (Somebody's Hand) (02:39)

Exact Audio Copy V0.99 prebeta 4 from 23. January 2008

EAC extraction logfile from 23. August 2010, 23:38

Aretha Franklin / Live At Fillmore West

Used drive : ATAPI DVD DW 8X16X8X16 Adapter: 0 ID: 2

Read mode : Secure
Utilize accurate stream : Yes
Defeat audio cache : Yes
Make use of C2 pointers : No

Read offset correction : 618
Overread into Lead-In and Lead-Out : No
Fill up missing offset samples with silence : Yes
Delete leading and trailing silent blocks : No
Null samples used in CRC calculations : Yes
Used interface : Native Win32 interface for Win NT & 2000

Used output format : Internal WAV Routines
Sample format : 44.100 Hz; 16 Bit; Stereo


TOC of the extracted CD

Track | Start | Length | Start sector | End sector
––––––––––––––––––––––––––––-
1 | 0:00.00 | 3:56.33 | 0 | 17732
2 | 3:56.33 | 4:21.37 | 17733 | 37344
3 | 8:17.70 | 5:49.35 | 37345 | 63554
4 | 14:07.30 | 2:33.43 | 63555 | 75072
5 | 16:40.73 | 4:32.12 | 75073 | 95484
6 | 21:13.10 | 3:17.15 | 95485 | 110274
7 | 24:30.25 | 7:03.08 | 110275 | 142007
8 | 31:33.33 | 5:20.70 | 142008 | 166077
9 | 36:54.28 | 8:39.00 | 166078 | 205002
10 | 45:33.28 | 2:40.00 | 205003 | 217002


Range status and errors

Selected range

Filename C:\BlondStyle\Live At Fillmore West.wav

Peak level 97.2 %
Range quality 100.0 %
Test CRC 931B5161
Copy CRC 931B5161
Copy OK

No errors occurred


AccurateRip summary

Track 1 not present in database
Track 2 not present in database
Track 3 not present in database
Track 4 not present in database
Track 5 not present in database
Track 6 not present in database
Track 7 not present in database
Track 8 not present in database
Track 9 not present in database
Track 10 not present in database

None of the tracks are present in the AccurateRip database

End of status report

Analyzed: Aretha Franklin / Live At Fillmore West
––––––––––––––––––––––––––––––––––––––––

DR Peak RMS Duration Track
––––––––––––––––––––––––––––––––––––––––
DR11 -0.24 dB -13.38 dB 3:56 01-Respect
DR11 -0.24 dB -13.91 dB 4:21 02-Love The One You're With
DR10 -0.24 dB -13.66 dB 5:49 03-Bridge Over Troubled Water
DR11 -0.24 dB -12.86 dB 2:34 04-Eleanor Rigby
DR11 -0.24 dB -14.29 dB 4:32 05-Make It With You
DR10 -0.24 dB -12.03 dB 3:17 06-Don't Play That Song
DR12 -0.24 dB -15.76 dB 7:03 07-Dr. Feelgood
DR10 -0.24 dB -12.69 dB 5:21 08-Spirit In The Dark
DR10 -0.24 dB -12.58 dB 8:39 09-Spirit In The Dark (Reprise with Ray Charles)
DR11 -0.48 dB -15.40 dB 2:40 10-Reach Out And Touch (Somebody's Hand)
––––––––––––––––––––––––––––––––––––––––

Number of tracks: 10
Official DR value: DR11

Samplerate: 44100 Hz
Channels: 2
Bits per sample: 16
Bitrate: 906 kbps
Codec: FLAC
================================================================================

Aretha Franklin - Original Album Series: 1967-1971 [5CD Box Set] (2010) [Japan]

See also:
Aretha Franklin - Aretha: With The Ray Bryant Combo (1961/2011) [Official Digital Download 24bit/96kHz]
Aretha Franklin - The Tender, The Moving, The Swinging Aretha Franklin (1962/2011) [Official Digital Download 24bit/96kHz]
Aretha Franklin - The Electrifying Aretha Franklin (Deluxe Edition) (1962/2014) [Official Digital Download 24bit/96kHz]
Aretha Franklin - Laughing On The Outside (1963/2011) [Official Digital Download 24bit/96kHz]
Aretha Franklin - Tiny Sparrow: The Bobby Scott Sessions (1963/2011) [Official Digital Download 24bit/96kHz]
Aretha Franklin - Runnin' Out Of Fools (1964/2011) [Official Digital Download 24bit/96kHz]
Aretha Franklin - Take A Look: The Clyde Otis Sessions (1964/2011) [Official Digital Download 24bit/96kHz]
Aretha Franklin - A Bit Of Soul (1965/2011) [Official Digital Download 24bit/96kHz]
Aretha Franklin - Runnin' Out Of Fools (1964) / Yeah!!! (1965) [2008, Reissue]
Aretha Franklin - I Never Loved A Man The Way I Love You (1967) [1995, Remastered Reissue]
Aretha Franklin - This Girl's In Love With You (1970) [1993, Reissue]
Aretha Franklin & King Curtis - Live At Fillmore West: Don't Fight The Feeling (1971) [2005, 4CDs Numbered Limited Edition]
Aretha Franklin - Aretha (1980) [1990, Digitally Remastered]
Aretha Franklin - Get It Right (1983) [1993, Reissue]
Aretha Franklin - Aretha's Jazz (1984)
Aretha Franklin - Greatest Hits (1980-1994) (1994) [Japan]
Aretha Franklin - Rock Steady (Sure Is Pure Remix) [CD Maxi-Single] (1994)
Aretha Franklin - Jewels In The Crown: All-Star Duets With The Queen (2007) [Japanese Edition]
Aretha Franklin - Aretha: A Woman Falling Out Of Love (2011)


password: BlondStyle