Subcategories

Aretha Franklin - Original Album Series (1967-1971) [5CD Box Set] (2009) (Repost)

Posted By: gribovar
Aretha Franklin - Original Album Series (1967-1971) [5CD Box Set] (2009) (Repost)

Aretha Franklin - Original Album Series (1967-1971) [5CD Box Set] (2009)
EAC log Rip | FLAC (tracks+.cue+log) - 1,2 GB | MP3 CBR 320 kbps (LAME 3.93) - 520 MB | Box Covers - 14 MB
Genre: Soul, R&B | RAR 3% Rec. | Label: Atlantic/Rhino (8122 79827 9)

5CD box set mini LP replica sleeves, containing a quintet of original albums from the legendary Soul diva: "Aretha Now", "I Never Loved A Man The Way I Love You", "Lady Soul", "Live At The Fillmore" and "Spirit In The Dark".
Aretha Franklin (March 25, 1942) is a Memphis, Tennessee-born but Detroit, Michigan-reared American iconic gospel, soul, and R&B singer. Many have called her "The Queen Of Soul" and "Lady Soul".
She is renowned for her soul and R&B recordings (on many, of which, she accompanies herself on keyboards and piano - a skill she learned at an early age, learning to play by ear, according to lifetime friend Smokey Robinson) but is also adept at jazz, rock, blues, pop, and gospel.
She is generally regarded as one of the best vocalists ever by such industry publications/media outlets as Rolling Stone and VH1, due to her phenomenal technical and interpretative talents.
Adept at the piano as well as having a gifted voice, Franklin became a child prodigy. By the age of fourteen, she signed a record deal with Battle Records, where her father Reverend C.L. Franklin recorded his sermons and gospel vocal recordings, and she issued Songs of Faith in 1956.
She is the second most honored female popular singer in Grammy history (after Alison Krauss), having won eighteen competitive Grammys (including an unprecedented eleven for Best Female R&B Vocal Performance, eight of them consecutive). The state of Michigan has declared her voice to be a natural wonder.

Aretha Franklin - Original Album Series (1967-1971) [5CD Box Set] (2009) (Repost)

CD 1: Aretha Franklin - I Never Loved A Man The Way I Love You (1967)
EAC log Rip | FLAC (tracks+.cue+log) - 195 MB | MP3 CBR 320 kbps (LAME 3.93) - 98 MB | Covers included
Genre: Soul, R&B | RAR 3% Rec. | Label: Atlantic/Rhino (8122 79827 9)

Tracklist:
01. Respect (2:28)
02. Drown In My Own Tears (4:06)
03. I Never Loved A Man (The Way I Love You) (2:45)
04. Soul Serenade (2:37)
05. Don't Let Me Lose This Dream (2:19)
06. Baby, Baby, Baby (2:54)
07. Dr. Feelgood (Love Is A Serious Business) (3:21)
08. Good Times (2:08)
09. Do Right Woman - Do Right Man (3:17)
10. Save Me (2:19)
11. A Change Is Gonna Come (4:18)

Total time: 32:32

Exact Audio Copy V0.99 prebeta 5 from 4. May 2009

EAC extraction logfile from 9. November 2010, 23:15

Aretha Franklin / I Never Loved A Man The Way I Love You

Used drive : PHILIPS DVDR1628P1 Adapter: 4 ID: 0

Read mode : Secure
Utilize accurate stream : Yes
Defeat audio cache : Yes
Make use of C2 pointers : No

Read offset correction : 618
Overread into Lead-In and Lead-Out : No
Fill up missing offset samples with silence : Yes
Delete leading and trailing silent blocks : No
Null samples used in CRC calculations : Yes
Used interface : Installed external ASPI interface
Gap handling : Appended to previous track

Used output format : User Defined Encoder
Selected bitrate : 128 kBit/s
Quality : High
Add ID3 tag : No
Command line compressor : C:\Program Files\Exact Audio Copy\Flac\flac.exe
Additional command line options : -8 -V -T "ARTIST=%a" -T "TITLE=%t" -T "ALBUM=%g" -T "DATE=%y" -T "TRACKNUMBER=%n" -T "TOTALTRACKS=%x" -T "GENRE=%m" -T "ALBUM ARTIST=%v" -T "ALBUMARTIST=%v" -T "COMMENT=EAC V0.99 prebeta 5, Secure Mode, Test & Copy, Accurat


TOC of the extracted CD

Track | Start | Length | Start sector | End sector
––––––––––––––––––––––––––––-
1 | 0:00.00 | 2:27.65 | 0 | 11089
2 | 2:27.65 | 4:05.70 | 11090 | 29534
3 | 6:33.60 | 2:44.58 | 29535 | 41892
4 | 9:18.43 | 2:36.62 | 41893 | 53654
5 | 11:55.30 | 2:19.23 | 53655 | 64102
6 | 14:14.53 | 2:54.20 | 64103 | 77172
7 | 17:08.73 | 3:21.17 | 77173 | 92264
8 | 20:30.15 | 2:07.53 | 92265 | 101842
9 | 22:37.68 | 3:17.12 | 101843 | 116629
10 | 25:55.05 | 2:19.08 | 116630 | 127062
11 | 28:14.13 | 4:17.45 | 127063 | 146382


Track 1

Filename C:\addis gugsa killed my hdd\01 - Respect.wav

Pre-gap length 0:00:02.00

Peak level 92.2 %
Track quality 100.0 %
Test CRC 7C5280B0
Copy CRC 7C5280B0
Accurately ripped (confidence 8) [921A4581]
Copy OK

Track 2

Filename C:\addis gugsa killed my hdd\02 - Drown In My Own Tears.wav

Pre-gap length 0:00:02.56

Peak level 96.3 %
Track quality 100.0 %
Test CRC 7692D321
Copy CRC 7692D321
Accurately ripped (confidence 8) [9FE47C2D]
Copy OK

Track 3

Filename C:\addis gugsa killed my hdd\03 - I Never Loved A Man (The Way I Love You).wav

Pre-gap length 0:00:02.46

Peak level 96.5 %
Track quality 100.0 %
Test CRC AA87DA85
Copy CRC AA87DA85
Accurately ripped (confidence 8) [82BD86B8]
Copy OK

Track 4

Filename C:\addis gugsa killed my hdd\04 - Soul Serenade.wav

Pre-gap length 0:00:02.84

Peak level 94.3 %
Track quality 100.0 %
Test CRC EA373C0D
Copy CRC EA373C0D
Accurately ripped (confidence 8) [8DF6F270]
Copy OK

Track 5

Filename C:\addis gugsa killed my hdd\05 - Don't Let Me Lose This Dream.wav

Pre-gap length 0:00:02.53

Peak level 89.1 %
Track quality 100.0 %
Test CRC 678D3AF7
Copy CRC 678D3AF7
Accurately ripped (confidence 8) [5D9D618D]
Copy OK

Track 6

Filename C:\addis gugsa killed my hdd\06 - Baby, Baby, Baby.wav

Pre-gap length 0:00:02.84

Peak level 83.0 %
Track quality 100.0 %
Test CRC 9F7172AC
Copy CRC 9F7172AC
Accurately ripped (confidence 8) [313F2F17]
Copy OK

Track 7

Filename C:\addis gugsa killed my hdd\07 - Dr Feelgood (Love Is A Serious Business).wav

Pre-gap length 0:00:02.50

Peak level 99.2 %
Track quality 99.9 %
Test CRC D9F28E97
Copy CRC D9F28E97
Accurately ripped (confidence 8) [E545EE5C]
Copy OK

Track 8

Filename C:\addis gugsa killed my hdd\08 - Good Times.wav

Pre-gap length 0:00:02.42

Peak level 95.8 %
Track quality 100.0 %
Test CRC D01CF2DB
Copy CRC D01CF2DB
Accurately ripped (confidence 8) [A5D601A5]
Copy OK

Track 9

Filename C:\addis gugsa killed my hdd\09 - Do Right Woman - Do Right Man.wav

Pre-gap length 0:00:02.60

Peak level 78.0 %
Track quality 100.0 %
Test CRC 47CDFD26
Copy CRC 47CDFD26
Accurately ripped (confidence 8) [1E9846CE]
Copy OK

Track 10

Filename C:\addis gugsa killed my hdd\10 - Save Me.wav

Pre-gap length 0:00:02.56

Peak level 98.1 %
Track quality 100.0 %
Test CRC C75AA6D4
Copy CRC C75AA6D4
Accurately ripped (confidence 8) [A809704C]
Copy OK

Track 11

Filename C:\addis gugsa killed my hdd\11 - A Change Is Gonna Come.wav

Pre-gap length 0:00:02.53

Peak level 91.7 %
Track quality 100.0 %
Test CRC 210D581F
Copy CRC 210D581F
Accurately ripped (confidence 8) [B15FE543]
Copy OK


All tracks accurately ripped

No errors occurred

End of status report

[CUETools log; Date: 16.01.2018 23:15:07; Version: 2.1.4]
[CTDB TOCID: lTBeJSoCC2NU5ygIOZ49sVIauug-] found.
Track | CTDB Status
1 | (175/178) Accurately ripped
2 | (175/178) Accurately ripped
3 | (173/178) Accurately ripped, or (3/178) differs in 29 samples @02:15:16-02:15:17
4 | (175/178) Accurately ripped
5 | (176/178) Accurately ripped
6 | (175/178) Accurately ripped
7 | (176/178) Accurately ripped
8 | (176/178) Accurately ripped
9 | (174/178) Accurately ripped, or (2/178) differs in 599 samples @03:08:53-03:08:55,03:11:44-03:11:55
10 | (176/178) Accurately ripped
11 | (173/178) Accurately ripped
[AccurateRip ID: 000d25c1-0071a0e6-94079f0b] found.
Track [ CRC | V2 ] Status
01 [921a4581|be6742bc] (021+086/127) Accurately ripped
02 [9fe47c2d|ad555729] (021+086/127) Accurately ripped
03 [82bd86b8|c1b5efb0] (021+086/128) Accurately ripped
04 [8df6f270|e73ff4a5] (021+086/128) Accurately ripped
05 [5d9d618d|59a20633] (021+086/128) Accurately ripped
06 [313f2f17|65936515] (021+086/128) Accurately ripped
07 [e545ee5c|f32431eb] (021+086/128) Accurately ripped
08 [a5d601a5|fd1013c0] (020+087/128) Accurately ripped
09 [1e9846ce|ac938ebb] (020+087/128) Accurately ripped
10 [a809704c|22c0d5e4] (020+087/128) Accurately ripped
11 [b15fe543|ad298742] (020+086/127) Accurately ripped
Offsetted by 2008:
01 [07fbb679] (008/127) Accurately ripped
02 [811a11ed] (008/127) Accurately ripped
03 [9ddf3138] (008/128) Accurately ripped
04 [94e76c48] (008/128) Accurately ripped
05 [0b1fa47d] (008/128) Accurately ripped
06 [d61fce2f] (008/128) Accurately ripped
07 [855aa474] (008/128) Accurately ripped
08 [7831b01d] (008/128) Accurately ripped
09 [25d4d05e] (008/128) Accurately ripped
10 [f9c5fbbc] (008/128) Accurately ripped
11 [10aa4ce9] (008/127) Accurately ripped
Offsetted by 1310:
01 [16151fc7] (000/127) No match (V2 was not tested)
02 [9fb183dd] (000/127) No match (V2 was not tested)
03 [8f9896d8] (000/128) No match (V2 was not tested)
04 [c57ce20e] (000/128) No match (V2 was not tested)
05 [1675ad59] (000/128) No match (V2 was not tested)
06 [8ab52ac5] (000/128) No match (V2 was not tested)
07 [2361b8ca] (000/128) No match (V2 was not tested)
08 [ce2dddcb] (000/128) No match (V2 was not tested)
09 [bdd571a2] (000/128) No match (V2 was not tested)
10 [61b215b8] (000/128) No match (V2 was not tested)
11 [eead9961] (000/127) No match (V2 was not tested)

Track Peak [ CRC32 ] [W/O NULL] [ LOG ]
– 99,2 [F390EFE5] [3617627B]
01 92,2 [7C5280B0] [9BF207B7] CRC32
02 96,3 [7692D321] [51E8B87F] CRC32
03 96,5 [AA87DA85] [BD870C90] CRC32
04 94,3 [EA373C0D] [6FD336DD] CRC32
05 89,1 [678D3AF7] [BBDB0D4E] CRC32
06 83,0 [9F7172AC] [32509287] CRC32
07 99,2 [D9F28E97] [1C226BDF] CRC32
08 95,8 [D01CF2DB] [0571B187] CRC32
09 78,0 [47CDFD26] [2C6F1353] CRC32
10 98,1 [C75AA6D4] [C4D2512F] CRC32
11 91,7 [210D581F] [B47183D1] CRC32

Aretha Franklin - Original Album Series (1967-1971) [5CD Box Set] (2009) (Repost)

CD 2: Aretha Franklin - Lady Soul (1968)
EAC log Rip | FLAC (tracks+.cue+log) - 198 MB | MP3 CBR 320 kbps (LAME 3.93) - 89 MB | Covers included
Genre: Soul, R&B | RAR 3% Rec. | Label: Atlantic/Rhino (8122 79827 9)

Tracklist:
01. Chain Of Fools (2:49)
02. Money Won't Change You (2:10)
03. People Get Ready (3:46)
04. Niki Hoeky (2:32)
05. (You Make Me Feel Like) A Natural Woman (2:45)
06. Since You've Been Gone (Sweet Sweet Baby) (2:26)
07. Good To Me As I Am To You (3:58)
08. Come Back Baby (2:27)
09. Groovin' (2:55)
10. Ain't No Way (4:11)

Total time: 30:00

Exact Audio Copy V0.99 prebeta 5 from 4. May 2009

EAC extraction logfile from 9. November 2010, 21:58

Aretha Franklin / Lady Soul

Used drive : Optiarc DVD RW AD-7590S Adapter: 2 ID: 0

Read mode : Secure
Utilize accurate stream : Yes
Defeat audio cache : Yes
Make use of C2 pointers : No

Read offset correction : 48
Overread into Lead-In and Lead-Out : No
Fill up missing offset samples with silence : Yes
Delete leading and trailing silent blocks : No
Null samples used in CRC calculations : Yes
Used interface : Native Win32 interface for Win NT & 2000
Gap handling : Appended to previous track

Used output format : User Defined Encoder
Selected bitrate : 768 kBit/s
Quality : High
Add ID3 tag : No
Command line compressor : C:\Program Files\Exact Audio Copy\Flac\flac.exe
Additional command line options : -8 -V -T "ARTIST=%a" -T "TITLE=%t" -T "ALBUM=%g" -T "DATE=%y" -T "TRACKNUMBER=%n" -T "TOTALTRACKS=%x" -T "GENRE=%m" -T "ALBUMARTIST=%v" -T "ALBUM ARTIST=%v" -T "COMMENT=EAC Secure Mode, Test & Copy, AccurateRip, FLAC -8" %s


TOC of the extracted CD

Track | Start | Length | Start sector | End sector
––––––––––––––––––––––––––––-
1 | 0:00.00 | 2:49.37 | 0 | 12711
2 | 2:49.37 | 2:10.00 | 12712 | 22461
3 | 4:59.37 | 3:46.00 | 22462 | 39411
4 | 8:45.37 | 2:31.38 | 39412 | 50774
5 | 11:17.00 | 2:45.37 | 50775 | 63186
6 | 14:02.37 | 2:25.38 | 63187 | 74099
7 | 16:28.00 | 3:58.12 | 74100 | 91961
8 | 20:26.12 | 2:27.25 | 91962 | 103011
9 | 22:53.37 | 2:55.28 | 103012 | 116164
10 | 25:48.65 | 4:10.60 | 116165 | 134974


Track 1

Filename C:\Addis Gugsa why killing HDD\01 - Chain Of Fools.wav

Pre-gap length 0:00:02.00

Peak level 100.0 %
Track quality 100.0 %
Test CRC 2FDF49DD
Copy CRC 2FDF49DD
Accurately ripped (confidence 6) [DF0576E5]
Copy OK

Track 2

Filename C:\Addis Gugsa why killing HDD\02 - Money Won't Change You.wav

Pre-gap length 0:00:02.66

Peak level 100.0 %
Track quality 100.0 %
Test CRC B20621FF
Copy CRC B20621FF
Accurately ripped (confidence 6) [2BFAB279]
Copy OK

Track 3

Filename C:\Addis Gugsa why killing HDD\03 - People Get Ready.wav

Pre-gap length 0:00:02.82

Peak level 99.0 %
Track quality 100.0 %
Test CRC 36A8DA2B
Copy CRC 36A8DA2B
Accurately ripped (confidence 6) [4C9C92D3]
Copy OK

Track 4

Filename C:\Addis Gugsa why killing HDD\04 - Niki Hoeky.wav

Pre-gap length 0:00:02.76

Peak level 100.0 %
Track quality 100.0 %
Test CRC 2CBD0428
Copy CRC 2CBD0428
Accurately ripped (confidence 6) [D1D401E8]
Copy OK

Track 5

Filename C:\Addis Gugsa why killing HDD\05 - (You Make Me Feel Like) A Natural Woman.wav

Pre-gap length 0:00:02.80

Peak level 99.4 %
Track quality 100.0 %
Test CRC 48B523BD
Copy CRC 48B523BD
Accurately ripped (confidence 6) [763DEE3E]
Copy OK

Track 6

Filename C:\Addis Gugsa why killing HDD\06 - Sice You've Been Gone (Sweet Sweet Baby).wav

Pre-gap length 0:00:02.86

Peak level 100.0 %
Track quality 100.0 %
Test CRC 7C7B23F2
Copy CRC 7C7B23F2
Accurately ripped (confidence 6) [03BA901D]
Copy OK

Track 7

Filename C:\Addis Gugsa why killing HDD\07 - Good To Me As I Am To You.wav

Pre-gap length 0:00:02.86

Peak level 97.3 %
Track quality 100.0 %
Test CRC 17A2A6CA
Copy CRC 17A2A6CA
Accurately ripped (confidence 6) [519BEFB4]
Copy OK

Track 8

Filename C:\Addis Gugsa why killing HDD\08 - Come Back Baby.wav

Pre-gap length 0:00:02.76

Peak level 100.0 %
Track quality 100.0 %
Test CRC 921BB2E3
Copy CRC 921BB2E3
Accurately ripped (confidence 6) [B39C8CC8]
Copy OK

Track 9

Filename C:\Addis Gugsa why killing HDD\09 - Groovin'.wav

Pre-gap length 0:00:02.78

Peak level 97.8 %
Track quality 100.0 %
Test CRC C1A32D2E
Copy CRC C1A32D2E
Accurately ripped (confidence 6) [253D392C]
Copy OK

Track 10

Filename C:\Addis Gugsa why killing HDD\10 - Ain't No Way.wav

Pre-gap length 0:00:02.86

Peak level 100.0 %
Track quality 100.0 %
Test CRC 73C540B5
Copy CRC 73C540B5
Accurately ripped (confidence 6) [FE3912E2]
Copy OK


All tracks accurately ripped

No errors occurred

End of status report

[CUETools log; Date: 16.01.2018 23:15:48; Version: 2.1.4]
[CTDB TOCID: n5vFIZCCZAkKgBJWHq_vjYs3PLU-] found.
Track | CTDB Status
1 | (188/189) Accurately ripped
2 | (188/189) Accurately ripped
3 | (188/189) Accurately ripped
4 | (188/189) Accurately ripped
5 | (188/189) Accurately ripped
6 | (188/189) Accurately ripped
7 | (188/189) Accurately ripped
8 | (188/189) Accurately ripped
9 | (187/189) Accurately ripped
10 | (187/189) Accurately ripped
[AccurateRip ID: 000ad09a-005725e7-7d07070a] found.
Track [ CRC | V2 ] Status
01 [df0576e5|4d85987e] (009+005/149) Accurately ripped
02 [2bfab279|424a9e3b] (009+005/150) Accurately ripped
03 [4c9c92d3|0fba29c9] (009+005/150) Accurately ripped
04 [d1d401e8|43a8df1d] (009+005/150) Accurately ripped
05 [763dee3e|9bcdf346] (009+006/152) Accurately ripped
06 [03ba901d|ac29c597] (009+005/150) Accurately ripped
07 [519befb4|4181e7e9] (009+005/150) Accurately ripped
08 [b39c8cc8|cd87c5c0] (009+005/149) Accurately ripped
09 [253d392c|134d5251] (009+005/150) Accurately ripped
10 [fe3912e2|e2fa169a] (009+005/150) Accurately ripped
Offsetted by 628:
01 [dae86e25] (012/149) Accurately ripped
02 [5839403d] (012/150) Accurately ripped
03 [211effa3] (012/150) Accurately ripped
04 [09350f5c] (012/150) Accurately ripped
05 [19155c76] (012/152) Accurately ripped
06 [bcc4d2f9] (012/150) Accurately ripped
07 [66d3e954] (012/150) Accurately ripped
08 [fcc619f8] (012/149) Accurately ripped
09 [a2142eb4] (012/150) Accurately ripped
10 [306c3a2a] (012/150) Accurately ripped
Offsetted by 1310:
01 [ac0bc0c5] (005/149) Accurately ripped
02 [31da204f] (006/150) Accurately ripped
03 [2883dfcb] (006/150) Accurately ripped
04 [f3011b86] (006/150) Accurately ripped
05 [50731632] (006/152) Accurately ripped
06 [3eca42b7] (006/150) Accurately ripped
07 [d6bcb9a4] (006/150) Accurately ripped
08 [93f8eed0] (006/149) Accurately ripped
09 [1bcb13d8] (006/150) Accurately ripped
10 [cdaa4d2e] (006/150) Accurately ripped
Offsetted by 1974:
01 [e0c44a45] (009/149) Accurately ripped
02 [7c5a3a47] (009/150) Accurately ripped
03 [c99d442b] (009/150) Accurately ripped
04 [a154281e] (009/150) Accurately ripped
05 [564eb6c2] (009/152) Accurately ripped
06 [d326a37f] (009/150) Accurately ripped
07 [d3154264] (009/150) Accurately ripped
08 [bbd35670] (008/149) Accurately ripped
09 [413753c8] (009/150) Accurately ripped
10 [473a119e] (009/150) Accurately ripped

Track Peak [ CRC32 ] [W/O NULL] [ LOG ]
– 100,0 [B3D604E0] [F664046E]
01 100,0 [2FDF49DD] [B7C55FA4] CRC32
02 100,0 [B20621FF] [3D267521] CRC32
03 99,0 [36A8DA2B] [B8E89A5B] CRC32
04 100,0 [2CBD0428] [369C5AF5] CRC32
05 99,4 [48B523BD] [DF454002] CRC32
06 100,0 [7C7B23F2] [067DAA15] CRC32
07 97,3 [17A2A6CA] [A2BCA215] CRC32
08 100,0 [921BB2E3] [AE023737] CRC32
09 97,8 [C1A32D2E] [4E7C9958] CRC32
10 100,0 [73C540B5] [5EC9DC44] CRC32

Aretha Franklin - Original Album Series (1967-1971) [5CD Box Set] (2009) (Repost)

CD 3: Aretha Franklin - Aretha Now (1968)
EAC log Rip | FLAC (tracks+.cue+log) - 206 MB | MP3 CBR 320 kbps (LAME 3.93) - 90 MB | Covers included
Genre: Soul, R&B | RAR 3% Rec. | Label: Atlantic/Rhino (8122 79827 9)

Tracklist:
01. Think (2:20)
02. I Say A Little Prayer (3:37)
03. See Saw (2:46)
04. Night Time Is The Right Time (4:50)
05. You Send Me (2:30)
06. You're A Sweet Sweet Man (2:19)
07. I Take What I Want (2:33)
08. Hello Sunshine (3:04)
09. A Change (2:27)
10. I Can't See Myself Leaving You (3:01)

Total time: 29:28

Exact Audio Copy V0.99 prebeta 5 from 4. May 2009

EAC extraction logfile from 9. November 2010, 22:21

Aretha Franklin / Aretha Now

Used drive : PHILIPS DVDR1628P1 Adapter: 4 ID: 0

Read mode : Secure
Utilize accurate stream : Yes
Defeat audio cache : Yes
Make use of C2 pointers : No

Read offset correction : 618
Overread into Lead-In and Lead-Out : No
Fill up missing offset samples with silence : Yes
Delete leading and trailing silent blocks : No
Null samples used in CRC calculations : Yes
Used interface : Installed external ASPI interface
Gap handling : Appended to previous track

Used output format : User Defined Encoder
Selected bitrate : 128 kBit/s
Quality : High
Add ID3 tag : No
Command line compressor : C:\Program Files\Exact Audio Copy\Flac\flac.exe
Additional command line options : -8 -V -T "ARTIST=%a" -T "TITLE=%t" -T "ALBUM=%g" -T "DATE=%y" -T "TRACKNUMBER=%n" -T "TOTALTRACKS=%x" -T "GENRE=%m" -T "ALBUM ARTIST=%v" -T "ALBUMARTIST=%v" -T "COMMENT=EAC V0.99 prebeta 5, Secure Mode, Test & Copy, Accurat


TOC of the extracted CD

Track | Start | Length | Start sector | End sector
––––––––––––––––––––––––––––-
1 | 0:00.00 | 2:20.35 | 0 | 10534
2 | 2:20.35 | 3:36.57 | 10535 | 26791
3 | 5:57.17 | 2:46.28 | 26792 | 39269
4 | 8:43.45 | 4:50.07 | 39270 | 61026
5 | 13:33.52 | 2:29.48 | 61027 | 72249
6 | 16:03.25 | 2:19.05 | 72250 | 82679
7 | 18:22.30 | 2:33.25 | 82680 | 94179
8 | 20:55.55 | 3:03.70 | 94180 | 107974
9 | 23:59.50 | 2:27.25 | 107975 | 119024
10 | 26:27.00 | 3:01.35 | 119025 | 132634


Track 1

Filename C:\addis gugsa killed my hdd\01 - Think.wav

Pre-gap length 0:00:02.00

Peak level 96.5 %
Track quality 99.9 %
Test CRC 2E950540
Copy CRC 2E950540
Accurately ripped (confidence 9) [056CDFD5]
Copy OK

Track 2

Filename C:\addis gugsa killed my hdd\02 - I Say A Little Prayer.wav

Pre-gap length 0:00:02.60

Peak level 94.3 %
Track quality 100.0 %
Test CRC DC6104D0
Copy CRC DC6104D0
Accurately ripped (confidence 9) [DF579DB6]
Copy OK

Track 3

Filename C:\addis gugsa killed my hdd\03 - See Saw.wav

Pre-gap length 0:00:03.49

Peak level 100.0 %
Track quality 99.9 %
Test CRC 3155C539
Copy CRC 3155C539
Accurately ripped (confidence 9) [0565EDDD]
Copy OK

Track 4

Filename C:\addis gugsa killed my hdd\04 - Night Time Is The Right Time.wav

Pre-gap length 0:00:03.40

Peak level 100.0 %
Track quality 100.0 %
Test CRC 8773387D
Copy CRC 8773387D
Accurately ripped (confidence 9) [6365D3A0]
Copy OK

Track 5

Filename C:\addis gugsa killed my hdd\05 - You Send Me.wav

Pre-gap length 0:00:03.36

Peak level 100.0 %
Track quality 100.0 %
Test CRC 52A632B1
Copy CRC 52A632B1
Accurately ripped (confidence 9) [2A9DB94F]
Copy OK

Track 6

Filename C:\addis gugsa killed my hdd\06 - You're A Sweet Sweet Man.wav

Pre-gap length 0:00:03.64

Peak level 83.6 %
Track quality 100.0 %
Test CRC B4D32F28
Copy CRC B4D32F28
Accurately ripped (confidence 9) [9C53B8F4]
Copy OK

Track 7

Filename C:\addis gugsa killed my hdd\07 - I Take What I Want.wav

Pre-gap length 0:00:03.24

Peak level 100.0 %
Track quality 100.0 %
Test CRC E45EE7AE
Copy CRC E45EE7AE
Accurately ripped (confidence 9) [F5DFFD45]
Copy OK

Track 8

Filename C:\addis gugsa killed my hdd\08 - Hello Sunshine.wav

Pre-gap length 0:00:02.30

Peak level 94.3 %
Track quality 99.9 %
Test CRC 62299199
Copy CRC 62299199
Accurately ripped (confidence 9) [6596899D]
Copy OK

Track 9

Filename C:\addis gugsa killed my hdd\09 - A Change.wav

Pre-gap length 0:00:02.80

Peak level 97.3 %
Track quality 100.0 %
Test CRC F8719FF0
Copy CRC F8719FF0
Accurately ripped (confidence 9) [093C38B1]
Copy OK

Track 10

Filename C:\addis gugsa killed my hdd\10 - I Can't See Myself Leaving You.wav

Pre-gap length 0:00:02.93

Peak level 91.5 %
Track quality 100.0 %
Test CRC 08E89D0E
Copy CRC 08E89D0E
Accurately ripped (confidence 9) [58EB3AFB]
Copy OK


All tracks accurately ripped

No errors occurred

End of status report

[CUETools log; Date: 16.01.2018 23:16:41; Version: 2.1.4]
[CTDB TOCID: U2RIUonsv01upK9BaVxvAumNplM-] found.
Track | CTDB Status
1 | (210/211) Accurately ripped
2 | (210/211) Accurately ripped
3 | (209/211) Accurately ripped
4 | (209/211) Accurately ripped
5 | (210/211) Accurately ripped
6 | (210/211) Accurately ripped
7 | (210/211) Accurately ripped
8 | (210/211) Accurately ripped
9 | (209/211) Accurately ripped
10 | (210/211) Accurately ripped
[AccurateRip ID: 000b6381-005acba4-7e06e80a] found.
Track [ CRC | V2 ] Status
01 [056cdfd5|766313e8] (022+089/190) Accurately ripped
02 [df579db6|5daf54ec] (022+090/193) Accurately ripped
03 [0565eddd|d7f1a780] (022+088/189) Accurately ripped
04 [6365d3a0|54c3e864] (022+088/189) Accurately ripped
05 [2a9db94f|4a768bc8] (022+088/188) Accurately ripped
06 [9c53b8f4|6ab3b91d] (022+088/188) Accurately ripped
07 [f5dffd45|3afcf403] (022+088/188) Accurately ripped
08 [6596899d|c53a33cc] (022+088/188) Accurately ripped
09 [093c38b1|1fc25945] (022+089/190) Accurately ripped
10 [58eb3afb|7a60d892] (022+088/187) Accurately ripped
Offsetted by 1310:
01 [2fdbe522] (008/190) Accurately ripped
02 [ac5d3977] (008/193) Accurately ripped
03 [c97440f8] (008/189) Accurately ripped
04 [65bccf65] (008/189) Accurately ripped
05 [35c0b6df] (008/188) Accurately ripped
06 [08598b46] (008/188) Accurately ripped
07 [cf328c4b] (008/188) Accurately ripped
08 [5b5a281b] (008/188) Accurately ripped
09 [7b658f06] (008/190) Accurately ripped
10 [57b93ccd] (008/187) Accurately ripped
Offsetted by 1974:
01 [26a888e5] (020/190) Accurately ripped
02 [ffe6e14c] (022/193) Accurately ripped
03 [c909ceac] (021/189) Accurately ripped
04 [c45953b9] (021/189) Accurately ripped
05 [ffd7dee3] (020/188) Accurately ripped
06 [e41f656e] (021/188) Accurately ripped
07 [eb03ab61] (021/188) Accurately ripped
08 [67ba38f9] (021/188) Accurately ripped
09 [77171d6f] (021/190) Accurately ripped
10 [bbb733c6] (020/187) Accurately ripped
Offsetted by 1316:
01 [75ec373d] (000/190) No match (V2 was not tested)
02 [c29fcc79] (000/193) No match (V2 was not tested)
03 [efe6f730] (000/189) No match (V2 was not tested)
04 [827669c0] (000/189) No match (V2 was not tested)
05 [e427685d] (000/188) No match (V2 was not tested)
06 [da486490] (000/188) No match (V2 was not tested)
07 [6b2e394a] (000/188) No match (V2 was not tested)
08 [0c8150f7] (000/188) No match (V2 was not tested)
09 [70af8d52] (000/190) No match (V2 was not tested)
10 [a7f7710e] (000/187) No match (V2 was not tested)

Track Peak [ CRC32 ] [W/O NULL] [ LOG ]
– 100,0 [731CEF9C] [9D7D1A97]
01 96,5 [2E950540] [3F5D683B] CRC32
02 94,3 [DC6104D0] [1AB561DA] CRC32
03 100,0 [3155C539] [D22D3537] CRC32
04 100,0 [8773387D] [0421B39D] CRC32
05 100,0 [52A632B1] [6976BB74] CRC32
06 83,6 [B4D32F28] [AD12E029] CRC32
07 100,0 [E45EE7AE] [90C27D13] CRC32
08 94,3 [62299199] [0290D04A] CRC32
09 97,3 [F8719FF0] [F130E7C3] CRC32
10 91,5 [08E89D0E] [9EE155A1] CRC32

Aretha Franklin - Original Album Series (1967-1971) [5CD Box Set] (2009) (Repost)

CD 4: Aretha Franklin - Spirit In The Dark (1970)
EAC log Rip | FLAC (tracks+.cue+log) - 261 MB | MP3 CBR 320 kbps (LAME 3.93) - 106 MB | Covers included
Genre: Soul, R&B | RAR 3% Rec. | Label: Atlantic/Rhino (8122 79827 9)

Tracklist:
01. Don't Play That Song (3:03)
02. The Thrill Is Gone (From Yesterday's Kiss) (4:42)
03. Pullin' (3:38)
04. You And Me (3:34)
05. Honest I Do (3:19)
06. Spirit In The Dark (4:04)
07. When The Battle Is Over (2:43)
08. One Way Ticket (2:52)
09. Try Matty's (2:32)
10. That's All I Want From You (2:44)
11. On No Not My Baby (2:56)
12. Why I Sing The Blues (3:05)

Total time: 39:13

Exact Audio Copy V0.99 prebeta 5 from 4. May 2009

EAC extraction logfile from 9. November 2010, 23:30

Aretha Franklin / Spirit In The Dark

Used drive : Optiarc DVD RW AD-7590S Adapter: 2 ID: 0

Read mode : Secure
Utilize accurate stream : Yes
Defeat audio cache : Yes
Make use of C2 pointers : No

Read offset correction : 48
Overread into Lead-In and Lead-Out : No
Fill up missing offset samples with silence : Yes
Delete leading and trailing silent blocks : No
Null samples used in CRC calculations : Yes
Used interface : Native Win32 interface for Win NT & 2000
Gap handling : Appended to previous track

Used output format : User Defined Encoder
Selected bitrate : 768 kBit/s
Quality : High
Add ID3 tag : No
Command line compressor : C:\Program Files\Exact Audio Copy\Flac\flac.exe
Additional command line options : -8 -V -T "ARTIST=%a" -T "TITLE=%t" -T "ALBUM=%g" -T "DATE=%y" -T "TRACKNUMBER=%n" -T "TOTALTRACKS=%x" -T "GENRE=%m" -T "ALBUMARTIST=%v" -T "ALBUM ARTIST=%v" -T "COMMENT=EAC Secure Mode, Test & Copy, AccurateRip, FLAC -8" %s


TOC of the extracted CD

Track | Start | Length | Start sector | End sector
––––––––––––––––––––––––––––-
1 | 0:00.00 | 3:02.63 | 0 | 13712
2 | 3:02.63 | 4:41.67 | 13713 | 34854
3 | 7:44.55 | 3:38.08 | 34855 | 51212
4 | 11:22.63 | 3:34.17 | 51213 | 67279
5 | 14:57.05 | 3:19.15 | 67280 | 82219
6 | 18:16.20 | 4:03.63 | 82220 | 100507
7 | 22:20.08 | 2:43.17 | 100508 | 112749
8 | 25:03.25 | 2:52.18 | 112750 | 125667
9 | 27:55.43 | 2:32.20 | 125668 | 137087
10 | 30:27.63 | 2:44.12 | 137088 | 149399
11 | 33:12.00 | 2:55.60 | 149400 | 162584
12 | 36:07.60 | 3:05.03 | 162585 | 176462


Track 1

Filename C:\Addis Gugsa why killing HDD\01 - Don't Play That Song.wav

Pre-gap length 0:00:02.00

Peak level 97.2 %
Track quality 100.0 %
Test CRC 3DDD3F3F
Copy CRC 3DDD3F3F
Accurately ripped (confidence 9) [4D953FB5]
Copy OK

Track 2

Filename C:\Addis Gugsa why killing HDD\02 - The Thrill Is Gone (From Yesterday's Kiss).wav

Pre-gap length 0:00:02.90

Peak level 97.2 %
Track quality 99.9 %
Test CRC F61232B1
Copy CRC F61232B1
Accurately ripped (confidence 9) [CB89BB71]
Copy OK

Track 3

Filename C:\Addis Gugsa why killing HDD\03 - Pullin'.wav

Pre-gap length 0:00:02.42

Peak level 97.2 %
Track quality 100.0 %
Test CRC 88281C5A
Copy CRC 88281C5A
Accurately ripped (confidence 9) [2340E3DC]
Copy OK

Track 4

Filename C:\Addis Gugsa why killing HDD\04 - You And Me.wav

Pre-gap length 0:00:02.77

Peak level 97.2 %
Track quality 100.0 %
Test CRC 1561EE0D
Copy CRC 1561EE0D
Accurately ripped (confidence 9) [0693D890]
Copy OK

Track 5

Filename C:\Addis Gugsa why killing HDD\05 - Honest I Do.wav

Pre-gap length 0:00:03.06

Peak level 97.2 %
Track quality 100.0 %
Test CRC 2B85D684
Copy CRC 2B85D684
Accurately ripped (confidence 9) [4B2023BA]
Copy OK

Track 6

Filename C:\Addis Gugsa why killing HDD\06 - Spirit In The Dark.wav

Pre-gap length 0:00:02.69

Peak level 97.2 %
Track quality 100.0 %
Test CRC 9995E422
Copy CRC 9995E422
Accurately ripped (confidence 9) [0E62AB16]
Copy OK

Track 7

Filename C:\Addis Gugsa why killing HDD\07 - When The Battle Is Over.wav

Pre-gap length 0:00:02.64

Peak level 94.6 %
Track quality 100.0 %
Test CRC ADDAA2A1
Copy CRC ADDAA2A1
Accurately ripped (confidence 9) [B4319C4B]
Copy OK

Track 8

Filename C:\Addis Gugsa why killing HDD\08 - One Way Ticket.wav

Pre-gap length 0:00:02.82

Peak level 97.2 %
Track quality 100.0 %
Test CRC 25DCF857
Copy CRC 25DCF857
Accurately ripped (confidence 9) [41B2CDC4]
Copy OK

Track 9

Filename C:\Addis Gugsa why killing HDD\09 - Try Matty's.wav

Pre-gap length 0:00:02.90

Peak level 97.2 %
Track quality 100.0 %
Test CRC 8890D696
Copy CRC 8890D696
Accurately ripped (confidence 9) [C3FD11D2]
Copy OK

Track 10

Filename C:\Addis Gugsa why killing HDD\10 - That's All I Want From You.wav

Pre-gap length 0:00:03.13

Peak level 97.2 %
Track quality 100.0 %
Test CRC 84604D8E
Copy CRC 84604D8E
Accurately ripped (confidence 9) [FCF0D9AC]
Copy OK

Track 11

Filename C:\Addis Gugsa why killing HDD\11 - On No Not My Baby.wav

Pre-gap length 0:00:03.66

Peak level 97.2 %
Track quality 100.0 %
Test CRC 688BB231
Copy CRC 688BB231
Accurately ripped (confidence 9) [6E594B7C]
Copy OK

Track 12

Filename C:\Addis Gugsa why killing HDD\12 - Why I Sing The Blues.wav

Pre-gap length 0:00:03.86

Peak level 97.2 %
Track quality 100.0 %
Test CRC DE67A0C9
Copy CRC DE67A0C9
Accurately ripped (confidence 9) [A72B5D8B]
Copy OK


All tracks accurately ripped

No errors occurred

End of status report

[CUETools log; Date: 16.01.2018 23:17:14; Version: 2.1.4]
[CTDB TOCID: pfgcM5qZzmiZSnTYPkF45.VpklI-] found.
Track | CTDB Status
1 | (209/211) Accurately ripped
2 | (209/211) Accurately ripped
3 | (209/211) Accurately ripped
4 | (209/211) Accurately ripped
5 | (209/211) Accurately ripped
6 | (209/211) Accurately ripped
7 | (209/211) Accurately ripped
8 | (209/211) Accurately ripped
9 | (209/211) Accurately ripped
10 | (208/211) Accurately ripped
11 | (208/211) Accurately ripped
12 | (209/211) Accurately ripped
[AccurateRip ID: 0012852f-00aa5353-c409300c] found.
Track [ CRC | V2 ] Status
01 [4d953fb5|e116251d] (023+092/176) Accurately ripped
02 [cb89bb71|73fb2e8a] (023+093/177) Accurately ripped
03 [2340e3dc|8b6c263b] (023+090/173) Accurately ripped
04 [0693d890|db1db9c7] (023+091/175) Accurately ripped
05 [4b2023ba|2d501d6e] (023+092/176) Accurately ripped
06 [0e62ab16|abb326e6] (023+090/174) Accurately ripped
07 [b4319c4b|c65c2cfd] (023+090/174) Accurately ripped
08 [41b2cdc4|c34bc928] (023+091/175) Accurately ripped
09 [c3fd11d2|ccb02682] (023+091/175) Accurately ripped
10 [fcf0d9ac|fdcb3274] (023+091/175) Accurately ripped
11 [6e594b7c|19173efe] (023+090/173) Accurately ripped
12 [a72b5d8b|e4337a4a] (023+091/175) Accurately ripped
Offsetted by 646:
01 [43b227a0] (006/176) Accurately ripped
02 [779762cf] (006/177) Accurately ripped
03 [0fc70f82] (006/173) Accurately ripped
04 [be750f74] (006/175) Accurately ripped
05 [3669c0a2] (006/176) Accurately ripped
06 [98211c67] (006/174) Accurately ripped
07 [061f54a0] (006/174) Accurately ripped
08 [29a62faf] (006/175) Accurately ripped
09 [8b6e3d9b] (006/175) Accurately ripped
10 [68817e65] (006/175) Accurately ripped
11 [af5919b8] (006/173) Accurately ripped
12 [f8818a75] (006/175) Accurately ripped
Offsetted by 1310:
01 [b112fac2] (015/176) Accurately ripped
02 [8ab2e109] (015/177) Accurately ripped
03 [4c56c51d] (014/173) Accurately ripped
04 [1627dd99] (015/175) Accurately ripped
05 [00645c9e] (015/176) Accurately ripped
06 [567708d1] (015/174) Accurately ripped
07 [443f847d] (015/174) Accurately ripped
08 [1a92c2ed] (015/175) Accurately ripped
09 [8b6df369] (015/175) Accurately ripped
10 [652af638] (015/175) Accurately ripped
11 [556622f8] (015/173) Accurately ripped
12 [8c4adf23] (015/175) Accurately ripped
Offsetted by 652:
01 [c996727d] (000/176) No match (V2 was not tested)
02 [a1caf9b0] (000/177) No match (V2 was not tested)
03 [efe61abe] (000/173) No match (V2 was not tested)
04 [5e26e72e] (000/175) No match (V2 was not tested)
05 [126276fd] (000/176) No match (V2 was not tested)
06 [32ba7d31] (000/174) No match (V2 was not tested)
07 [b99666a7] (000/174) No match (V2 was not tested)
08 [f72f441f] (000/175) No match (V2 was not tested)
09 [85fb00ae] (000/175) No match (V2 was not tested)
10 [5d9896ec] (000/175) No match (V2 was not tested)
11 [2fabb010] (000/173) No match (V2 was not tested)
12 [8d3a4f75] (000/175) No match (V2 was not tested)

Track Peak [ CRC32 ] [W/O NULL] [ LOG ]
– 97,2 [EF26A43E] [6F68CEC9]
01 97,2 [3DDD3F3F] [E234528E] CRC32
02 97,2 [F61232B1] [C24E610B] CRC32
03 97,2 [88281C5A] [5A6F3529] CRC32
04 97,2 [1561EE0D] [7BE33BAE] CRC32
05 97,2 [2B85D684] [9957D845] CRC32
06 97,2 [9995E422] [BDFEC193] CRC32
07 94,6 [ADDAA2A1] [0116D8D1] CRC32
08 97,2 [25DCF857] [CA16184F] CRC32
09 97,2 [8890D696] [93EB35A1] CRC32
10 97,2 [84604D8E] [E6C2929E] CRC32
11 97,2 [688BB231] [BFCB6B6A] CRC32
12 97,2 [DE67A0C9] [3EFE1088] CRC32

Aretha Franklin - Original Album Series (1967-1971) [5CD Box Set] (2009) (Repost)

CD 5: Aretha Franklin - Aretha Live At Fillmore West (1971)
EAC log Rip | FLAC (tracks+.cue+log) - 345 MB | MP3 CBR 320 kbps (LAME 3.93) - 137 MB | Covers included
Genre: Soul, R&B | RAR 3% Rec. | Label: Atlantic/Rhino (8122 79827 9)

Tracklist:
01. Respect (3:56)
02. Love The One You're With (4:22)
03. Bridge Over Troubled Water (5:49)
04. Eleanor Rigby (2:33)
05. Make It With You (4:32)
06. Don't Play That Song (3:17)
07. Dr. Feelgood (7:03)
08. Spirit In The Dark (5:21)
09. Spirit In The Dark (Reprise With Ray Charles) (8:39)
10. Reach Out And Touch (Somebody's Hand) (2:39)

Total time: 48:13

Exact Audio Copy V0.99 prebeta 5 from 4. May 2009

EAC extraction logfile from 10. November 2010, 9:32

Aretha Franklin / Aretha Live At The Fillmore West

Used drive : PHILIPS DVDR1628P1 Adapter: 4 ID: 0

Read mode : Secure
Utilize accurate stream : Yes
Defeat audio cache : Yes
Make use of C2 pointers : No

Read offset correction : 618
Overread into Lead-In and Lead-Out : No
Fill up missing offset samples with silence : Yes
Delete leading and trailing silent blocks : No
Null samples used in CRC calculations : Yes
Used interface : Installed external ASPI interface
Gap handling : Appended to previous track

Used output format : User Defined Encoder
Selected bitrate : 128 kBit/s
Quality : High
Add ID3 tag : No
Command line compressor : C:\Program Files\Exact Audio Copy\Flac\flac.exe
Additional command line options : -8 -V -T "ARTIST=%a" -T "TITLE=%t" -T "ALBUM=%g" -T "DATE=%y" -T "TRACKNUMBER=%n" -T "TOTALTRACKS=%x" -T "GENRE=%m" -T "ALBUM ARTIST=%v" -T "ALBUMARTIST=%v" -T "COMMENT=EAC V0.99 prebeta 5, Secure Mode, Test & Copy, Accurat


TOC of the extracted CD

Track | Start | Length | Start sector | End sector
––––––––––––––––––––––––––––-
1 | 0:00.00 | 3:56.32 | 0 | 17731
2 | 3:56.32 | 4:21.40 | 17732 | 37346
3 | 8:17.72 | 5:49.35 | 37347 | 63556
4 | 14:07.32 | 2:33.35 | 63557 | 75066
5 | 16:40.67 | 4:32.15 | 75067 | 95481
6 | 21:13.07 | 3:17.30 | 95482 | 110286
7 | 24:30.37 | 7:02.70 | 110287 | 142006
8 | 31:33.32 | 5:20.70 | 142007 | 166076
9 | 36:54.27 | 8:38.70 | 166077 | 204996
10 | 45:33.22 | 2:39.33 | 204997 | 216954


Track 1

Filename C:\addis gugsa killed my hdd\01 - Respect.wav

Pre-gap length 0:00:02.00

Peak level 97.2 %
Track quality 99.9 %
Test CRC E662EFB1
Copy CRC E662EFB1
Accurately ripped (confidence 9) [4F2773F8]
Copy OK

Track 2

Filename C:\addis gugsa killed my hdd\02 - Love The One You're With.wav

Peak level 97.2 %
Track quality 100.0 %
Test CRC 4EC5DEA7
Copy CRC 4EC5DEA7
Accurately ripped (confidence 9) [FA2F753F]
Copy OK

Track 3

Filename C:\addis gugsa killed my hdd\03 - Bridge Over Troubled Water.wav

Peak level 97.2 %
Track quality 100.0 %
Test CRC 6A810892
Copy CRC 6A810892
Accurately ripped (confidence 9) [D65DA2AC]
Copy OK

Track 4

Filename C:\addis gugsa killed my hdd\04 - Eleanor Rigby.wav

Peak level 97.2 %
Track quality 100.0 %
Test CRC 6C8177D0
Copy CRC 6C8177D0
Accurately ripped (confidence 9) [8E5AB4B7]
Copy OK

Track 5

Filename C:\addis gugsa killed my hdd\05 - Make It With You.wav

Peak level 97.2 %
Track quality 100.0 %
Test CRC 26CE9199
Copy CRC 26CE9199
Accurately ripped (confidence 9) [1BBD1749]
Copy OK

Track 6

Filename C:\addis gugsa killed my hdd\06 - Don't Play That Song.wav

Peak level 97.2 %
Track quality 100.0 %
Test CRC 0C7AB3F3
Copy CRC 0C7AB3F3
Accurately ripped (confidence 9) [564EB7BC]
Copy OK

Track 7

Filename C:\addis gugsa killed my hdd\07 - Dr. Feelgood.wav

Pre-gap length 0:00:00.80

Peak level 97.2 %
Track quality 100.0 %
Test CRC BF2036F7
Copy CRC BF2036F7
Accurately ripped (confidence 9) [F50C3A4D]
Copy OK

Track 8

Filename C:\addis gugsa killed my hdd\08 - Spirit In The Dark.wav

Peak level 97.2 %
Track quality 100.0 %
Test CRC 78C051F9
Copy CRC 78C051F9
Accurately ripped (confidence 9) [06E46B2F]
Copy OK

Track 9

Filename C:\addis gugsa killed my hdd\09 - Spirit In The Dark (Reprise With Ray Charles).wav

Peak level 97.2 %
Track quality 100.0 %
Test CRC 759EF952
Copy CRC 759EF952
Accurately ripped (confidence 9) [0CE766EE]
Copy OK

Track 10

Filename C:\addis gugsa killed my hdd\10 - Reach Out And Touch (Somebody's Hand).wav

Peak level 94.6 %
Track quality 99.9 %
Test CRC 0D775AFC
Copy CRC 0D775AFC
Accurately ripped (confidence 9) [E73A0102]
Copy OK


All tracks accurately ripped

No errors occurred

End of status report

[CUETools log; Date: 16.01.2018 23:17:52; Version: 2.1.4]
[CTDB TOCID: efxy4AxGa9qzKZ7U3nguzUdkaME-] found.
Track | CTDB Status
1 | (183/188) Accurately ripped
2 | (184/188) Accurately ripped
3 | (184/188) Accurately ripped
4 | (185/188) Accurately ripped
5 | (185/188) Accurately ripped
6 | (184/188) Accurately ripped
7 | (185/188) Accurately ripped
8 | (184/188) Accurately ripped
9 | (185/188) Accurately ripped
10 | (185/188) Accurately ripped
[AccurateRip ID: 00113c24-008c374a-8d0b4c0a] found.
Track [ CRC | V2 ] Status
01 [4f2773f8|1d5c44fd] (021+087/156) Accurately ripped
02 [fa2f753f|f949ffc9] (021+088/157) Accurately ripped
03 [d65da2ac|27bb651b] (021+086/155) Accurately ripped
04 [8e5ab4b7|4252c49d] (021+087/155) Accurately ripped
05 [1bbd1749|b60ef21f] (021+086/155) Accurately ripped
06 [564eb7bc|679a2945] (021+088/156) Accurately ripped
07 [f50c3a4d|a3e7d2fd] (021+087/154) Accurately ripped
08 [06e46b2f|41669981] (021+086/156) Accurately ripped
09 [0ce766ee|ed753729] (021+085/155) Accurately ripped
10 [e73a0102|00ad3ab0] (021+087/157) Accurately ripped
Offsetted by 1310:
01 [94d12aa8] (004/156) Accurately ripped
02 [186e30ab] (004/157) Accurately ripped
03 [43052845] (004/155) Accurately ripped
04 [8ebf578a] (004/155) Accurately ripped
05 [80287c3c] (004/155) Accurately ripped
06 [b7b2b4ee] (004/156) Accurately ripped
07 [51f07056] (004/154) Accurately ripped
08 [692d7e86] (004/156) Accurately ripped
09 [a4f5f777] (004/155) Accurately ripped
10 [72800cff] (004/157) Accurately ripped
Offsetted by 1974:
01 [b687cd28] (012/156) Accurately ripped
02 [3fa082d5] (012/157) Accurately ripped
03 [5a64c4a0] (012/155) Accurately ripped
04 [0b601948] (011/155) Accurately ripped
05 [995bb384] (012/155) Accurately ripped
06 [b5576cbe] (012/156) Accurately ripped
07 [0513f029] (012/154) Accurately ripped
08 [b09c97ea] (011/156) Accurately ripped
09 [29df5b24] (011/155) Accurately ripped
10 [1c70551c] (011/157) Accurately ripped
Offsetted by 1187:
01 [ec06dcaa] (000/156) No match
02 [84883f10] (000/157) No match
03 [7dba0a79] (000/155) No match
04 [c10a8be0] (000/155) No match
05 [99e45f40] (000/155) No match
06 [e06835df] (000/156) No match
07 [a8010bf2] (000/154) No match
08 [c2e0b75e] (000/156) No match
09 [b3362925] (000/155) No match
10 [32b5abe2] (000/157) No match (V2 was not tested)
Offsetted by 1316:
01 [b445cb5e] (000/156) No match (V2 was not tested)
02 [a44241e1] (000/157) No match (V2 was not tested)
03 [1e553089] (000/155) No match (V2 was not tested)
04 [00f074ac] (000/155) No match (V2 was not tested)
05 [6d71057b] (000/155) No match (V2 was not tested)
06 [2cc0a657] (000/156) No match (V2 was not tested)
07 [a6738917] (000/154) No match (V2 was not tested)
08 [3eb3c990] (000/156) No match (V2 was not tested)
09 [d0142114] (000/155) No match (V2 was not tested)
10 [b84c840b] (000/157) No match (V2 was not tested)

Track Peak [ CRC32 ] [W/O NULL] [ LOG ]
– 97,2 [117B4E86] [D5FEF261]
01 97,2 [E662EFB1] [039C56D4] CRC32
02 97,2 [4EC5DEA7] [7DE40AB4] CRC32
03 97,2 [6A810892] [0D7C98D7] CRC32
04 97,2 [6C8177D0] [B7D29B0F] CRC32
05 97,2 [26CE9199] [4F5D891A] CRC32
06 97,2 [0C7AB3F3] [3965E74A] CRC32
07 97,2 [BF2036F7] [8A58609A] CRC32
08 97,2 [78C051F9] [D835208B] CRC32
09 97,2 [759EF952] [63050E1B] CRC32
10 94,6 [0D775AFC] [9E2FD4DA] CRC32

Thanks to addis