Subcategories

Aretha Franklin - Rock Steady (Sure Is Pure Remix) [CD Maxi-Single] (1994)

Posted By: BlondStyle
Aretha Franklin - Rock Steady (Sure Is Pure Remix) [CD Maxi-Single] (1994)

Aretha Franklin - Rock Steady (Sure Is Pure Remix) [CD Maxi-Single] (1994)
R&B, Soul, Electronic | EAC Rip | FLAC, Img+CUE+LOG+Full Scans-600dpi (PNG) | 28:05 Min. | 227,72 Mb
Label: Rhino/Atlantic (EU) | Cat.# A4522CD 8122-77009-2 | Released: 1994
Aretha Franklin - Rock Steady (Sure Is Pure Remix) [CD Maxi-Single] (1994)

"Rock Steady" is a song written and performed by Aretha Franklin and released in 1971, from the album "Young, Gifted and Black." The single reached the #9 spot on the Billboard Hot 100 charts that same year. It also peaked at #2 on the Best Selling Soul Singles chart. The B-side, "Oh Me Oh My (I'm a Fool for You Baby)" peaked at #73 on the Billboard Hot 100 and #9 on the Best Selling Soul Singles chart.
~Wikipedia

Aretha Franklin - Rock Steady (Sure Is Pure Remix) [CD Maxi-Single] (1994)

Aretha Franklin - Rock Steady (Sure Is Pure Remix) [CD Maxi-Single] (1994)


Release of the original single: 1971, October, 11 [LP Atlantic, Cat.# 45-2838, USA]
Release of this CD Maxi-Single: 1994 [CD Warner Music UK Ltd. (UK), Cat.# A4522CD 8122-77009-2 / UPC: 081227700928]
℗ 1994 WEA International Inc. except track 2 ℗ 1971 WEA International Inc.
© 1994 WEA International Inc. A Time Warner Company.
Printed in the EU

Credits:

Producer – Arif Mardin, Jerry Wexler, Tom Dowd
Remix – Sure Is Pure (tracks: 1, 3, 4, 5)
Written-By – Aretha Franklin


Tracklist:

01. Rock Steady (Sure Is Pure Remix Edit) (03:47)
02. Rock Steady (Original Version) (03:14)
03. Rock Steady (Sure Is Pure Remix) (07:43)
04. Rock Steady (Sure Is Pure Dub) (05:39)
05. Rock Steady (Instrumental) (07:42)

Exact Audio Copy V1.0 beta 3 from 29. August 2011

EAC extraction logfile from 13. March 2012, 17:35

Aretha Franklin / Rock Steady (Sure Is Pure Remix)

Used drive : ATAPI DVD DW 8X16X8X16 Adapter: 0 ID: 2

Read mode : Secure
Utilize accurate stream : Yes
Defeat audio cache : Yes
Make use of C2 pointers : No

Read offset correction : 618
Overread into Lead-In and Lead-Out : No
Fill up missing offset samples with silence : Yes
Delete leading and trailing silent blocks : No
Null samples used in CRC calculations : Yes
Used interface : Native Win32 interface for Win NT & 2000

Used output format : Internal WAV Routines
Sample format : 44.100 Hz; 16 Bit; Stereo


TOC of the extracted CD

Track | Start | Length | Start sector | End sector
––––––––––––––––––––––––––––-
1 | 0:00.00 | 3:46.50 | 0 | 16999
2 | 3:46.50 | 3:14.22 | 17000 | 31571
3 | 7:00.72 | 7:42.55 | 31572 | 66276
4 | 14:43.52 | 5:39.00 | 66277 | 91701
5 | 20:22.52 | 7:42.08 | 91702 | 126359


Range status and errors

Selected range

Filename C:\BlondStyle\Rock Steady (Sure Is Pure Remix).wav

Peak level 100.0 %
Extraction speed 1.9 X
Range quality 100.0 %
Test CRC 57A246A6
Copy CRC 57A246A6
Copy OK

No errors occurred


AccurateRip summary

Track 1 accurately ripped (confidence 1) [5DEFA2C0] (AR v1)
Track 2 accurately ripped (confidence 1) [593C753B] (AR v1)
Track 3 accurately ripped (confidence 1) [AA81D2B4] (AR v1)
Track 4 accurately ripped (confidence 1) [15576977] (AR v1)
Track 5 accurately ripped (confidence 1) [4E1154E4] (AR v1)

All tracks accurately ripped

End of status report

==== Log checksum 6704138801B70D609B0D3BE05588DAAC877A487BD0B60F0EB034CBF924D3E02F ====

––––––––––––––––––––––––––––––––––––––––
Analyzed: Aretha Franklin / Rock Steady (Sure Is Pure Remix)
––––––––––––––––––––––––––––––––––––––––

DR Peak RMS Duration Track
––––––––––––––––––––––––––––––––––––––––
DR14 -0.46 dB -17.83 dB 3:47 01-Rock Steady (Sure Is Pure Remix Edit)
DR13 -0.69 dB -15.93 dB 3:14 02-Rock Steady (Original Version)
DR14 0.00 dB -17.63 dB 7:43 03-Rock Steady (Sure Is Pure Remix)
DR15 0.00 dB -18.84 dB 5:39 04-Rock Steady (Sure Is Pure Dub)
DR14 -0.75 dB -18.00 dB 7:42 05-Rock Steady (Instrumental)
––––––––––––––––––––––––––––––––––––––––

Number of tracks: 5
Official DR value: DR14

Samplerate: 44100 Hz
Channels: 2
Bits per sample: 16
Bitrate: 824 kbps
Codec: FLAC
================================================================================

See also:


password: BlondStyle