Subcategories

Aretha Franklin - This Girl's In Love With You (1970) [1993, Reissue]

Posted By: BlondStyle
Aretha Franklin - This Girl's In Love With You (1970) [1993, Reissue]

Aretha Franklin - This Girl's In Love With You (1970) [1993, Reissue]
R&B, Soul, Pop/Rock | EAC Rip | FLAC, Img+CUE+LOG+Scans (PNG) | 35:47 | 260,21 Mb
Label: Rhino Records Inc. (US) | Cat.# R2 71524 | Released: 1993-12-14 (1970-01-15)
Aretha Franklin - This Girl's In Love With You (1970) [1993, Reissue]

"This Girl's In Love With You" is the 16th studio album by American singer Aretha Franklin, Released on January 15, 1970 by Atlantic Records. It reached Billboard's Top 20 and was reissued on compact disc through Rhino Records in the 1990s. Her version of The Beatles' "Let It Be" was the first recording of the song to be commercially issued (The Beatles did not release "Let It Be" as a single until March 1970). Franklin had been sent a demo of the song as a guide.
~Wikipedia
The title song (a cover of Herb Alpert's "This Guy's in Love with You") might lead you to believe this is one of Aretha Franklin's more pop-oriented albums; but in fact, "This Girl's in Love with You" is the only song of the sort on this solid and fairly earthy effort. Besides the hit singles "Call Me" and "Share Your Love with Me," it also includes her most well-known Beatles covers ("Eleanor Rigby" and "Let It Be"), and her interesting version of "The Weight," a Top 20 single featuring slide guitar by Duane Allman.
~Review by Richie Unterberger

Aretha Franklin - This Girl's In Love With You (1970) [1993, Reissue]

Aretha Franklin - This Girl's In Love With You (1970) [1993, Reissue]




Release of the album: 1970, January, 15 [LP Atlantic Records, Cat.# SD 8248, USA]
Release of this CD: 1993, December, 14 [CD Rhino Records Inc. (US), Cat.# R2 71524 / UPC: 081227152420]
Ⓒ 1970 & 1993 Atlantic Recording Corporation
Manufactured & Distributed by Rhino Records Inc.
Printed in the U.S.A.


Credits:

Bass – David Hood
Drums – Roger Hawkins
Guitar – Duane Allman, Eddie Hinton, Jerry Weaver, Jimmy Johnson
Keyboards – Aretha Franklin, Barry Beckett
Producer – Arif Mardin, Jerry Wexler, Tom Dowd
Recorded By – Chuck Kirkpatrick, Ron Albert


Tracklist:

01. Son Of A Preacher Man (03:19)
(John Hurley, Ronnie Wilkins)
02. Share Your Love With Me (03:22)
(Al Braggs, Deadric Malone)
03. Dark End Of The Street (04:42)
(Chips Moman, Dan Penn)
04. Let It Be (03:33)
(John Lennon, Paul McCartney)
05. Eleanor Rigby (02:38)
(John Lennon, Paul McCartney)
06. This Girl's In Love With You (04:01)
(Burt Bacharach & Hal David)
07. It Ain't Fair (03:23)
(Ronnie Miller)
08. The Weight (03:00)
(Jaime Robertson)
09. Call Me (03:57)
(Aretha Franklin)
10. Sit Down And Cry (03:52)
(Clyde Otis, Lou Stallman)

Exact Audio Copy V1.1 from 23. June 2015

EAC extraction logfile from 22. August 2016, 15:00

Aretha Franklin / This Girl's in Love With You

Used drive : Memorex 52MAXX 3252AJ1 Adapter: 1 ID: 1

Read mode : Secure
Utilize accurate stream : Yes
Defeat audio cache : Yes
Make use of C2 pointers : No

Read offset correction : 6
Overread into Lead-In and Lead-Out : No
Fill up missing offset samples with silence : Yes
Delete leading and trailing silent blocks : No
Null samples used in CRC calculations : Yes
Used interface : Native Win32 interface for Win NT & 2000

Used output format : User Defined Encoder
Selected bitrate : 896 kBit/s
Quality : High
Add ID3 tag : No
Command line compressor : C:\Program Files (x86)\Exact Audio Copy\Flac\flac.exe
Additional command line options : %ishigh%-V -p -l 12 -b 4096 -m -e -r 8%ishigh%%islow%-5%islow% –replay-gain -T "ARTIST=%artist%" -T "ALBUM=%albumtitle%" -T "TITLE=%title%" -T "DATE=%year%" -T "TRACKNUMBER=%tracknr%" -T "GENRE=%genre%" -T "ENSEMBLE=%albuminterpret%" -T "ALBUMARTIST=%albumartist%" -T "COMPOSER=%albumcomposer%" -T "DISCNUMBER=%cdnumber%" -T "TOTALDISCS=%totalcds%" -T "TOTALTRACKS=%numtracks%" -T "SOURCEMEDIA=CD" -T "COMMENT=%comment%" %hascover%-T "PICTURE=%coverfile%"%hascover% %source%


TOC of the extracted CD

Track | Start | Length | Start sector | End sector
––––––––––––––––––––––––––––-
1 | 0:00.33 | 3:19.20 | 33 | 14977
2 | 3:19.53 | 3:21.67 | 14978 | 30119
3 | 6:41.45 | 4:42.08 | 30120 | 51277
4 | 11:23.53 | 3:33.27 | 51278 | 67279
5 | 14:57.05 | 2:38.15 | 67280 | 79144
6 | 17:35.20 | 4:00.73 | 79145 | 97217
7 | 21:36.18 | 3:22.42 | 97218 | 112409
8 | 24:58.60 | 2:59.63 | 112410 | 125897
9 | 27:58.48 | 3:57.05 | 125898 | 143677
10 | 31:55.53 | 3:52.05 | 143678 | 161082


Range status and errors

Selected range

Filename C:\Users\M@ce\Music\Archives\Rips\Aretha Franklin - This Girl's in Love With You.wav

Peak level 97.2 %
Extraction speed 8.5 X
Range quality 100.0 %
Test CRC F20F2E32
Copy CRC F20F2E32
Copy OK

No errors occurred


AccurateRip summary

Track 1 accurately ripped (confidence 5) [B5B9EDF6] (AR v2)
Track 2 accurately ripped (confidence 5) [05574F49] (AR v2)
Track 3 accurately ripped (confidence 6) [A7ACCBDB] (AR v2)
Track 4 accurately ripped (confidence 6) [65E9569A] (AR v2)
Track 5 accurately ripped (confidence 6) [3DF5CEEA] (AR v2)
Track 6 accurately ripped (confidence 6) [6528EB1D] (AR v2)
Track 7 accurately ripped (confidence 6) [0D31B406] (AR v2)
Track 8 accurately ripped (confidence 6) [F86F241F] (AR v2)
Track 9 accurately ripped (confidence 6) [523BE65C] (AR v2)
Track 10 accurately ripped (confidence 6) [EC51E725] (AR v2)

All tracks accurately ripped

End of status report

–– CUETools DB Plugin V2.1.6

[CTDB TOCID: bj4i4hYK93uTrd9bnvK1liPO3js-] found
Submit result: bj4i4hYK93uTrd9bnvK1liPO3js- has been confirmed
Track | CTDB Status
1 | (4/4) Accurately ripped
2 | (4/4) Accurately ripped
3 | (4/4) Accurately ripped
4 | (4/4) Accurately ripped
5 | (4/4) Accurately ripped
6 | (4/4) Accurately ripped
7 | (4/4) Accurately ripped
8 | (4/4) Accurately ripped
9 | (4/4) Accurately ripped
10 | (4/4) Accurately ripped


==== Log checksum 2500885522C4B1A29AB57B7A38573067EB851745F77F9E058410E113156DC488 ====

––––––––––––––––––––––––––––––––––––––––
Analyzed: Aretha Franklin / This Girl's in Love With You
––––––––––––––––––––––––––––––––––––––––

DR Peak RMS Duration Track
––––––––––––––––––––––––––––––––––––––––
DR11 -0.24 dB -14.31 dB 3:19 01-Son of a Preacher Man
DR12 -0.24 dB -14.95 dB 3:22 02-Share Your Love With Me
DR11 -0.24 dB -14.45 dB 4:42 03-Dark End of the Street
DR11 -0.24 dB -16.04 dB 3:33 04-Let It Be
DR11 -0.24 dB -13.01 dB 2:38 05-Eleanor Rigby
DR10 -0.24 dB -13.86 dB 4:01 06-This Girl's in Love With You
DR12 -0.24 dB -16.11 dB 3:23 07-It Ain't Fair
DR13 -0.24 dB -15.41 dB 3:00 08-The Weight
DR11 -0.24 dB -14.22 dB 3:57 09-Call Me
DR10 -0.24 dB -14.41 dB 3:52 10-Sit Down and Cry
––––––––––––––––––––––––––––––––––––––––

Number of tracks: 10
Official DR value: DR11

Samplerate: 44100 Hz
Channels: 2
Bits per sample: 16
Bitrate: 819 kbps
Codec: FLAC
================================================================================

Thanks to my friend, M@ce

See also:

♫~Welcome To My Blog~♫

password: BlondStyle