Subcategories

Argent - In Deep + Nexus (1973/1974) {2005, Reissue}

Posted By: popsakov
Argent - In Deep + Nexus (1973/1974) {2005, Reissue}

Argent - In Deep + Nexus (1973/1974) {2005, Reissue}
EAC Rip | FLAC (Img) + Cue + Log ~ 559 Mb | MP3 CBR320 ~ 211 Mb
Scans (JPG, 600 dpi) ~ 82 Mb | RAR 5% Recovery
Progressive Rock, Classic Rock | Edsel Records #MEDCD 759

Argent were an English rock band founded in 1969 by keyboardist Rod Argent, formerly of The Zombies. They were best known for their songs "Hold Your Head Up" and "God Gave Rock and Roll to You." In Deep, released in 1973, is the 4th studio album by Argent; originally released by Epic Records. It features the original full-length recording of "God Gave Rock and Roll to You", which reached No.18 in the UK charts (U.S. #114); when released as a single in edited form later the same year. It was later remade by Kiss as "God Gave Rock 'n' Roll to You II" for the film Bill & Ted's Bogus Journey in 1991, when it was a massive worldwide hit. Nexus is the fifth album by British rock band Argent. Released in 1974 on CBS Records (USA: Epic Records).
~ Wiki

***************

Argent - In Deep + Nexus (1973/1974) {2005, Reissue}

Argent - In Deep + Nexus (1973/1974) {2005, Reissue}

Track List CD1 - In Deep (1973):

01. God Gave Rock & Roll to You [6:47]
02. It's Only Money Part 1 [4:07]
03. It's Only Money Part 2 [5:09]
04. Losing Hold [5:32]
05. Be Glad [8:39]
06. Christmas For The Free [4:15]
07. Candles On The River [7:05]
08. Rosie [3:46]

Exact Audio Copy V1.2 from 12. August 2016

EAC extraction logfile from 9. December 2016, 12:03

Argent / In Deep

Used drive : MATSHITADVD-RAM UJ8A0AS Adapter: 1 ID: 0

Read mode : Secure
Utilize accurate stream : Yes
Defeat audio cache : Yes
Make use of C2 pointers : No

Read offset correction : 102
Overread into Lead-In and Lead-Out : No
Fill up missing offset samples with silence : Yes
Delete leading and trailing silent blocks : No
Null samples used in CRC calculations : Yes
Used interface : Native Win32 interface for Win NT & 2000

Used output format : Internal WAV Routines
Sample format : 44.100 Hz; 16 Bit; Stereo


TOC of the extracted CD

Track | Start | Length | Start sector | End sector
––––––––––––––––––––––––––––-
1 | 0:00.00 | 6:46.65 | 0 | 30514
2 | 6:46.65 | 4:07.22 | 30515 | 49061
3 | 10:54.12 | 5:09.27 | 49062 | 72263
4 | 16:03.39 | 5:31.48 | 72264 | 97136
5 | 21:35.12 | 8:38.71 | 97137 | 136057
6 | 30:14.08 | 4:15.31 | 136058 | 155213
7 | 34:29.39 | 7:04.60 | 155214 | 187073
8 | 41:34.24 | 3:46.27 | 187074 | 204050


Range status and errors

Selected range

Filename F:\Alexharvey\Argent - In Deep.wav

Peak level 99.8 %
Extraction speed 3.6 X
Range quality 100.0 %
Test CRC 7745B05F
Copy CRC 7745B05F
Copy OK

No errors occurred


AccurateRip summary

Track 1 accurately ripped (confidence 4) [B0F0A589] (AR v2)
Track 2 accurately ripped (confidence 4) [F9C4C604] (AR v2)
Track 3 accurately ripped (confidence 4) [BA0565A6] (AR v2)
Track 4 accurately ripped (confidence 4) [3E8E0025] (AR v2)
Track 5 accurately ripped (confidence 4) [579FB8C0] (AR v2)
Track 6 accurately ripped (confidence 4) [6F2AB4AD] (AR v2)
Track 7 accurately ripped (confidence 4) [DC2CC77C] (AR v2)
Track 8 accurately ripped (confidence 4) [4AB4CC78] (AR v2)

All tracks accurately ripped

End of status report

–– CUETools DB Plugin V2.1.6

[CTDB TOCID: Rm4mS4eVBJ3wk7CP2N0awowCVRs-] found
Submit result: Rm4mS4eVBJ3wk7CP2N0awowCVRs- has been confirmed
Track | CTDB Status
1 | (6/6) Accurately ripped
2 | (6/6) Accurately ripped
3 | (6/6) Accurately ripped
4 | (6/6) Accurately ripped
5 | (6/6) Accurately ripped
6 | (6/6) Accurately ripped
7 | (6/6) Accurately ripped
8 | (6/6) Accurately ripped


==== Log checksum 3A93BA2F5BF87FEB9FFB077D101BFD3A74BF53784F4B08F0D62F0A085B818B8F ====

foobar2000 1.2.6 / Dynamic Range Meter 1.1.1
log date: 2016-12-11 02:21:44

––––––––––––––––––––––––––––––––––––––––
Analyzed: Argent / In Deep
––––––––––––––––––––––––––––––––––––––––

DR Peak RMS Duration Track
––––––––––––––––––––––––––––––––––––––––
DR11 -0.10 dB -13.40 dB 6:47 01-God Gave Rock & Roll to You
DR11 -0.01 dB -12.64 dB 4:07 02-It's Only Money Part 1
DR11 -0.10 dB -13.66 dB 5:09 03-It's Only Money Part 2
DR9 -0.01 dB -11.76 dB 5:32 04-Losing Hold
DR10 -0.10 dB -13.17 dB 8:39 05-Be Glad
DR12 -0.10 dB -15.58 dB 4:15 06-Christmas For The Free
DR11 -0.10 dB -13.30 dB 7:05 07-Candles On The River
DR10 -0.10 dB -12.78 dB 3:46 08-Rosie
––––––––––––––––––––––––––––––––––––––––

Number of tracks: 8
Official DR value: DR11

Samplerate: 44100 Hz
Channels: 2
Bits per sample: 16
Bitrate: 826 kbps
Codec: FLAC
================================================================================

[CUETools log; Date: 11.12.2016 2:21:44; Version: 2.1.5]
[CTDB TOCID: Rm4mS4eVBJ3wk7CP2N0awowCVRs-] found.
Track | CTDB Status
1 | (7/7) Accurately ripped
2 | (7/7) Accurately ripped
3 | (7/7) Accurately ripped
4 | (7/7) Accurately ripped
5 | (7/7) Accurately ripped
6 | (7/7) Accurately ripped
7 | (7/7) Accurately ripped
8 | (7/7) Accurately ripped
[AccurateRip ID: 000e362f-005ee467-750aa008] found.
Track [ CRC | V2 ] Status
01 [e967047f|b0f0a589] (03+04/10) Accurately ripped
02 [68e655c1|f9c4c604] (03+04/10) Accurately ripped
03 [2e58efe2|ba0565a6] (03+04/10) Accurately ripped
04 [0e9b5904|3e8e0025] (03+04/10) Accurately ripped
05 [4107be4e|579fb8c0] (03+04/10) Accurately ripped
06 [aaf3842b|6f2ab4ad] (03+04/10) Accurately ripped
07 [76445afc|dc2cc77c] (02+04/09) Accurately ripped
08 [420cbfa4|4ab4cc78] (03+04/10) Accurately ripped
Offsetted by -664:
01 [7140e22f] (00/10) No match (V2 was not tested)
02 [c7d0d849] (00/10) No match (V2 was not tested)
03 [c5a9e1ba] (00/10) No match (V2 was not tested)
04 [4e21db94] (00/10) No match (V2 was not tested)
05 [4c3e4352] (00/10) No match (V2 was not tested)
06 [ae4fb147] (00/10) No match (V2 was not tested)
07 [a9d9dc0c] (00/09) No match (V2 was not tested)
08 [eafce254] (00/10) No match (V2 was not tested)

Track Peak [ CRC32 ] [W/O NULL] [ LOG ]
– 99,8 [7745B05F] [7868C1F5] CRC32
01 98,8 [95944351] [0EB90E11]
02 99,8 [2287EFD5] [F8BE3D90]
03 98,8 [8C6C49BC] [741706AC]
04 99,8 [94F496BB] [BFCF70A7]
05 98,8 [BC56B616] [D5220113]
06 98,8 [AFC43898] [12F5A3AE]
07 98,8 [EEADED69] [655A30BA]
08 98,8 [B7A06C54] [AA64880E]

Argent - In Deep + Nexus (1973/1974) {2005, Reissue}

Argent - In Deep + Nexus (1973/1974) {2005, Reissue}

Track List CD2 - Nexus (1974):

01. The Coming Of Kohoutek [3:03]
02. Once Around The Sun [2:49]
03. Infinite Wanderer [3:45]
04. Love [3:56]
05. Music From The Spheres [8:11]
06. Thunder And Lightning [5:08]
07. Keeper Of The Flame [6:05]
08. Man For All Reasons [4:46]
09. Gonna Meet My Maker [4:38]

Exact Audio Copy V1.2 from 12. August 2016

EAC extraction logfile from 9. December 2016, 13:05

Argent / Nexus

Used drive : MATSHITADVD-RAM UJ8A0AS Adapter: 1 ID: 0

Read mode : Secure
Utilize accurate stream : Yes
Defeat audio cache : Yes
Make use of C2 pointers : No

Read offset correction : 102
Overread into Lead-In and Lead-Out : No
Fill up missing offset samples with silence : Yes
Delete leading and trailing silent blocks : No
Null samples used in CRC calculations : Yes
Used interface : Native Win32 interface for Win NT & 2000

Used output format : Internal WAV Routines
Sample format : 44.100 Hz; 16 Bit; Stereo


TOC of the extracted CD

Track | Start | Length | Start sector | End sector
––––––––––––––––––––––––––––-
1 | 0:00.00 | 3:03.00 | 0 | 13724
2 | 3:03.00 | 2:48.62 | 13725 | 26386
3 | 5:51.62 | 3:44.66 | 26387 | 43252
4 | 9:36.53 | 3:55.59 | 43253 | 60936
5 | 13:32.37 | 8:11.16 | 60937 | 97777
6 | 21:43.53 | 5:07.41 | 97778 | 120843
7 | 26:51.19 | 6:05.05 | 120844 | 148223
8 | 32:56.24 | 4:46.07 | 148224 | 169680
9 | 37:42.31 | 4:38.01 | 169681 | 190531


Range status and errors

Selected range

Filename F:\Alexharvey\Argent - Nexus.wav

Peak level 99.8 %
Extraction speed 2.2 X
Range quality 100.0 %
Test CRC 2BE09D39
Copy CRC 2BE09D39
Copy OK

No errors occurred


AccurateRip summary

Track 1 accurately ripped (confidence 4) [8D82A9AD] (AR v2)
Track 2 accurately ripped (confidence 4) [3925236C] (AR v2)
Track 3 accurately ripped (confidence 4) [7FE2D983] (AR v2)
Track 4 accurately ripped (confidence 4) [E1819560] (AR v2)
Track 5 accurately ripped (confidence 4) [038180B0] (AR v2)
Track 6 accurately ripped (confidence 4) [1509DA59] (AR v2)
Track 7 accurately ripped (confidence 4) [0F6E02F7] (AR v2)
Track 8 accurately ripped (confidence 4) [C6DEC12C] (AR v2)
Track 9 accurately ripped (confidence 4) [FA4322CB] (AR v2)

All tracks accurately ripped

End of status report

–– CUETools DB Plugin V2.1.6

[CTDB TOCID: cTGkNYxEq_TbpebD_EwuSZL3AkM-] found
Submit result: cTGkNYxEq_TbpebD_EwuSZL3AkM- has been confirmed
Track | CTDB Status
1 | (6/6) Accurately ripped
2 | (6/6) Accurately ripped
3 | (6/6) Accurately ripped
4 | (6/6) Accurately ripped
5 | (6/6) Accurately ripped
6 | (6/6) Accurately ripped
7 | (6/6) Accurately ripped
8 | (6/6) Accurately ripped
9 | (6/6) Accurately ripped


==== Log checksum 46C965D004BE4A7A5ED08F7670B4B84734CEB651B8E8E63324F7A164027BBA00 ====

foobar2000 1.2.6 / Dynamic Range Meter 1.1.1
log date: 2016-12-11 02:19:29

––––––––––––––––––––––––––––––––––––––––
Analyzed: Argent / Nexus
––––––––––––––––––––––––––––––––––––––––

DR Peak RMS Duration Track
––––––––––––––––––––––––––––––––––––––––
DR10 -0.10 dB -12.21 dB 3:03 01-The Coming Of Kohoutek
DR8 -0.01 dB -13.06 dB 2:49 02-Once Around The Sun
DR8 -0.01 dB -10.30 dB 3:45 03-Infinite Wanderer
DR9 -0.10 dB -13.07 dB 3:56 04-Love
DR9 -0.01 dB -11.85 dB 8:11 05-Music From The Spheres
DR9 -0.01 dB -11.23 dB 5:08 06-Thunder And Lightning
DR10 -0.10 dB -12.65 dB 6:05 07-Keeper Of The Flame
DR11 -0.09 dB -14.81 dB 4:46 08-Man For All Reasons
DR12 -0.11 dB -14.08 dB 4:38 09-Gonna Meet My Maker
––––––––––––––––––––––––––––––––––––––––

Number of tracks: 9
Official DR value: DR10

Samplerate: 44100 Hz
Channels: 2
Bits per sample: 16
Bitrate: 871 kbps
Codec: FLAC
================================================================================

[CUETools log; Date: 11.12.2016 2:18:29; Version: 2.1.5]
[CTDB TOCID: cTGkNYxEq_TbpebD_EwuSZL3AkM-] found.
Track | CTDB Status
1 | (7/7) Accurately ripped
2 | (7/7) Accurately ripped
3 | (7/7) Accurately ripped
4 | (7/7) Accurately ripped
5 | (7/7) Accurately ripped
6 | (7/7) Accurately ripped
7 | (7/7) Accurately ripped
8 | (7/7) Accurately ripped
9 | (7/7) Accurately ripped
[AccurateRip ID: 000d4bc1-00653e76-7709ec09] found.
Track [ CRC | V2 ] Status
01 [6b637874|8d82a9ad] (03+04/10) Accurately ripped
02 [f31146f3|3925236c] (03+04/10) Accurately ripped
03 [6b79bb13|7fe2d983] (03+04/10) Accurately ripped
04 [18e6b9f4|e1819560] (03+04/10) Accurately ripped
05 [e127a36c|038180b0] (03+04/10) Accurately ripped
06 [94058b69|1509da59] (03+04/10) Accurately ripped
07 [2aa4cb8f|0f6e02f7] (03+04/10) Accurately ripped
08 [e5bceecb|c6dec12c] (03+04/10) Accurately ripped
09 [51cd79c7|fa4322cb] (03+04/10) Accurately ripped
Offsetted by -18:
01 [bf0b60be] (00/10) No match (V2 was not tested)
02 [1811a857] (00/10) No match (V2 was not tested)
03 [478d8345] (00/10) No match (V2 was not tested)
04 [571df486] (00/10) No match (V2 was not tested)
05 [b36ba91c] (00/10) No match (V2 was not tested)
06 [941e1e6b] (00/10) No match (V2 was not tested)
07 [05e1a1c5] (00/10) No match (V2 was not tested)
08 [b65bfc9f] (00/10) No match (V2 was not tested)
09 [895cbfb7] (00/10) No match (V2 was not tested)

Track Peak [ CRC32 ] [W/O NULL] [ LOG ]
– 99,8 [2BE09D39] [CB86F696] CRC32
01 98,8 [E163DD0E] [F909FFEA]
02 99,8 [6531FA07] [2DCDA83E]
03 99,8 [E98887BA] [180491BE]
04 98,8 [7BF77AFD] [165A4682]
05 99,8 [BFBCFC45] [AF2A1775]
06 99,8 [9497F702] [2FCB880B]
07 98,8 [B634564D] [0FE3EDA0]
08 98,9 [5BBBEFF2] [9B4D5A8F]
09 98,7 [FB14018E] [276D6780]

Argent - In Deep + Nexus (1973/1974) {2005, Reissue}

All thanks go to Alexharvey

> Visit my blog <

Download: