Subcategories

Arvo Pärt - The Very Best Of Arvo Pärt (2010)

Posted By: uff
Arvo Pärt - The Very Best Of Arvo Pärt (2010)

Arvo Pärt - The Very Best Of Arvo Pärt (2010)
Classical | 2cd | EAC Rip | Flac + Cue + Log | covers
EMI, 50999 6 29443 2 8 | rel: 2010 | 610Mb

For newcomers to the work of Estonian composer Arvo Pärt, this generous two-disc collection of performances from EMI's archive would be a good place to start exploring. The authoritative Pärt performances would probably be the premiere releases on ECM, produced by Manfred Eicher, but these performances are all of a very high quality and there is a handful of works that ECM has never recorded. Pärt's most famous works are here; there are three versions each of the ever-popular Fratres (for violin and piano, string orchestra and harp, and string quartet) and Summa (for mixed voices, string orchestra, and string quartet), as well as the version of Spiegel in Spiegel for violin and piano, Cantus in Memory of Benjamin Britten for string orchestra and bell, and the concerto for two violins and prepared piano, Tabula rasa. There is a good mix of choral, chamber, and orchestral music. English violinist Tasmin Little is featured prominently, in Fratres, Spiegel in Spiegel, and Tabula rasa, and the Chilingirian Quartet plays Summa and Fratres. The orchestral works are divided between the Bournemouth Sinfonietta led by Richard Studt and the Estonian National Symphony Orchestra led by Paavo Järvi. The choral groups include the Vasari Singers led by Jeremy Backhouse, the Choir of King's College, Cambridge, led by Stephen Cleobury, and the Estonian Philharmonic Chamber Choir led by Tönu Kaljuste. The performances are uniformly excellent; there's not a clunker among them. The sound, too, is top-notch, and perhaps surprisingly, given the variety of recording venues, it is remarkably consistent from track to track. ~Allmusic

Track listing
cd1:
01. Jeremy Backhouse - Vasari Singers - Summa (1977), for choir (4:56)
02. Jeremy Backhouse - Vasari Singers - Seven Magnificat Antiphons for choir (1988, rev.1991) - 1. O Weisheit (1:25)
03. Jeremy Backhouse - Vasari Singers - Seven Magnificat Antiphons for choir (1988, rev.1991) - 2. O Adonai (1:47)
04. Jeremy Backhouse - Vasari Singers - Seven Magnificat Antiphons for choir (1988, rev.1991) - 3.O Spross aus Isais … (0:50)
05. Jeremy Backhouse - Vasari Singers - Seven Magnificat Antiphons for choir (1988, rev.1991) - 4. O Schlussel Davids (1:49)
06. Jeremy Backhouse - Vasari Singers - Seven Magnificat Antiphons for choir (1988, rev.1991) - 5. O Morgenstern (1:54)
07. Jeremy Backhouse - Vasari Singers - Seven Magnificat Antiphons for choir (1988, rev.1991) - 6. O Konig alter Volker (1:49)
08. Jeremy Backhouse - Vasari Singers - Seven Magnificat Antiphons for choir (1988, rev.1991) - 7. O Immanuel (3:11)
09. Tasmin Little, Martin Roscoe - Fratres, for violin and piano (1980 version) (11:21)
10. Richard Studt - Bournemouth Sinfonietta - Festina lente, for string orchestra and harp (6:07)
11. Tasmin Little, Martin Roscoe - Spiegel im Spiegel, for violin and piano (8:16)
12. Stephen Cleobury - Choir of King's College, Cambridge - Magnificat, for choir (1989) (6:22)
13. Stephen Cleobury - Choir of King's College, Cambridge - The Beatitudes (1990 rev. 1991), for choir and organ (5:56)
14. Paavo Järvi - Estonian National Symphony Orchestra - Summa (1991), for string orchestra (4:52)
15. Paavo Järvi - Estonian National Symphony Orchestra - Fratres, for string orchestra and percussion (9:22)
16. Paavo Järvi - Estonian National Symphony Orchestra - Cantus in memoriam Benjamin Britten, for string orchestra and bell (6:48)

cd2:
01. Richard Studt - Bournemouth Sinfonietta, Tasmin Little, Robert Aldwinckle - Tabula rasa - 1. Ludus (with movement) (10:54)
02. Richard Studt - Bournemouth Sinfonietta, Tasmin Little, Robert Aldwinckle - Tabula rasa - 2. Silentium (without movement) (16:21)
03. The Chilingirian Quartet - Summa (4:34)
04. The Chilingirian Quartet - Fratres (quartet version) (11:51)
05. Tönu Kaljuste - Estonian Philharmonic Chamber Choir, Christopher Bowers-Broad… - De profundis (5:34)
06. Tönu Kaljuste - Estonian Philharmonic Chamber Choir, Ene Salumae - Cantate Domino (2:43)
07. Tönu Kaljuste - Estonian Philharmonic Chamber Choir - Beatus Petronius (5:09)
08. Tönu Kaljuste - Estonian Philharmonic Chamber Choir - Solfessio (4:03)
09. Tönu Kaljuste - Estonian Philharmonic Chamber Choir - Missa syllabica - 1. Kyrie (2:38)
10. Tönu Kaljuste - Estonian Philharmonic Chamber Choir - Missa syllabica - 2. Gloria (2:21)
11. Tönu Kaljuste - Estonian Philharmonic Chamber Choir - Missa syllabica - 3. Credo (6:43)
12. Tönu Kaljuste - Estonian Philharmonic Chamber Choir - Missa syllabica - 4. Sanctus (1:24)
13. Tönu Kaljuste - Estonian Philharmonic Chamber Choir - Missa syllabica - 5. Agnus Dei (2:23)
14. Tönu Kaljuste - Estonian Philharmonic Chamber Choir - Missa syllabica - 6. Ite, missa est (0:36)


Exact Audio Copy V0.99 prebeta 5 from 4. May 2009

Отчёт EAC об извлечении, выполненном 6. августа 2012, 12:29

Various Artists / The Very Best of Arvo Pдrt [EMI, Disc 1]

Дисковод: _NEC DVD_RW ND-4571A Adapter: 0 ID: 0

Режим чтения : Достоверность
Использование точного потока : Да
Отключение кэша аудио : Да
Использование указателей C2 : Нет

Коррекция смещения при чтении : 48
Способность читать области Lead-in и Lead-out : Нет
Заполнение пропущенных сэмплов тишиной : Да
Удаление блоков с тишиной в начале и конце : Нет
При вычислениях CRC использовались нулевые сэмплы : Да
Интерфейс : Встроенный Win32-интерфейс для Win NT/2000

Выходной формат : Пользовательский кодировщик
Выбранный битрейт : 768 kBit/s
Качество : Высокий
Добавление ID3-тэга : Нет
Утилита сжатия : C:\Program Files\Exact Audio Copy\Flac\flac.exe
Дополнительные параметры : -6 -V -T "ARTIST=%a" -T "TITLE=%t" -T "ALBUM=%g" -T "DATE=%y" -T "TRACKNUMBER=%n" -T "GENRE=%m" -T "COMMENT=%e" %s -o %d


TOC извлечённого CD

Трек | Старт | Длительность | Начальный сектор | Конечный сектор
––––––––––––––––––––––––––––––––––-
1 | 0:00.00 | 4:59.18 | 0 | 22442
2 | 4:59.18 | 1:28.41 | 22443 | 29083
3 | 6:27.59 | 1:47.01 | 29084 | 37109
4 | 8:14.60 | 0:50.40 | 37110 | 40899
5 | 9:05.25 | 1:49.27 | 40900 | 49101
6 | 10:54.52 | 1:54.25 | 49102 | 57676
7 | 12:49.02 | 1:49.24 | 57677 | 65875
8 | 14:38.26 | 3:13.42 | 65876 | 80392
9 | 17:51.68 | 11:21.51 | 80393 | 131518
10 | 29:13.44 | 6:07.26 | 131519 | 159069
11 | 35:20.70 | 8:16.06 | 159070 | 196275
12 | 43:37.01 | 6:22.11 | 196276 | 224936
13 | 49:59.12 | 5:56.21 | 224937 | 251657
14 | 55:55.33 | 5:00.32 | 251658 | 274189
15 | 60:55.65 | 9:30.40 | 274190 | 316979
16 | 70:26.30 | 6:48.54 | 316980 | 347633


Характеристики диапазона извлечения и сообщения об ошибках

Выбранный диапазон

Имя файла F:\EAC\A.Part - The Very Best of A.Part\A.Part - The Very Best of A.Part CD1\A.Part - The Very Best of A.Part cd1.wav

Пиковый уровень 100.0 %
Качество диапазона 100.0 %
CRC копии B7A7FE1E
Копирование… OK

Ошибок не произошло


AccurateRip: сводка

Трек 1 точность не определена (достоверность 9) [516AEB04], AccurateRip вернул [6C873F14]
Трек 2 точность не определена (достоверность 10) [9D286D2C], AccurateRip вернул [1B4EF00A]
Трек 3 точность не определена (достоверность 10) [C91F736C], AccurateRip вернул [026438FF]
Трек 4 точность не определена (достоверность 10) [28182D24], AccurateRip вернул [4F55BBF2]
Трек 5 точность не определена (достоверность 10) [DF6C0237], AccurateRip вернул [72EAFEE2]
Трек 6 точность не определена (достоверность 10) [D40D3AF1], AccurateRip вернул [81869A5D]
Трек 7 точность не определена (достоверность 10) [88A1BC7F], AccurateRip вернул [D74CD5EE]
Трек 8 точность не определена (достоверность 10) [CC66453C], AccurateRip вернул [028A62F5]
Трек 9 точность не определена (достоверность 9) [A7212539], AccurateRip вернул [7913DC83]
Трек 10 точность не определена (достоверность 9) [90BD47FA], AccurateRip вернул [5301EE44]
Трек 11 точность не определена (достоверность 9) [4EADFDDC], AccurateRip вернул [5060A0AD]
Трек 12 точность не определена (достоверность 9) [9FA185DE], AccurateRip вернул [1E5545B1]
Трек 13 точность не определена (достоверность 9) [6D4CC0BF], AccurateRip вернул [843A2997]
Трек 14 точность не определена (достоверность 9) [ED4B8649], AccurateRip вернул [28EE1E97]
Трек 15 точность не определена (достоверность 8) [4992BF8A], AccurateRip вернул [110ADEBC]
Трек 16 точность не определена (достоверность 8) [0CEEBA68], AccurateRip вернул [4B0568E0]

Ни один трек не прошёл проверки на точность
В вашей базе может быть иной вариант штамповки диска

Конец отчёта
–––

Exact Audio Copy V0.99 prebeta 5 from 4. May 2009

Отчёт EAC об извлечении, выполненном 6. августа 2012, 14:43

Various Artists / The Very Best of Arvo Pдrt [EMI, Disc 2]

Дисковод: _NEC DVD_RW ND-4571A Adapter: 0 ID: 0

Режим чтения : Достоверность
Использование точного потока : Да
Отключение кэша аудио : Да
Использование указателей C2 : Нет

Коррекция смещения при чтении : 48
Способность читать области Lead-in и Lead-out : Нет
Заполнение пропущенных сэмплов тишиной : Да
Удаление блоков с тишиной в начале и конце : Нет
При вычислениях CRC использовались нулевые сэмплы : Да
Интерфейс : Встроенный Win32-интерфейс для Win NT/2000

Выходной формат : Пользовательский кодировщик
Выбранный битрейт : 768 kBit/s
Качество : Высокий
Добавление ID3-тэга : Нет
Утилита сжатия : C:\Program Files\Exact Audio Copy\Flac\flac.exe
Дополнительные параметры : -6 -V -T "ARTIST=%a" -T "TITLE=%t" -T "ALBUM=%g" -T "DATE=%y" -T "TRACKNUMBER=%n" -T "GENRE=%m" -T "COMMENT=%e" %s -o %d


TOC извлечённого CD

Трек | Старт | Длительность | Начальный сектор | Конечный сектор
––––––––––––––––––––––––––––––––––-
1 | 0:00.00 | 10:54.53 | 0 | 49102
2 | 10:54.53 | 16:21.17 | 49103 | 122694
3 | 27:15.70 | 4:34.04 | 122695 | 143248
4 | 31:49.74 | 11:51.35 | 143249 | 196608
5 | 43:41.34 | 5:34.11 | 196609 | 221669
6 | 49:15.45 | 2:43.62 | 221670 | 233956
7 | 51:59.32 | 5:09.42 | 233957 | 257173
8 | 57:08.74 | 4:03.69 | 257174 | 275467
9 | 61:12.68 | 2:38.58 | 275468 | 287375
10 | 63:51.51 | 2:21.21 | 287376 | 297971
11 | 66:12.72 | 6:43.50 | 297972 | 328246
12 | 72:56.47 | 1:24.52 | 328247 | 334598
13 | 74:21.24 | 2:23.38 | 334599 | 345361
14 | 76:44.62 | 0:36.56 | 345362 | 348117


Характеристики диапазона извлечения и сообщения об ошибках

Выбранный диапазон

Имя файла F:\EAC\A.Part - The Very Best of A.Part\A.Part - The Very Best of A.Part CD2\A.Part - The Very Best of A.Part cd2.wav

Пиковый уровень 96.6 %
Качество диапазона 99.9 %
CRC копии 92B030D1
Копирование… OK

Ошибок не произошло


AccurateRip: сводка

Трек 1 точное извлечение (доверие 2) [4901E866]
Трек 2 точное извлечение (доверие 2) [4FFF0DF9]
Трек 3 точное извлечение (доверие 2) [891AEE9F]
Трек 4 точное извлечение (доверие 2) [8A22F67F]
Трек 5 точное извлечение (доверие 2) [3C2D37D2]
Трек 6 точное извлечение (доверие 2) [BC715391]
Трек 7 точное извлечение (доверие 2) [156B8C05]
Трек 8 точное извлечение (доверие 2) [D1A1F0C2]
Трек 9 точное извлечение (доверие 2) [4D559746]
Трек 10 точное извлечение (доверие 2) [0CAA9088]
Трек 11 точное извлечение (доверие 2) [8983ACDF]
Трек 12 точное извлечение (доверие 2) [8408D3E8]
Трек 13 точное извлечение (доверие 2) [6187659E]
Трек 14 точное извлечение (доверие 2) [E84A3B53]

Все треки извлечены точно

Конец отчёта



[CUETools log; Date: 2017. 02. 28. 14:31:38; Version: 2.1.6]
[CTDB TOCID: sxiGVa93zYoZU5oV3p1jy9RTBwQ-] found.
Track | CTDB Status
1 | (144/145) Accurately ripped
2 | (145/145) Accurately ripped
3 | (145/145) Accurately ripped
4 | (145/145) Accurately ripped
5 | (145/145) Accurately ripped
6 | (145/145) Accurately ripped
7 | (145/145) Accurately ripped
8 | (145/145) Accurately ripped
9 | (145/145) Accurately ripped
10 | (144/145) Accurately ripped
11 | (145/145) Accurately ripped
12 | (145/145) Accurately ripped
13 | (145/145) Accurately ripped
14 | (145/145) Accurately ripped
15 | (144/145) Accurately ripped
16 | (143/145) Accurately ripped
[AccurateRip ID: 0022dd31-01c08bec-de121b10] found.
Track [ CRC | V2 ] Status
01 [516aeb04|b6a6e3be] (003+035/121) Accurately ripped
02 [9d286d2c|3fdbf44f] (003+035/123) Accurately ripped
03 [c91f736c|8a354bf2] (003+035/123) Accurately ripped
04 [28182d24|ae816d69] (003+035/122) Accurately ripped
05 [df6c0237|9eff14a9] (003+035/123) Accurately ripped
06 [d40d3af1|f6d2625d] (003+035/123) Accurately ripped
07 [88a1bc7f|b6897e87] (003+035/123) Accurately ripped
08 [cc66453c|c9a30716] (003+035/123) Accurately ripped
09 [a7212539|9c7ccafc] (003+036/123) Accurately ripped
10 [90bd47fa|9dab0e2f] (003+036/124) Accurately ripped
11 [4eadfddc|bb9ad7ee] (003+035/122) Accurately ripped
12 [9fa185de|18c003f2] (003+035/121) Accurately ripped
13 [6d4cc0bf|805f2e37] (003+035/122) Accurately ripped
14 [ed4b8649|a5c9594f] (003+035/122) Accurately ripped
15 [4992bf8a|31688ecf] (003+035/120) Accurately ripped
16 [0ceeba68|5f6330ef] (003+034/121) Accurately ripped
Offsetted by -32:
01 [1b6d1804] (005/121) Accurately ripped
02 [a7bc458c] (005/123) Accurately ripped
03 [7d59927b] (005/123) Accurately ripped
04 [f4764f52] (005/122) Accurately ripped
05 [060d74f0] (005/123) Accurately ripped
06 [1a2a52e2] (005/123) Accurately ripped
07 [475c0966] (005/123) Accurately ripped
08 [b2a8b966] (005/123) Accurately ripped
09 [4442abc1] (005/123) Accurately ripped
10 [a3e1fcc3] (005/124) Accurately ripped
11 [97fc43c4] (005/122) Accurately ripped
12 [a869aa6a] (005/121) Accurately ripped
13 [afdaa508] (005/122) Accurately ripped
14 [8033b34b] (005/122) Accurately ripped
15 [8784742a] (005/120) Accurately ripped
16 [765c8be8] (005/121) Accurately ripped
Offsetted by 36:
01 [0e287864] (005/121) Accurately ripped
02 [f14219c0] (005/123) Accurately ripped
03 [b02116c9] (005/123) Accurately ripped
04 [6fd2c3c1] (005/122) Accurately ripped
05 [8f0b2a14] (005/123) Accurately ripped
06 [229834f3] (005/123) Accurately ripped
07 [a339a7ce] (005/123) Accurately ripped
08 [7f4d100c] (005/123) Accurately ripped
09 [8f02890e] (005/123) Accurately ripped
10 [33f46c7b] (005/124) Accurately ripped
11 [497f657b] (005/122) Accurately ripped
12 [98fe4853] (005/121) Accurately ripped
13 [3586c3a6] (005/122) Accurately ripped
14 [9026f870] (005/122) Accurately ripped
15 [23e2d456] (005/120) Accurately ripped
16 [36532eb8] (005/121) Accurately ripped
Offsetted by 54:
01 [6c873f14] (009/121) Accurately ripped
02 [1b4ef00a] (010/123) Accurately ripped
03 [026438ff] (010/123) Accurately ripped
04 [4f55bbf2] (010/122) Accurately ripped
05 [72eafee2] (010/123) Accurately ripped
06 [81869a5d] (010/123) Accurately ripped
07 [d74cd5ee] (010/123) Accurately ripped
08 [028a62f5] (010/123) Accurately ripped
09 [7913dc83] (009/123) Accurately ripped
10 [5301ee44] (009/124) Accurately ripped
11 [5060a0ad] (009/122) Accurately ripped
12 [1e5545b1] (009/121) Accurately ripped
13 [843a2997] (009/122) Accurately ripped
14 [28ee1e97] (009/122) Accurately ripped
15 [110adebc] (008/120) Accurately ripped
16 [4b0568e0] (008/121) Accurately ripped
Offsetted by 18:
01 [afc9b1b4] (000/121) No match (V2 was not tested)
02 [c7354376] (000/123) No match (V2 was not tested)
03 [5884f749] (000/123) No match (V2 was not tested)
04 [a20bcfe8] (000/122) No match (V2 was not tested)
05 [3fffaa36] (000/123) No match (V2 was not tested)
06 [d45262d4] (000/123) No match (V2 was not tested)
07 [3638d93d] (000/123) No match (V2 was not tested)
08 [15a9ad6f] (000/123) No match (V2 was not tested)
09 [aa36c26e] (000/123) No match (V2 was not tested)
10 [85e2bfe8] (000/124) No match (V2 was not tested)
11 [b4c5ef54] (000/122) No match (V2 was not tested)
12 [c9f3a1b1] (000/121) No match (V2 was not tested)
13 [b3bd24dc] (000/122) No match (V2 was not tested)
14 [d092c174] (000/122) No match (V2 was not tested)
15 [36bac9f0] (000/120) No match (V2 was not tested)
16 [21a0f490] (000/121) No match (V2 was not tested)

Track Peak [ CRC32 ] [W/O NULL]
– 100,0 [B7A7FE1E] [339C5F87]
01 42,4 [B2BCEB4B] [05BE0557]
02 7,9 [EC064C1F] [213F6358]
03 5,2 [48D173B8] [03BF94D9]
04 48,3 [46D44ABB] [7E637A17]
05 73,7 [20B3D9A7] [E529C268]
06 14,0 [CE3EA8E4] [1C66D6DB]
07 26,6 [4F2099B1] [EFAEC861]
08 76,4 [50D1FAB3] [52741557]
09 47,5 [F5E39308] [03FAE1C3]
10 58,3 [78BFA79A] [871EC489]
11 9,9 [5FF1D0A4] [3391650F]
12 100,0 [D5CC2DCD] [6F084FC7]
13 46,6 [C7683B8D] [58121B80]
14 47,9 [26485260] [0715CD88]
15 80,4 [8ED0BAEC] [9543B454]
16 80,1 [8B9D4FFC] [EA2AFBBF]
––

[CUETools log; Date: 2017. 02. 28. 14:31:10; Version: 2.1.6]
[CTDB TOCID: 8ln1wIeCYguCYCcJFqv88cT3jA4-] found.
Track | CTDB Status
1 | (103/107) Accurately ripped
2 | (104/107) Accurately ripped
3 | (103/107) Accurately ripped
4 | (101/107) Accurately ripped
5 | (105/107) Accurately ripped
6 | (105/107) Accurately ripped
7 | (105/107) Accurately ripped
8 | (105/107) Accurately ripped
9 | (105/107) Accurately ripped
10 | (105/107) Accurately ripped
11 | (105/107) Accurately ripped
12 | (105/107) Accurately ripped
13 | (102/107) Accurately ripped
14 | (105/107) Accurately ripped
[AccurateRip ID: 003483bf-02072911-d812210e] found.
Track [ CRC | V2 ] Status
01 [4901e866|b55fcf06] (06+52/75) Accurately ripped
02 [4fff0df9|9a3a6554] (06+53/77) Accurately ripped
03 [891aee9f|27b3ef9e] (06+53/77) Accurately ripped
04 [8a22f67f|8c4b6b27] (06+53/77) Accurately ripped
05 [3c2d37d2|c316b388] (06+53/77) Accurately ripped
06 [bc715391|939c6008] (06+54/78) Accurately ripped
07 [156b8c05|89548084] (06+53/77) Accurately ripped
08 [d1a1f0c2|8b1d3e60] (06+53/77) Accurately ripped
09 [4d559746|6bdb03b2] (06+53/77) Accurately ripped
10 [0caa9088|a2040660] (06+53/77) Accurately ripped
11 [8983acdf|2291baf8] (05+52/75) Accurately ripped
12 [8408d3e8|d34c3b40] (05+53/76) Accurately ripped
13 [6187659e|a757780a] (06+53/77) Accurately ripped
14 [e84a3b53|8ebc1081] (06+53/77) Accurately ripped
Offsetted by 36:
01 [85c40e9c] (02/75) Accurately ripped
02 [7a80af83] (02/77) Accurately ripped
03 [3f421dc5] (02/77) Accurately ripped
04 [6c532931] (02/77) Accurately ripped
05 [6d506cea] (02/77) Accurately ripped
06 [8d8cdbcd] (02/78) Accurately ripped
07 [ccd07a51] (02/77) Accurately ripped
08 [ec64399e] (02/77) Accurately ripped
09 [fc04ce74] (02/77) Accurately ripped
10 [e62b1030] (02/77) Accurately ripped
11 [b913fb16] (02/75) Accurately ripped
12 [e414ebfe] (02/76) Accurately ripped
13 [25e0b0c4] (02/77) Accurately ripped
14 [acbb45a6] (02/77) Accurately ripped
Offsetted by -36:
01 [00fc12e7] (00/75) No match (V2 was not tested)
02 [b7a9a684] (00/77) No match (V2 was not tested)
03 [d6f36292] (00/77) No match (V2 was not tested)
04 [bb64ccf4] (00/77) No match (V2 was not tested)
05 [0b0a02ba] (00/77) No match (V2 was not tested)
06 [eb55cb55] (00/78) No match (V2 was not tested)
07 [5e069db9] (00/77) No match (V2 was not tested)
08 [b6dfa7e6] (00/77) No match (V2 was not tested)
09 [a60518c6] (00/77) No match (V2 was not tested)
10 [94866d59] (00/77) No match (V2 was not tested)
11 [dea395ac] (00/75) No match (V2 was not tested)
12 [10f8fbee] (00/76) No match (V2 was not tested)
13 [b82af38e] (00/77) No match (V2 was not tested)
14 [22b08bc7] (00/77) No match (V2 was not tested)

Track Peak [ CRC32 ] [W/O NULL]
– 96,6 [92B030D1] [522687D3]
01 96,6 [468F4B12] [C210B9E3]
02 15,2 [52FBEF6B] [0CBF58AC]
03 45,0 [36C55B4C] [EFE89B85]
04 74,6 [D707B432] [7A7255FD]
05 86,2 [50966160] [50EA251E]
06 34,3 [73692707] [1C009EFF]
07 17,9 [1DFCBF61] [AD1D66AD]
08 63,9 [5BB7100A] [8EB57BA2]
09 5,9 [6457F627] [EF1ED6B7]
10 27,3 [22AD4260] [2B37DFAF]
11 34,8 [4F683AF7] [3E329371]
12 91,2 [47D8FF4D] [BEA04AA0]
13 8,4 [3CC9B9B7] [51061367]
14 52,4 [D61D28F2] [593F5967]


Thx to JVA